#VERSION:0.83;
#TITLE:Last Rebirth;
#SUBTITLE:;
#ARTIST:SHK;
#TITLETRANSLIT:;
#SUBTITLETRANSLIT:;
#ARTISTTRANSLIT:;
#GENRE:;
#ORIGIN:;
#CREDIT:T. Li;
#BANNER:Last Rebirth-bn.png;
#BACKGROUND:Last Rebirth-bg-wide.png;
#PREVIEWVID:;
#JACKET:Last Rebirth-jacket.png;
#CDIMAGE:;
#DISCIMAGE:;
#LYRICSPATH:;
#CDTITLE:loodeecdtitle.png;
#MUSIC:Last Rebirth.ogg;
#OFFSET:-0.638000;
#SAMPLESTART:66.137001;
#SAMPLELENGTH:27.704000;
#SELECTABLE:YES;
#BPMS:0.000=120.000;
#STOPS:;
#DELAYS:;
#WARPS:;
#TIMESIGNATURES:0.000=4=4;
#TICKCOUNTS:0.000=4;
#COMBOS:0.000=1;
#SPEEDS:0.000=1.000=0.000=0;
#SCROLLS:0.000=1.000;
#FAKES:;
#LABELS:0.000=Song Start;
#BGCHANGES:;
#KEYSOUNDS:;
#ATTACKS:
;

//---------------dance-single - Loodee----------------
#NOTEDATA:;
#CHARTNAME:Loodee;
#STEPSTYPE:dance-single;
#DESCRIPTION:Loodee;
#CHARTSTYLE:;
#DIFFICULTY:Challenge;
#METER:10;
#RADARVALUES:0.611648,0.789916,0.298081,0.352278,0.618745,474.000000,441.000000,33.000000,39.000000,0.000000,0.000000,0.000000,0.000000,0.000000,0.611648,0.789916,0.298081,0.352278,0.618745,474.000000,441.000000,33.000000,39.000000,0.000000,0.000000,0.000000,0.000000,0.000000;
#CREDIT:Loodee;
#NOTES:
// measure 0
0000
0000
0000
0000
,  // measure 1
0000
0000
0000
0000
,  // measure 2
0000
0000
0000
0000
,  // measure 3
0000
0000
0000
0000
,  // measure 4
1010
0000
0000
0000
0001
0000
0010
0001
0000
0000
0001
0000
1000
0000
0010
0000
,  // measure 5
0010
0000
0100
0000
0010
0000
0001
0010
0000
0000
0100
0000
0001
0000
0010
0000
,  // measure 6
0001
1000
0010
1000
0100
1000
0010
0100
,  // measure 7
0001
0010
0100
0010
0001
1000
0010
0200
0000
0000
0000
0000
0000
0000
0000
0000
,  // measure 8
0302
0000
0000
0000
0000
0000
0000
0000
0000
0000
0000
0000
0013
0100
1000
0100
,  // measure 9
0010
0000
0001
0000
1001
0000
1000
0010
0000
0000
0100
0000
0100
0001
0010
0100
,  // measure 10
1000
0000
0100
0000
1100
0000
1000
0001
0000
0000
0100
0000
1000
0100
0010
0100
,  // measure 11
0001
0000
1000
0000
1001
0000
0001
0010
0000
0000
0010
0000
0001
0000
1000
0000
,  // measure 12
0010
1000
0100
0010
0100
0010
0001
0100
0000
0000
0010
0000
0100
0010
0001
0010
,  // measure 13
1000
0000
0001
0000
0011
0000
0010
0100
0000
0000
0100
0000
0110
0000
0001
0000
,  // measure 14
0001
0000
0010
0000
0100
0000
0001
0100
0000
0000
1000
0000
0010
0000
0100
0000
,  // measure 15
0001
1000
0010
1000
0001
0010
0100
0001
0000
0000
0001
0000
0100
0000
1000
0000
,  // measure 16
1000
0010
0100
0001
0010
0100
0010
1000
0000
0000
0010
0000
0100
1000
0001
1000
,  // measure 17
0010
0000
0000
0000
1001
0000
2000
0100
0000
0000
3100
0000
0020
0000
0032
0000
,  // measure 18
2003
0000
3010
0000
0110
0000
0100
0001
0020
0000
0100
0000
0230
0000
0000
0000
,  // measure 19
1300
0000
0000
0000
1010
0000
0020
0100
0000
0000
0130
0000
0002
0000
2003
0000
,  // measure 20
3100
1000
0010
0100
0001
0010
0100
1000
0020
0000
1030
1000
0100
0100
0010
0001
,  // measure 21
0200
0000
0310
0000
0110
0000
0010
1000
0002
0000
0013
0000
0011
0000
0010
0001
,  // measure 22
2000
0000
3010
0000
1010
0000
0010
0100
0002
0000
0013
0000
0021
0000
0000
0000
,  // measure 23
0032
0000
1003
0000
1001
0000
1000
0010
0200
0000
0320
0000
0230
0000
2300
0000
,  // measure 24
3100
0010
0100
0001
0010
0100
1000
0020
0000
0000
0130
0000
0100
0001
0010
0001
,  // measure 25
2001
0000
0000
0000
3010
0000
0100
0000
0001
0000
0000
0010
0000
0000
0001
0000
,  // measure 26
0101
0000
0100
0000
0010
0000
1000
0000
0100
0000
0000
0010
0000
0000
0001
0100
,  // measure 27
0010
0000
1000
0000
0000
0010
0000
0000
0001
0000
0000
0010
0000
0000
1000
0000
,  // measure 28
1100
0000
0100
0000
0000
0000
0010
0000
0100
0000
0000
1000
0000
0000
0001
0100
,  // measure 29
0020
0000
1030
0001
1000
0010
0100
0001
,  // measure 30
1001
0000
0000
1010
0000
0000
0011
0000
0000
0101
0000
1010
0000
0000
1001
0000
,  // measure 31
0021
0000
0130
1000
0100
0010
0001
0100
,  // measure 32
0110
0000
1001
0000
0000
0011
0000
0000
0001
1000
0010
0000
0010
0100
0001
0010
,  // measure 33
0100
0000
1000
0000
1100
0000
0100
0010
0000
0000
0100
0000
0100
1000
0010
1000
,  // measure 34
0001
0000
0100
0000
0101
0000
0001
1000
0000
0000
0100
0000
0001
0100
0010
0001
,  // measure 35
1000
0000
0001
0000
0101
0000
0100
0010
0000
0000
0010
0000
1000
0000
0001
0000
,  // measure 36
0010
0100
0010
0001
1000
0010
0100
0001
0000
0000
0100
0000
0010
0001
0010
1000
,  // measure 37
0001
0000
0010
0000
0011
0000
0001
1000
0000
0000
1000
0000
1010
0000
0010
0000
,  // measure 38
0100
0000
0001
0000
0010
0000
1000
0010
0000
0000
0100
0000
1000
0000
0001
0000
,  // measure 39
0010
0100
0010
0001
0100
0010
0100
1000
0000
0000
1000
0000
0100
0000
0001
0000
,  // measure 40
0001
0010
0001
1000
0010
0100
0010
0001
0000
0000
0010
0000
0100
0001
1000
0001
,  // measure 41
0010
0000
0100
0000
0010
0000
0001
0010
0100
0000
1000
0000
0010
0000
0100
0000
,  // measure 42
0001
0010
0100
1000
0010
0100
0001
0010
0001
0100
0010
0100
2000
0000
0000
0000
,  // measure 43
3001
0010
0100
0001
1000
0100
0010
0001
1000
0010
0100
0010
0001
0010
0100
0001
,  // measure 44
1000
0100
0010
0100
1000
0001
1000
0010
1000
0100
0010
0100
0001
0100
1000
0100
,  // measure 45
2000
3020
0230
0302
2003
3200
0320
0230
,  // measure 46
0301
0100
0010
0100
1000
0001
0100
0010
0001
0010
1000
0001
0020
0000
0000
0000
,  // measure 47
1030
0010
0100
1000
0001
1000
0010
0100
0001
1000
0010
0100
1000
0100
0010
1000
,  // measure 48
0001
0010
0001
0100
0010
1000
0100
1000
0001
0010
0100
1000
0010
1000
0001
0010
,  // measure 49
0200
0000
0000
0000
,  // measure 50
0000
0000
0000
0000
0000
0000
0000
0000
0000
0000
0000
0000
0000
0000
0000
0300
,  // measure 51
2002
0000
0000
0000
,  // measure 52
0000
0000
0000
0000
,  // measure 53
3003
0000
0000
0000
;

//---------------dance-single - Loodee----------------
#NOTEDATA:;
#CHARTNAME:Loodee;
#STEPSTYPE:dance-single;
#DESCRIPTION:Loodee;
#CHARTSTYLE:;
#DIFFICULTY:Easy;
#METER:3;
#RADARVALUES:0.152267,0.239368,0.063229,0.252918,0.000000,118.000000,111.000000,7.000000,28.000000,0.000000,0.000000,0.000000,0.000000,0.000000,0.152267,0.239368,0.063229,0.252918,0.000000,118.000000,111.000000,7.000000,28.000000,0.000000,0.000000,0.000000,0.000000,0.000000;
#CREDIT:Loodee;
#NOTES:
0000
0000
0000
0000
,
0000
0000
0000
0000
,
0000
0000
0000
0000
,
0000
0000
0000
0000
,
0001
0000
0000
0000
,
1000
0000
0000
0000
,
0100
0000
0000
0000
,
0010
0000
0000
0000
,
0002
0000
0000
0000
,
0103
0100
0000
0001
,
1000
1000
0000
0001
,
0010
0001
0000
1000
,
0010
0000
0010
0000
0000
0000
1000
0001
,
1000
0100
0000
0100
,
0010
0001
0000
0001
,
2000
0000
0000
3000
0000
0000
0001
0000
,
0002
0000
0000
0003
0000
0000
0010
0000
,
0100
0200
0000
0000
,
2300
0000
3002
0000
,
1003
2000
0000
0000
,
3010
0100
0010
0000
1000
0000
0001
0000
,
0010
0010
0001
0001
,
1000
1000
0001
0001
,
0100
0100
0010
1000
,
0001
0100
0000
0000
,
2002
0000
0000
3003
,
1100
0000
0000
0000
,
2002
0000
0000
3003
,
0101
0000
0000
0000
,
0220
0000
0000
0330
,
2000
0000
0000
3000
0000
0000
0000
0000
,
2200
0000
0000
3300
,
0002
0000
0000
0003
,
0100
0010
0000
0010
,
1000
0100
0000
0100
,
0010
0001
0000
0010
,
0100
0000
0100
0000
0000
0000
1000
0001
,
1000
0010
0000
0010
,
0100
0001
0000
0001
,
0020
0000
0000
0030
0000
0000
0000
0000
,
0200
0000
0000
0300
0000
0000
1000
0000
,
1000
0010
0100
0001
,
0020
0000
0230
0000
,
0310
0001
1000
0001
,
0100
0100
0200
0000
,
0310
1000
0001
0010
,
0200
0000
2300
0000
,
3001
0100
0010
1000
,
0100
0100
0200
0000
,
0320
0000
0000
0000
,
0000
0000
0000
0030
,
2002
0000
0000
0000
,
0000
0000
0000
0000
,
3003
0000
0000
0000
;

//---------------dance-single - Loodee----------------
#NOTEDATA:;
#CHARTNAME:Loodee;
#STEPSTYPE:dance-single;
#DESCRIPTION:Loodee;
#CHARTSTYLE:;
#DIFFICULTY:Hard;
#METER:9;
#RADARVALUES:0.458091,0.478737,0.072262,0.433573,0.280016,355.000000,347.000000,8.000000,48.000000,0.000000,0.000000,2.000000,0.000000,0.000000,0.458091,0.478737,0.072262,0.433573,0.280016,355.000000,347.000000,8.000000,48.000000,0.000000,0.000000,2.000000,0.000000,0.000000;
#CREDIT:Loodee;
#NOTES:
0000
0000
0000
0000
,
0000
0000
0000
0000
,
0000
0000
0000
0000
,
0000
0000
0000
0000
,
1000
0000
0000
0000
0100
0000
0010
0100
0000
0000
0100
0000
1000
0000
0001
0000
,
0001
0000
0100
0000
0001
0000
1000
0010
0000
0000
0100
0000
0001
0000
0010
0000
,
0100
1000
0010
1000
0001
0100
0001
0010
,
0400
4000
0000
0000
0000
0000
0000
3300
0000
0000
0000
0000
0000
0000
0000
0000
,
0002
0000
0000
0000
0000
0000
0000
0000
0000
0000
0000
0000
0103
0010
0000
0000
,
1001
0000
0000
0000
0001
0000
1000
0001
0000
0000
0010
0000
0010
0100
1000
0000
,
0100
0000
0000
0000
0100
0000
1000
0001
0000
0000
0100
0000
0010
1000
0001
0000
,
0010
0000
0000
0000
0100
0000
0010
0001
0000
0000
0001
0000
1000
0000
0001
0000
,
0100
0000
0100
0000
0010
0000
1000
0200
0000
0000
0310
0000
0100
0010
0001
0000
,
1001
0000
0000
0000
1000
0000
0010
0100
0000
0000
0100
0000
0001
0000
0010
0000
,
0010
0000
0100
0000
0010
0000
0001
0100
0000
0000
0010
0000
1000
0000
0001
0000
,
0010
0000
0010
0000
0100
1000
0100
0010
0000
0000
0010
0000
0001
0000
1000
0000
,
0010
0000
0010
0000
0100
0001
0100
0010
0000
0000
1000
0000
0100
0000
0001
0000
,
0100
0000
0000
0000
0110
0000
0000
0001
0000
0000
0001
0000
2000
0000
3020
0000
,
0230
0000
0302
0000
0013
0000
0001
1000
0001
0000
0100
0000
0200
0000
0000
0000
,
0310
0000
0000
0000
1010
0000
0000
0100
0000
0000
0100
0000
0002
0000
0023
0000
,
0130
0000
1000
0000
0100
0010
0001
0010
0002
0000
2003
0000
0000
0000
3000
0000
,
0010
0000
0100
0000
0100
0000
0001
1000
0001
0000
0010
0000
0020
0000
0000
0000
,
0031
0000
1000
0000
1000
0000
0010
0100
0010
0000
1000
0000
2000
0000
0000
0000
,
3001
0000
0010
0000
0010
0000
0100
0010
0200
0000
2300
0000
3002
0000
0203
0000
,
0310
0000
0010
0000
1000
0000
0000
0001
0010
0000
0010
0000
0100
1000
0000
0000
,
1100
0000
0000
0000
0001
0000
0100
0000
0010
0000
0000
1000
0000
0000
0001
0000
,
1000
0000
0100
0000
0010
0000
0001
0000
0010
0000
0000
0100
0000
0000
1000
0000
,
0010
0000
0100
0000
0000
0001
0000
0000
0010
0000
0000
0100
0000
0000
0010
0000
,
0001
0000
0100
0000
0000
0000
0010
0000
1000
0000
0000
0001
0000
0000
0010
0000
,
0210
0000
1300
0001
1000
0010
0100
0001
,
0100
0000
0000
0100
0000
0000
0100
0000
0000
1000
0000
0100
0000
0000
0010
0000
,
0210
0000
0301
0010
0100
1000
0100
0010
,
0002
0000
1000
0000
0000
1000
0000
0000
1003
0000
0010
0000
0100
0001
0100
0001
,
0100
0000
0010
0000
1000
0000
0001
2000
0000
0000
3100
0000
0010
0001
0010
0000
,
0001
0000
1000
0000
0010
0000
0100
0002
0000
0000
1003
0000
0100
0010
0100
0000
,
1000
0000
0001
0000
1000
0000
0010
0100
0000
0000
0100
0000
0001
0000
0010
0000
,
0001
0000
1000
0000
0100
0000
0010
0200
0000
0000
0310
0000
0001
1000
0001
0000
,
0100
0000
0010
0000
1000
0000
0001
0020
0000
0000
0130
0000
0010
0000
0001
0000
,
0001
0000
1000
0000
0010
0000
0100
0002
0000
0000
1003
0000
0010
0000
0100
0000
,
0001
0000
0001
0000
0010
0100
0000
0001
0000
0000
0001
0000
0100
0000
1000
0000
,
0001
0000
1000
0000
0010
0100
0000
1000
0000
0000
0100
0000
0010
0000
1000
0000
,
0002
0023
0032
0203
0320
2030
3002
0023
,
0130
0000
1000
0000
0010
0000
0000
1000
0001
0010
0001
0010
0002
0000
0000
0000
,
2003
0000
3010
0000
0100
0000
0001
1000
0001
0000
0010
0000
0100
0000
0010
0000
,
0001
0000
1000
0000
0010
0000
0000
0000
0100
0001
0100
0001
2000
0000
0000
0000
,
3200
0302
0203
0320
0032
2003
3020
0230
,
0301
1000
0001
0000
0010
0000
0100
0000
1000
0001
1000
0000
0200
0000
0000
0000
,
0310
0000
0100
0000
1000
0000
0001
0100
0001
0000
1000
0000
0010
0000
0100
0000
,
0001
0000
0010
0000
0100
0000
0010
0000
0001
0000
0010
0000
0001
1000
0001
1000
,
0020
0000
0000
0000
,
0000
0000
0000
0000
0000
0000
0000
0000
0000
0000
0000
0000
0000
0000
0000
0030
,
2002
0000
0000
0000
,
0000
0000
0000
0000
,
3003
0000
0000
0000
;

//---------------dance-single - Loodee----------------
#NOTEDATA:;
#CHARTNAME:Loodee;
#STEPSTYPE:dance-single;
#DESCRIPTION:Loodee;
#CHARTSTYLE:;
#DIFFICULTY:Medium;
#METER:5;
#RADARVALUES:0.332922,0.382989,0.063229,0.316147,0.126459,258.000000,251.000000,7.000000,35.000000,0.000000,0.000000,0.000000,0.000000,0.000000,0.332922,0.382989,0.063229,0.316147,0.126459,258.000000,251.000000,7.000000,35.000000,0.000000,0.000000,0.000000,0.000000,0.000000;
#CREDIT:Loodee;
#NOTES:
0000
0000
0000
0000
,
0000
0000
0000
0000
,
0000
0000
0000
0000
,
0000
0000
0000
0000
,
1000
0000
0000
0000
0001
0000
0000
0100
0000
0000
0100
0000
0010
0000
1000
0000
,
1000
0000
0001
0000
1000
0000
0000
0100
0000
0000
1000
0000
0010
0000
0100
0000
,
0001
0010
0100
0010
0001
1000
0001
0100
,
0020
0000
0000
0000
0000
0000
0000
2000
0000
0000
0000
0000
0000
0000
0030
0000
,
0002
0000
0000
0000
0000
0000
0000
0000
0000
0000
3003
0000
0001
0010
0000
0000
,
0011
0000
0000
0000
0001
0000
0000
0001
0000
0000
1000
0000
0010
0000
0100
0000
,
0010
0000
0000
0000
1000
0000
0000
1000
0000
0000
0001
0000
0010
0000
0100
0000
,
0010
0000
0000
0000
0100
0000
0000
0100
0000
0000
0010
0000
0001
0000
0000
0000
,
1000
0000
1000
0000
1000
0000
0000
0010
0000
0000
0100
0000
0001
0000
0010
0000
,
0001
0000
0000
0000
1000
0000
0000
1000
0000
0000
0100
0000
1000
0000
0000
0000
,
0010
0000
0010
0000
0100
0000
0000
0001
0000
0000
1000
0000
0100
0000
0010
0000
,
0001
0000
1000
0000
0010
0000
0000
0001
0000
0000
0010
0000
1000
0000
0000
0000
,
0001
0000
0010
0000
0100
0000
0000
0001
0000
0000
0100
0000
0010
0000
0001
0000
,
1000
0000
0010
2000
0000
0000
3001
0010
,
0100
0010
0010
0001
1000
0010
0020
0000
,
0130
0000
0001
0200
0000
0000
0301
0010
,
0100
1000
0010
0100
1000
0200
0000
0300
,
0001
1000
1000
0100
0010
0100
0100
0010
,
0001
0100
0100
0001
0010
0100
0200
0000
,
0310
0001
0001
1000
0010
0100
0010
0001
,
0020
0000
0000
0000
2030
0000
0000
0000
3001
0000
0000
0000
1000
0001
0000
0000
,
1002
0000
0000
0000
,
0013
0000
0100
0000
1000
0000
0001
0000
0100
0000
0000
0010
0000
0000
1000
0000
,
0020
0000
0000
0000
,
0130
0000
0001
0000
0000
0000
1000
0000
0001
0000
0000
0010
0000
0000
0100
0000
,
2000
0000
0000
0000
,
3100
0000
0000
0100
0000
0000
0100
0000
0000
1000
0000
0010
0000
0000
0100
0000
,
0002
0000
0000
0000
,
0013
0000
0100
0000
0000
0100
0000
0000
0100
0000
0000
0100
2000
0000
0000
0000
,
3001
0000
0000
0000
0001
0000
0000
0100
0000
0000
0010
0000
1000
0000
0100
0000
,
0010
0000
0000
0000
0010
0000
0000
0100
0000
0000
0010
0000
0001
0000
0100
0000
,
0010
0000
0000
0000
0010
0000
0000
1000
0000
0000
1000
0000
0001
0000
0010
0000
,
0001
0000
1000
0000
1000
0000
0000
0010
0000
0000
0100
0000
0001
0000
1000
0000
,
0100
0000
0000
0000
0100
0000
0000
0010
0000
0000
0001
0000
1000
0000
0001
0000
,
0100
0000
0000
0000
0100
0000
0000
0010
0000
0000
1000
0000
0001
0000
0010
0000
,
0200
0000
0000
0000
1300
0000
0000
1001
0000
0000
1001
0000
0000
0000
0000
0000
,
0002
0000
0000
0000
0103
0000
0000
0110
0000
0000
0110
0000
0000
0000
0000
0000
,
0001
0010
0100
0010
0001
0100
0010
1000
,
0200
0000
0320
0000
0031
0100
0200
0000
,
2300
0000
3200
0000
0310
1000
0001
1000
,
0200
0000
0320
0000
0031
0001
0002
0000
,
0103
0010
1000
0010
0100
0001
0010
0100
,
0002
0203
0302
0203
,
2300
0000
3002
0000
0103
0010
0100
0001
,
1000
0100
0010
0001
1000
0100
0020
0000
,
0002
0000
0000
0000
,
0000
0000
0000
0033
,
2002
0000
0000
0000
,
0000
0000
0000
0000
,
3003
0000
0000
0000
;

//---------------dance-single - Loodee----------------
#NOTEDATA:;
#CHARTNAME:Loodee;
#STEPSTYPE:dance-single;
#DESCRIPTION:Loodee;
#CHARTSTYLE:;
#DIFFICULTY:Beginner;
#METER:1;
#RADARVALUES:0.064520,0.143621,0.054197,0.081295,0.000000,50.000000,44.000000,6.000000,9.000000,0.000000,0.000000,0.000000,0.000000,0.000000,0.064520,0.143621,0.054197,0.081295,0.000000,50.000000,44.000000,6.000000,9.000000,0.000000,0.000000,0.000000,0.000000,0.000000;
#CREDIT:Loodee;
#NOTES:
0000
0000
0000
0000
,
0000
0000
0000
0000
,
0000
0000
0000
0000
,
0000
0000
0000
0000
,
0001
0000
0000
0000
,
0000
0000
0000
0000
,
1000
0000
0000
0000
,
0001
0000
0000
0000
,
2000
0000
0000
0000
,
3001
0000
0000
0000
,
0001
0000
0000
0000
,
0010
0000
0000
0000
,
0001
0000
0000
0000
,
1000
0000
0000
0000
,
1000
0000
0000
0000
,
0020
0000
0000
0000
0000
0000
0000
0030
0000
0000
0000
0000
0000
0000
0000
0000
,
0020
0000
0000
0000
0000
0000
0000
0030
0000
0000
0000
0000
0000
0000
0000
0000
,
1000
0000
0000
0000
,
0100
0000
0000
0000
,
1000
0000
0000
0000
,
0001
0000
0000
0000
,
0100
0000
0000
0000
,
0100
0000
0000
0000
,
0010
0000
0000
0000
,
0010
0000
0000
0000
,
1001
0000
0000
0000
,
0110
0000
0000
0000
,
1001
0000
0000
0000
,
0110
0000
0000
0000
,
2002
0000
0000
0000
,
3003
0000
0000
0000
,
0220
0000
0000
0000
,
0330
0000
0000
0000
,
0001
0000
0000
0000
,
0001
0000
0000
0000
,
0100
0000
0000
0000
,
0010
0000
0000
0000
,
1000
0000
0000
0000
,
1000
0000
0000
0000
,
0100
0000
0000
0000
,
0100
0000
0000
0000
,
1000
0000
0000
0000
,
0001
0000
0000
0000
,
0001
0000
0000
0000
,
0010
0000
0000
0000
,
0100
0000
0000
0000
,
0010
0000
0000
0000
,
0001
0000
0000
0000
,
0100
0000
0000
0000
,
0020
0000
0000
0000
,
0000
0000
0000
0000
,
0230
0000
0000
0000
,
0000
0000
0000
0000
,
0300
0000
0000
0000
;
