#TITLE:Kitty From Hell;
#SUBTITLE:;
#ARTIST:Paul Bazooka;
#TITLETRANSLIT:;
#SUBTITLETRANSLIT:;
#ARTISTTRANSLIT:;
#GENRE:;
#CREDIT:T. Li;
#BANNER:Kitty From Hell-bn.png;
#BACKGROUND:Kitty From Hell-bg.png;
#LYRICSPATH:;
#CDTITLE:loodeecdtitle.png;
#MUSIC:Kitty From Hell.ogg;
#OFFSET:-1.203;
#SAMPLESTART:91.212;
#SAMPLELENGTH:21.584;
#SELECTABLE:YES;
#DISPLAYBPM:128.000;
#BPMS:0.000=128.000,30.000=192.000,31.625=96.000,31.750=128.000,32.000=128.000,39.000=192.000,39.500=128.000,40.000=128.000,44.000=192.000,44.333=128.000,44.667=96.000,45.000=192.000,45.333=128.000,45.667=96.000,46.000=128.000,48.000=192.000,49.000=128.000,60.000=192.000,60.333=128.000,60.667=96.000,61.000=192.000,61.333=128.000,61.667=96.000,62.000=128.000,69.000=256.000,69.500=128.000,69.750=64.000,70.000=128.000,72.000=192.000,72.375=64.000,72.500=192.000,72.875=64.000,73.000=192.000,75.333=128.000,75.667=96.000,76.000=128.000,80.000=192.000,81.000=128.000,93.000=192.000,94.000=128.000,191.000=-128.000,199.000=128.000,207.000=256.000,207.500=128.000,207.750=64.000,208.000=128.000,232.000=192.000,232.375=64.000,232.500=192.000,232.875=64.000,233.000=192.000,233.375=64.000,233.500=192.000,233.875=64.000,234.000=192.000,234.375=64.000,234.500=192.000,234.875=64.000,235.000=192.000,235.375=64.000,235.500=192.000,235.875=64.000,236.000=192.000,236.375=64.000,236.500=192.000,236.875=64.000,237.000=192.000,237.375=64.000,237.500=192.000,237.875=64.000,238.000=128.000,248.000=192.000,248.375=64.000,248.500=128.000,254.000=192.000,255.000=128.000;
#STOPS:30.000=0.039
,30.250=0.039
,30.500=0.039
,30.750=0.039
,31.000=0.039
,31.250=0.039
,39.000=0.078
,48.000=0.039
,48.250=0.039
,48.500=0.039
,48.750=0.039
,73.000=0.156
,74.000=0.156
,80.000=0.078
,80.500=0.039
,80.750=0.039
,93.000=0.079
,93.500=0.078
,254.000=0.078
,254.500=0.078
;
#BGCHANGES:;
#KEYSOUNDS:;

//---------------dance-single - Loodee----------------
#NOTES:
     dance-single:
     Loodee:
     Challenge:
     10:
     0.730,0.757,0.195,0.398,0.682:
0000
0000
0000
0000
,
0000
0000
0000
0000
,
0000
0000
0000
0000
,
0000
0000
0000
0000
,
0000
0000
0000
0000
,
0000
0000
0000
0000
,
1010
1000
1000
0001
2000
3100
0020
0031
,
1000
0010
0000
0010
0000
0000
1000
0000
0001
0010
0001
1000
0100
1000
0010
1000
,
0001
0000
0000
0001
1000
0000
0010
0100
0000
0010
0100
0001
1000
0100
1000
0000
,
0001
0100
0001
0000
1000
0100
0010
0000
0001
0010
0000
0010
1000
0000
0010
0000
,
0002
0000
0000
0003
2001
0000
0000
0000
3020
0000
0000
0030
0101
0000
0000
0000
,
0002
0000
0023
0000
0130
1100
0110
1001
,
1000
0010
1000
0010
0100
0000
0100
0001
1000
0100
0010
0000
0001
0100
0010
0000
,
2000
0000
0000
3000
0011
0000
0010
0000
0001
0100
0000
0100
1000
0000
0100
0000
,
0020
0000
0000
0030
2010
0000
0000
0000
3002
0000
0000
0003
0011
0000
0000
0000
,
2000
0000
3020
0000
0130
1100
1001
0101
,
0011
0000
0000
0001
0010
0000
0100
1000
0000
0010
0100
0001
1000
0001
0010
0000
,
0100
1000
0040
0000
0230
0000
0000
0000
0310
0000
0000
0010
0001
0000
0010
0000
,
1000
0000
0001
0000
2001
0000
0000
0000
3020
0000
0000
0030
0110
0000
0000
0000
,
0200
0000
0000
0300
2002
0000
0000
3003
1100
0000
0100
0000
0110
0000
0010
0000
,
0001
0000
0001
0100
0010
0000
1000
0000
0010
0100
0010
0100
0001
1000
0100
0000
,
0010
0001
1000
0000
0010
0100
0001
0000
1000
0000
0001
0010
1000
0000
0010
0000
,
0100
1000
0100
1000
0001
0100
0001
0100
,
0020
0000
0000
0000
1030
0000
0001
0000
0020
0000
0000
0030
0400
0000
0000
0000
,
0310
0000
0001
0000
1000
0010
0100
0010
1000
0000
0001
0100
0001
1000
0001
0010
,
0100
0000
1000
0000
0010
0100
0001
1000
0100
0000
1000
0001
1000
0100
0010
0001
,
0100
0000
0010
0000
1000
0010
1000
0001
0100
0000
0001
1000
0001
0010
0100
0010
,
0001
0000
1000
0000
0010
1000
0001
0100
0010
0000
1000
0001
0010
0100
0010
0100
,
1000
0000
0010
1000
0010
0100
0010
0000
1000
0001
1000
0001
0010
0000
0100
1000
,
0100
0000
1000
0001
1000
0000
0010
0100
0001
1000
0100
0010
0100
0000
1000
0001
,
0100
0000
0010
0100
0001
0000
1000
0001
1000
0100
0010
0001
1000
0000
0010
0100
,
0001
0000
0100
0010
0000
0100
0010
0000
2000
0000
3000
0000
0100
0000
0100
0000
,
0002
0000
0000
0103
0010
0000
0010
0000
0001
0000
0001
0000
1000
0000
0010
0000
,
0100
0100
0010
0010
0001
0001
0020
1030
,
0002
0043
0000
0000
,
0000
0000
0000
0000
0000
0000
0000
0030
0001
0000
0001
0000
1000
0000
0010
0000
,
0002
0000
0000
0013
0100
0000
0100
0000
0001
0000
0001
0000
1000
0000
0200
0000
,
0310
0001
0010
0001
1000
0000
0020
0000
0130
0000
0100
0000
0002
0000
1003
0000
,
0200
0000
0000
0000
1300
0000
1000
0000
0001
0000
0010
0001
0000
0010
0001
0000
,
1000
0010
0000
1000
0010
0000
0100
0001
2000
0000
3200
0000
0320
0000
0032
0000
,
1003
0000
0010
0100
0000
0010
0100
0000
0001
1000
0000
0001
1000
0100
1000
0100
,
0000
1000
0100
0000
0010
0001
0000
0010
0001
0000
1000
0010
0000
0100
0001
0000
,
1000
0000
0001
0010
0000
0100
1000
0000
0010
0100
0000
0001
0100
0010
1000
0001
,
0000
1000
0100
0000
1000
0001
0000
0010
0001
1000
0001
1000
0001
1000
0010
1000
,
0200
0000
0000
0000
,
0310
0001
0010
0001
1000
0010
1000
0001
0100
0010
1000
0001
1000
0100
0010
0001
,
2000
0000
3002
0000
2003
0000
0000
0000
0000
0000
0000
0000
3001
0100
0001
0100
,
0010
M0M0
0M0M
MMMM
,
M000
0000
M000
0M00
00M0
000M
M000
000M
0M00
0000
0M00
0000
0000
0000
0000
0000
,
0000
0000
0000
0000
,
0000
0000
0000
0000
,
0000
0000
0000
0000
,
1000
0000
1000
0100
0010
0001
1000
0001
0100
0000
0100
0000
0010
0100
0001
1000
,
0100
0000
0010
0000
0100
1000
0100
1000
0001
0000
0001
1000
0010
0000
0100
0000
,
0101
0000
0001
0000
1001
0000
1000
0100
0010
0000
0010
0000
0001
1000
0010
0100
,
1000
0000
0100
0000
0001
1000
0001
1000
0100
0000
0100
1000
0010
0000
0100
0000
,
0001
1000
0001
1000
0010
0100
0001
0100
0010
0000
0010
0000
1000
0100
0010
0100
,
1000
0000
0010
0000
1000
0001
0100
0010
1000
0000
1000
0100
0010
0000
0001
0000
,
0002
0203
2300
3002
0023
2030
3200
0320
,
0031
0010
1000
0010
0001
0100
1001
1000
,
0100
0000
0100
0000
0010
0001
1000
0001
0100
0000
0100
0000
0010
1000
0001
0100
,
0001
0000
0010
0000
0100
1000
0100
0010
0100
0000
0100
1000
0010
0000
0100
0000
,
0002
0000
0013
0000
0011
0000
0001
1000
0010
0000
0010
0000
1000
0001
0010
0100
,
0001
0000
0000
0000
0000
0000
0100
0000
0000
0000
0000
0000
1000
0000
0000
0100
0000
0000
1000
0000
0000
0001
0000
0000
1000
0000
0000
0000
0000
0000
0010
0000
0000
0000
0000
0000
0100
0000
0001
0000
1000
0000
0010
0000
0100
0000
0001
0000
,
1000
0100
1000
0100
0010
0001
1000
0001
0100
0000
0100
0000
0010
1000
0001
1000
,
0100
0000
0010
0000
0100
1000
0100
0010
0001
0000
0100
0000
1001
0000
0001
0000
,
0100
0010
0100
0010
1000
0001
1000
0100
,
0010
0000
0001
0000
1000
0001
1000
0000
0100
0010
0001
0000
0100
0000
0100
0000
,
2002
0000
0000
0000
,
3003
0000
0000
0000
;

//---------------dance-single - Loodee----------------
#NOTES:
     dance-single:
     Loodee:
     Hard:
     8:
     0.543,0.645,0.130,0.422,0.199:
0000
0000
0000
0000
,
0000
0000
0000
0000
,
0000
0000
0000
0000
,
0000
0000
0000
0000
,
0000
0000
0000
0000
,
0000
0000
0000
0000
,
0001
0001
0001
0010
0200
2300
3002
2003
,
3010
0100
0000
0001
0000
0000
0001
0000
1000
0100
1000
0100
0010
0000
0000
0000
,
0011
0000
0000
0001
1000
0000
0000
0000
0010
0000
0100
0000
1000
0000
0100
0000
,
0002
0000
0013
0000
0002
0000
0013
0000
0100
0000
0000
0100
1000
0000
0001
0000
,
2000
0000
0000
0000
3020
0000
0000
0000
0230
0000
0000
0000
0302
0000
0000
0003
,
1001
0000
1100
0000
1010
0010
0100
0001
,
1000
0100
1000
0100
1000
0000
0001
0000
0200
0000
0310
0000
0200
0000
0310
0000
,
1000
0000
0001
0000
0010
0000
0100
0000
1000
0000
0000
1000
0001
0000
0100
0000
,
0020
0000
0000
0000
2030
0000
0000
0000
0001
0000
0000
0000
3200
0000
0000
0300
,
0110
0000
0011
0000
1001
1000
0001
0001
,
0010
0000
0000
0010
0100
0000
0000
0000
0010
0000
0100
0000
0001
0000
0100
0000
,
1000
0001
1000
0000
0020
0000
0000
0000
0130
0000
0000
0100
0001
0000
1000
0000
,
0001
0100
0101
0000
0101
0000
1010
0000
,
2000
0000
3002
0000
0013
0100
1000
0100
,
0010
0000
0001
1000
0001
0000
0000
0000
0200
0000
0301
0000
0200
0000
0301
0000
,
2000
0000
3001
0000
0010
0000
0000
0000
0100
0000
0000
1000
0001
0000
1000
0000
,
0010
0100
0010
0100
0001
1000
0001
1000
,
0200
0000
0310
0100
2000
0000
3002
0000
,
0103
0000
0000
0010
0000
1000
0001
0000
0010
0000
0100
0000
0000
0000
0000
0000
,
0000
0000
1000
0000
0000
0000
1000
0000
0010
0000
0000
0010
0000
0000
0100
0000
,
0001
0000
0000
0001
0000
0010
0100
0000
0010
0000
0001
0000
0000
0000
0000
0000
,
0000
0000
1000
0000
0000
0000
0001
0000
0100
0000
0000
0100
0000
0000
0100
0000
,
0010
0000
0000
0010
0000
1000
0001
0000
1000
0000
0100
0000
0000
0000
0000
0000
,
0000
0000
0010
0000
0000
0000
0001
0000
1000
0000
0000
1000
0000
0000
1000
0000
,
0010
0000
0000
0100
0000
0001
0100
0000
0010
0000
1000
0000
0000
0000
0000
0000
,
0000
0100
0000
0010
0001
0000
0001
1000
,
0002
0000
0000
0003
0001
0000
1000
0000
0100
0000
0100
0000
0010
0000
0000
0000
,
0001
0001
1000
1000
0010
0100
0001
1000
,
0200
0340
0000
0000
,
0000
0000
0000
0000
0000
0000
0000
0030
0001
0000
0000
0000
0001
0000
1000
0000
,
0020
0000
0000
0030
0010
0000
1000
0000
0001
0000
0001
0000
0010
0000
0010
0000
,
0002
0000
1003
0020
0130
0100
0001
1000
,
0200
0000
0000
0000
0310
0000
0001
0000
0010
0000
0001
0010
0000
0001
0010
0000
,
0100
0000
1000
0001
1000
0020
0230
0302
,
1003
0001
0010
0100
0010
0001
1000
0010
,
0100
0001
0100
0010
1000
0100
0010
0000
,
0010
0001
0010
0100
1000
0010
0100
0010
,
1000
0001
0100
0001
1000
0100
1000
0000
,
2002
0000
0000
0000
0000
0000
0000
3003
,
0002
0000
0000
0000
0013
0100
0010
0100
1000
0000
0001
0000
1000
0000
0001
0000
,
0200
0000
0320
0000
0230
0000
0000
0000
0000
0000
0000
0000
0301
1000
0001
0000
,
0010
0000
0000
0000
,
0000
0000
0000
0000
,
0000
0000
0000
0000
,
0000
0000
0000
0000
,
0000
0000
0000
0000
,
0001
0000
0001
0000
1000
0100
1000
0000
0010
0000
0010
0000
0100
0001
1000
0000
,
0100
0000
0010
0000
0100
1000
0100
0000
1000
0000
0001
0000
0001
0000
0000
0000
,
0100
0000
0100
0000
0010
0000
1000
0000
0100
0000
1000
0000
0001
0100
0010
0000
,
0001
0000
0010
0000
1000
0000
0001
0010
0001
0000
0010
0000
0100
0000
0000
0000
,
1000
0000
1000
0000
0010
0100
0010
0000
1000
0000
1000
0000
0001
0010
0100
0000
,
0010
0000
0001
0000
1000
0010
0100
0000
0001
0000
1000
0000
0100
0000
0000
0000
,
0020
0032
0023
0032
2003
3020
2030
3020
,
0031
0010
0100
0001
1000
0000
1100
0000
,
0011
0000
0000
0000
0001
1000
0001
1000
0010
0000
0100
0000
0001
0100
0001
0000
,
1000
0000
0100
0000
1000
0100
0010
0000
0001
0000
1000
0000
1000
0000
0000
0000
,
0020
0000
0030
0000
0101
0000
0001
0000
1000
0000
1000
0000
0100
0010
0100
0000
,
0010
0000
0001
0000
1000
0010
1000
0000
0001
0000
0001
0000
2002
0000
0000
3003
,
1000
0000
1000
0000
0100
0010
0001
0000
0100
0000
0100
0000
0010
1000
0001
0000
,
0010
0000
0100
0000
0010
0001
0010
0000
0001
0000
1000
0000
0010
0000
0000
0000
,
0100
0010
0100
0010
1000
0001
1000
0001
,
0010
0000
0100
0000
1000
0100
1000
0000
0001
1000
0001
0000
0100
0000
0000
0000
,
0220
0000
0000
0000
,
0330
0000
0000
0000
;

//---------------dance-single - Loodee----------------
#NOTES:
     dance-single:
     Loodee:
     Medium:
     6:
     0.448,0.645,0.171,0.366,0.016:
0000
0000
0000
0000
,
0000
0000
0000
0000
,
0000
0000
0000
0000
,
0000
0000
0000
0000
,
0000
0000
0000
0000
,
0000
0000
0000
0000
,
1000
1000
0100
0010
0001
1000
0001
0000
,
0100
0000
0000
0100
0002
0000
0000
0003
,
1001
0000
1100
0000
0100
0010
0001
1000
,
0010
0010
0100
0100
0001
0000
0001
1000
,
0200
0320
0031
1001
,
2000
0000
3002
0000
1003
0100
0010
0001
,
0200
0000
0310
0100
0001
0001
1000
1000
,
0100
0000
0110
0000
0010
0001
1000
0000
,
0020
0230
0301
0011
,
0020
0000
0230
0000
1300
0100
1000
0000
,
1100
0000
0011
0000
0001
0100
0001
0001
,
1000
1000
0200
0000
0310
0000
0001
1000
,
0010
0100
0010
0000
0101
0000
1010
0000
,
2000
0000
3002
0000
0013
0100
0010
0001
,
1000
0000
1010
0000
0010
0100
0010
0100
,
0001
0001
1000
1000
0100
0000
1001
0000
,
0001
0100
0001
0100
0010
1000
0010
1000
,
0002
0000
0013
0000
0200
0300
2000
0000
,
3100
0000
0000
0100
0000
0000
1000
0000
0001
0000
1000
0000
0000
0000
0000
0000
,
0000
0001
0000
0100
0010
0000
0000
0010
,
1000
0000
0000
1000
0000
0000
0001
0000
1000
0000
0100
0000
0000
0000
0000
0000
,
0000
0010
0000
0001
0010
0000
0000
0010
,
0001
0000
0000
0001
0000
0000
1000
0000
0010
0000
1000
0000
0000
0000
0000
0000
,
0000
0001
0000
0010
0100
0000
0000
0100
,
1000
0000
0000
1000
0000
0000
0001
0000
0100
0000
0001
0000
0000
0000
0000
0000
,
0000
1000
0000
0100
0010
0000
0001
1000
,
0002
0003
0001
0001
0100
0010
0100
0000
,
0001
0001
1000
0100
0010
0001
0010
0001
,
2000
3020
0000
0000
,
0000
0000
0000
0130
0001
1000
0100
1000
,
0020
0030
0010
0010
0100
0001
1000
0000
,
0100
0100
0010
0001
1000
0000
0010
0100
,
0002
2003
0000
0000
,
0200
0000
0000
0000
3300
0000
0001
0100
,
0010
1000
0001
1000
0100
0010
0100
0000
,
1000
0001
1000
0010
0100
0001
0100
0000
,
0010
1000
0001
1000
0100
0010
0001
0000
,
0010
0001
0100
0010
0100
0001
1000
0000
,
0200
0000
0000
0000
,
0310
0000
0001
1000
0001
1000
0001
1000
,
0020
0000
0230
0000
0000
0000
0301
0001
,
1000
0000
0000
0000
,
0000
0000
0000
0000
,
0000
0000
0000
0000
,
0000
0000
0000
0000
,
0000
0000
0000
0000
,
0002
0000
0013
0100
0010
0100
1000
0000
,
1100
0000
0101
0001
1000
0100
1000
0000
,
0002
0000
1003
0010
1000
0001
0010
0100
,
0001
0100
1000
0000
0100
0010
0100
0000
,
2000
0000
3001
0100
0010
1000
0001
0000
,
0101
0000
1100
1000
0100
0010
0001
0000
,
2000
3002
2003
3002
0203
0320
0230
0320
,
1030
0100
0010
0000
0011
0000
1001
0000
,
1000
1000
0002
0000
0013
0010
0200
0000
,
0310
0001
1000
1000
0010
0000
0110
0000
,
0100
0001
2000
0000
3100
0100
0010
0001
,
1000
0010
0200
0000
0301
1000
0002
0000
,
0023
0000
0130
1000
0100
1000
0001
0000
,
0101
0000
1010
1000
0001
0000
0001
0000
,
0010
0100
0010
0100
1000
0001
1000
0001
,
0100
0010
0100
0001
1000
0100
0010
0000
,
2002
0000
0000
0000
,
3003
0000
0000
0000
;

//---------------dance-single - Loodee----------------
#NOTES:
     dance-single:
     Loodee:
     Easy:
     4:
     0.382,0.420,0.089,0.252,0.000:
0000
0000
0000
0000
,
0000
0000
0000
0000
,
0000
0000
0000
0000
,
0000
0000
0000
0000
,
0000
0000
0000
0000
,
0000
0000
0000
0000
,
1000
0000
0000
0000
1000
0100
0010
0001
,
1000
0000
0020
0030
,
0110
0000
0101
0000
0001
1000
0100
0000
,
0100
0000
0010
0000
0010
0001
1000
0000
,
0020
0230
0320
1030
,
1001
0000
1001
0000
0001
0010
0001
0010
,
0200
0000
1300
0000
0001
0100
0010
0000
,
2000
0000
3100
0000
1000
0001
1000
0000
,
0020
0230
0302
0103
,
0101
0000
0101
0000
0001
1000
0100
0000
,
0110
0000
1001
0000
1000
0010
0100
0000
,
0001
0100
0020
0000
1030
0000
0001
0000
,
1000
0100
1000
0000
1100
0000
0110
0000
,
0012
0000
0003
0000
1000
0010
0100
0001
,
1000
0000
1000
0100
0010
0000
0010
0001
,
1000
0000
0010
0000
0100
0001
0100
0000
,
0010
0100
0010
0000
1000
0001
1000
0001
,
0020
0030
0200
2300
,
3001
0000
0000
0001
0100
0001
0000
0000
,
0000
0001
0000
1000
0100
0000
0000
0100
,
1000
0000
0000
0001
1000
0010
0000
0000
,
0000
0100
0000
0000
0001
0000
1000
0000
,
0001
0000
0010
0100
1000
0000
0100
0000
,
1000
0001
1000
0001
,
0100
0010
0100
0010
1000
0000
0001
0000
,
0010
0100
1000
0100
1000
0000
0001
0100
,
0001
0000
1000
1000
0020
0000
0230
0000
,
0302
0000
2003
0000
3100
0100
0020
0000
,
0032
2000
0000
0000
,
0000
0000
3003
0000
0001
0100
0010
1000
,
0001
0000
0001
0001
0020
0000
0230
0000
,
0310
0001
1000
0000
0010
0010
1000
0000
,
0002
2000
0000
0000
,
3003
0000
0000
0000
1000
0001
1000
0100
,
0010
0001
0010
0000
0001
1000
0010
0000
,
1000
0010
0100
0000
0010
1000
0001
0000
,
1000
0100
0010
0000
0100
0010
0001
0000
,
1000
0010
0100
0000
0001
0100
0010
0000
,
2000
0000
0000
0000
,
3000
0000
0000
0000
0000
0001
1000
0001
,
1000
0100
1000
0000
0000
0000
0001
0100
,
0010
0000
0000
0000
,
0000
0000
0000
0000
,
0000
0000
0000
0000
,
0000
0000
0000
0000
,
0000
0000
0000
0000
,
0000
0000
0001
0100
0010
0100
0010
0000
,
1000
0100
1000
0100
0010
0000
0010
0000
,
0001
0000
1000
0010
0100
0010
1000
0000
,
0001
0010
0100
0010
0001
0000
0001
0000
,
1000
1000
0010
0000
0100
0010
0100
0001
,
1000
0000
1000
0100
0010
0000
0010
0000
,
0001
1000
0001
1000
0010
0100
0010
0100
,
0001
1000
0001
0000
0100
0000
0010
0000
,
1000
0100
2000
0000
3001
0100
0002
0000
,
1003
0100
1000
0100
0010
0000
0001
0000
,
0100
0010
0100
0000
0001
1000
0001
1000
,
0100
0000
0010
0000
0100
1000
0002
0000
,
0103
0000
0010
0100
0001
0100
0010
0000
,
1000
0100
1000
0000
0001
0100
0020
0000
,
1030
1000
0001
0001
,
0010
0100
1000
0001
1000
0000
0010
0100
,
0002
0000
0000
0000
,
0003
0000
0000
0000
;

//---------------dance-single - ----------------
#NOTES:
     dance-single:
     Loodee:
     Beginner:
     1:
     0.057357,0.110814,0.016060,0.096360,0.000000,50.000000,48.000000,2.000000,12.000000,0.000000,0.000000,0.057357,0.110814,0.016060,0.096360,0.000000,50.000000,48.000000,2.000000,12.000000,0.000000,0.000000:
// measure 0
0000
0000
0000
0000
,  // measure 1
0000
0000
0000
0000
,  // measure 2
0000
0000
0000
0000
,  // measure 3
0000
0000
0000
0000
,  // measure 4
0000
0000
0000
0000
,  // measure 5
0000
0000
0000
0000
,  // measure 6
1001
0000
0000
0000
,  // measure 7
0000
0000
0000
0000
,  // measure 8
1000
0000
0000
0000
,  // measure 9
1000
0000
0000
0000
,  // measure 10
0010
0000
0000
0000
,  // measure 11
1000
0000
1000
0000
,  // measure 12
1000
0000
0000
0000
,  // measure 13
0001
0000
0000
0000
,  // measure 14
0010
0000
0000
0000
,  // measure 15
0001
0000
0001
0000
,  // measure 16
0001
0000
0000
0000
,  // measure 17
0100
0000
0000
0000
,  // measure 18
0100
0000
0100
0000
,  // measure 19
0100
0000
0000
0000
,  // measure 20
0001
0000
0000
0000
,  // measure 21
1000
0000
0000
0000
,  // measure 22
0002
0000
0000
0000
,  // measure 23
0003
0000
0000
0000
,  // measure 24
1000
0000
0000
0000
,  // measure 25
0000
0000
0000
0000
,  // measure 26
1000
0000
0000
0000
,  // measure 27
0000
0000
0000
0000
,  // measure 28
0001
0000
0000
0000
,  // measure 29
0000
0000
0000
0000
,  // measure 30
0001
0000
0000
0000
,  // measure 31
0000
0000
0000
0000
,  // measure 32
0200
0000
0000
0000
,  // measure 33
0300
0000
0000
0000
,  // measure 34
0002
0000
0000
0000
,  // measure 35
0000
0000
0003
0000
,  // measure 36
2000
0000
0000
0000
,  // measure 37
3000
0000
0000
0000
,  // measure 38
0200
0000
0000
0000
,  // measure 39
0000
0000
0300
0000
,  // measure 40
2002
0000
0000
0000
,  // measure 41
0000
0000
0000
0000
,  // measure 42
0000
0000
0000
0000
,  // measure 43
0000
0000
0000
0000
,  // measure 44
3003
0000
0000
0000
,  // measure 45
0000
0000
0000
0000
,  // measure 46
2000
0000
0000
0000
,  // measure 47
3000
0000
0000
0000
,  // measure 48
0000
0000
0000
0000
,  // measure 49
0000
0000
0000
0000
,  // measure 50
0000
0000
0000
0000
,  // measure 51
0000
0000
0000
0000
,  // measure 52
0000
0000
0000
0000
,  // measure 53
0001
0000
0000
0000
,  // measure 54
1000
0000
0000
0000
,  // measure 55
0010
0000
0000
0000
,  // measure 56
1000
0000
0000
0000
,  // measure 57
0100
0000
0000
0000
,  // measure 58
2000
0000
0000
0000
,  // measure 59
3001
0000
0000
0000
,  // measure 60
0100
0000
0100
0000
,  // measure 61
0100
0000
0000
0000
,  // measure 62
0001
0000
0001
0000
,  // measure 63
0001
0000
0000
0000
,  // measure 64
1000
0000
1000
0000
,  // measure 65
1000
0000
0000
0000
,  // measure 66
0002
0000
0000
0000
,  // measure 67
2003
0000
0000
0000
,  // measure 68
3002
0000
0000
0000
,  // measure 69
0003
0000
0000
0000
;
