#TITLE:IDWK;
#SUBTITLE:;
#ARTIST:blackbear & DVBBS;
#TITLETRANSLIT:;
#SUBTITLETRANSLIT:;
#ARTISTTRANSLIT:;
#GENRE:Electronic;
#CREDIT:Feraligatr;
#BANNER:idwk-bn.png;
#BACKGROUND:idwk-bg.png;
#LYRICSPATH:;
#CDTITLE:FeraligatrV4-cd.png;
#MUSIC:blackbear DVBBS - IDWK.ogg;
#OFFSET:0.010000;
#SAMPLESTART:57.641998;
#SAMPLELENGTH:16.695999;
#SELECTABLE:YES;
#DISPLAYBPM:115.000000;
#BPMS:0.000000=115.000000
;
#STOPS:
;
#BGCHANGES:;
#KEYSOUNDS:;
#ATTACKS:;

//---------------dance-single - Feraligatr----------------
#NOTES:
     dance-single:
     Feraligatr:
     Challenge:
     9:
     0.588113,0.586223,0.145985,0.459854,0.510949,564.000000,544.000000,20.000000,63.000000,27.000000,0.000000,0.588113,0.586223,0.145985,0.459854,0.510949,564.000000,544.000000,20.000000,63.000000,27.000000,0.000000:
// measure 0
0000
0000
0000
0000
,  // measure 1
0000
0000
0000
0000
,  // measure 2
0000
0000
0000
0000
,  // measure 3
0000
0000
0000
0000
0000
1000
0010
0200
,  // measure 4
0300
0001
1000
0100
0010
0001
1000
0001
,  // measure 5
0010
0000
0100
0000
1000
0000
0020
0000
0130
0001
1000
0100
0000
0000
0010
0001
,  // measure 6
1000
0010
0100
0001
1000
0100
0010
0100
,  // measure 7
1000
0000
0001
0100
0000
0010
0002
0000
0003
0010
0100
0010
2000
0000
3100
0000
,  // measure 8
0020
0000
0000
0000
0000
0031
0000
0000
1000
0000
0000
0000
0010
0000
0000
0000
0100
0000
0000
0000
0001
0000
0000
0000
1000
0000
0000
0000
0100
0000
0000
0000
,  // measure 9
0010
0100
1000
0001
0100
0010
0100
0001
,  // measure 10
0010
0000
0000
0000
0001
0000
0000
0000
1000
0000
0000
0000
0200
0000
0000
0000
0000
0000
0000
0000
0300
0000
1000
0001
0100
0000
0000
0000
0010
0000
0000
0000
,  // measure 11
1000
0001
0010
0200
0300
1000
1000
0001
,  // measure 12
0021
0000
0000
0000
0000
0000
0000
0000
0000
0000
0000
0000
0000
0130
0000
0000
1000
0000
0000
0000
0000
0000
0000
0000
0001
0000
0000
0000
0000
0000
0000
0000
0100
0000
0000
0000
0000
0000
0000
0000
0001
0000
0000
0000
0010
0000
0000
0000
0001
0000
0000
0000
0100
0000
0000
0000
0000
0000
0000
0000
0000
0000
0000
0000
,  // measure 13
0010
0000
0000
0000
0000
0000
0000
0000
1000
0000
0000
0000
0000
0001
0000
0000
0010
0000
0000
0000
0000
0000
0000
0000
0100
0000
0000
0000
1000
0000
0000
0000
0001
0000
0000
0000
0100
0000
0000
0000
0010
0000
0000
0000
1000
0000
0000
0000
0100
0000
0000
0000
0000
0000
0000
0000
0010
0000
0000
0000
0000
0000
0000
0000
,  // measure 14
0012
0000
0000
0000
0000
0000
0000
0000
0000
0000
0000
0000
0003
1000
0000
0000
0001
0000
0000
0000
0000
0000
0000
0000
0100
0000
0000
0000
0000
0000
0000
0000
0010
0000
0000
0000
0000
0000
0000
0000
1000
0000
0000
0000
0000
0001
0000
0000
0010
0000
0000
0000
0000
0000
0000
0000
0100
0000
0000
0000
0000
0000
0000
0000
,  // measure 15
1000
0000
0000
0000
0000
0000
0000
0000
0001
0000
0000
0000
0100
0000
0000
0000
0010
0000
0000
0000
0000
0000
0000
0000
1000
0000
0000
0000
0000
0000
0000
0000
0001
0000
0000
0000
0000
1000
0000
0000
0100
0000
0000
0000
0000
1000
0000
0000
0001
0000
0000
0000
0000
0000
0000
0000
0100
0000
0000
0000
0000
0000
0000
0000
,  // measure 16
0120
0000
0000
0000
0000
0000
0000
0000
0000
0000
0000
0000
0000
1030
0000
0000
0001
0000
0000
0000
0000
0000
0000
0000
0010
0000
0000
0000
0000
0000
0000
0000
0100
0000
0000
0000
0000
0000
0000
0000
1000
0000
0000
0000
0000
0001
0000
0000
0100
0000
0000
0000
0000
0000
0000
0000
0010
0000
0000
0000
0000
0000
0000
0000
,  // measure 17
0100
0000
0000
0000
0000
0000
0000
0000
0001
0000
0000
0000
0000
1000
0000
0000
0100
0000
0000
0000
0000
0000
0000
0000
1000
0000
0000
0000
0000
0000
0000
0000
0001
0000
0000
0000
0100
0000
0000
0000
0010
0000
0000
0000
1000
0000
0000
0000
0100
0000
0000
0000
0000
0000
0000
0000
0010
0000
0000
0000
0000
0000
0000
0000
,  // measure 18
0021
0000
0000
0000
0000
0000
0000
0000
0000
0000
0000
0000
0000
0130
0000
0000
1000
0000
0000
0000
0000
0000
0000
0000
0001
0000
0000
0000
0000
0000
0000
0000
0100
0000
0000
0000
0000
0000
0000
0000
0000
0000
0000
0000
0001
0000
1000
0000
0100
0000
0000
0000
0000
0000
0000
0000
0010
0000
0000
0000
0000
0000
0000
0000
,  // measure 19
0100
0000
1000
0001
0020
0000
0000
0000
0030
0000
0001
0000
0100
0000
0010
0000
,  // measure 20
2000
0000
0000
0000
0000
0000
0000
0000
3001
0000
0010
0M00
0010
0000
1000
0000
0001
0000
0000
0000
0100
0000
0000
0000
0020
0000
0000
0000
0000
0000
0000
0000
,  // measure 21
0030
1000
0100
0010
0001
1000
0010
0100
,  // measure 22
0002
0000
0000
0000
0000
0000
0000
0000
1003
0000
0100
00M0
0100
0000
0001
0000
1000
0000
0000
0000
0010
0000
0000
0000
0200
0000
0000
0000
0000
0000
0000
0000
,  // measure 23
0300
0000
0001
0000
0010
0000
0100
0000
1000
0000
0001
0000
0100
0010
1000
0000
,  // measure 24
0100
0020
0000
0130
0002
0000
0103
0020
,  // measure 25
0000
0000
0130
0000
2000
0000
0000
0000
3010
0100
0001
1000
0100
0000
0010
0000
,  // measure 26
0002
0000
0000
0000
0000
0000
0000
0000
1003
0000
0100
00M0
0100
0000
0001
0000
1000
0000
0000
0000
0010
0000
0000
0000
0200
0000
0000
0000
0000
0000
0000
0000
,  // measure 27
0300
M000
M000
M000
M000
0001
0001
1000
,  // measure 28
2100
0000
0000
0000
0000
0000
0000
0000
3100
0000
0000
0000
0000
0010
0000
0000
0004
0000
0000
0000
0000
0000
0000
0000
0000
0000
0000
0000
0000
0000
0000
0000
1003
0000
0000
0000
0100
0000
00M0
0000
0100
0000
0000
0000
0010
0000
0000
0000
0002
0000
0000
0000
0000
0000
0000
0000
0013
0000
0000
0000
0000
0000
0000
0000
,  // measure 29
1000
0000
0000
0000
0100
0000
00M0
0000
0100
0000
0000
0000
0001
0000
0000
0000
1000
0000
0000
0000
0000
0000
0000
0000
0010
0000
0000
0000
0000
0000
0000
0000
0100
0000
0000
0000
0000
0000
0000
0000
0001
0000
0000
0000
0000
1000
0000
0000
0100
0000
0000
0000
0000
0000
0000
0000
0010
0000
0000
0000
0000
0000
0000
0000
,  // measure 30
0012
0000
0000
0000
0000
0000
0000
0000
1003
0000
0000
0000
0000
0001
0000
0000
0100
0000
0000
0000
0000
0000
0000
0000
0002
0000
0000
0000
0000
0000
0000
0000
0013
0000
0000
0000
0000
0000
0000
0000
0001
0000
0000
0000
0000
1000
0000
0000
0020
0000
0000
0000
0000
0000
0000
0000
0130
0000
0000
0000
0000
0000
0000
0000
,  // measure 31
0001
0000
0100
00M0
0100
0000
1000
0000
0010
0000
0000
0000
0001
0000
0000
0000
0010
0000
0000
0000
0100
0000
0000
0000
0001
0000
0000
0000
1000
0000
0000
0000
,  // measure 32
1200
0000
0000
0000
0000
0000
0000
0000
0310
0000
0000
0000
0000
0001
0000
0000
4000
0000
0000
0000
0000
0000
0000
0000
0000
0000
0000
0000
0000
0000
0000
0000
3001
0000
0000
0000
0100
0000
00M0
0000
0100
0000
0000
0000
0010
0000
0000
0000
2000
0000
0000
0000
0000
0000
0000
0000
3010
0000
0000
0000
0000
0000
0000
0000
,  // measure 33
0001
0000
0000
0000
0100
0000
00M0
0000
0100
0000
0000
0000
1000
0000
0000
0000
0001
0000
0000
0000
0000
0000
0000
0000
0010
0000
0000
0000
0000
0000
0000
0000
0100
0000
0000
0000
0000
1000
0000
0000
0001
0000
0000
0000
0000
0100
0000
0000
0010
0000
0000
0000
0000
0000
0000
0000
1000
0000
0000
0000
0000
0000
0000
0000
,  // measure 34
1200
0000
0000
0000
0000
0000
0000
0000
0310
0000
0000
0000
0000
0001
0000
0000
1000
0000
0000
0000
0000
0000
0000
0000
0020
0000
0000
0000
0000
0000
0000
0000
0130
0000
0000
0000
0000
0000
0000
0000
0001
0000
0000
0000
0000
1000
0000
0000
0200
0000
0000
0000
0000
0000
0000
0000
0310
0000
0000
0000
0000
0000
0000
0000
,  // measure 35
0001
0000
0010
0M00
0010
0000
1000
0000
0100
0000
0000
0000
0001
0000
0000
0000
0100
0000
0000
0000
1000
0000
0000
0000
0010
0000
0000
0000
0100
0000
0000
0000
,  // measure 36
0002
0000
0000
0000
0000
0000
0000
0000
0000
0000
0000
0000
0000
1003
0000
0000
0001
0000
0000
0000
0000
0000
0000
0000
0010
0000
0000
0000
0000
0000
0000
0000
0100
0000
0000
0000
0000
0000
0000
0000
1000
0000
0000
0000
0000
0001
0000
0000
0200
0000
0000
0000
0000
0000
0000
0000
0000
0000
0000
0000
0000
0000
0000
0000
,  // measure 37
0310
0000
0000
0000
0000
0000
0000
0000
1000
0000
0000
0000
0000
0001
0000
0000
0010
0000
0000
0000
0000
0000
0000
0000
0100
0000
0000
0000
0000
0000
0000
0000
1000
0000
0000
0000
0000
0001
0000
0000
0000
0000
0000
0000
0000
0001
0000
0000
0010
0000
0000
0000
0000
0000
0000
0000
0100
0000
0000
0000
1000
0000
0000
0000
,  // measure 38
0002
0000
0000
0000
0000
0000
0000
0000
0000
0000
0000
0000
0000
0103
0000
0000
0001
0000
0000
0000
0000
0000
0000
0000
1000
0000
0000
0000
0000
0000
0000
0000
0100
0000
0000
0000
0000
0000
0000
0000
0010
0000
0000
0000
0000
0001
0000
0000
2000
0000
0000
0000
0000
0000
0000
0000
0000
0000
0000
0000
0000
0000
0000
0000
,  // measure 39
3001
0000
0000
0000
0000
0000
0000
0000
1000
0000
0000
0000
0100
0000
00M0
0000
0100
0000
0000
0000
0001
0000
0000
0000
1000
0000
0000
0000
0000
0000
0000
0000
0010
0000
0000
0000
0000
0100
0000
0000
0000
0000
0000
0000
0000
0100
0000
0000
0001
0000
0000
0000
0000
0000
0000
0000
1000
0000
0000
0000
0000
0000
0000
0000
,  // measure 40
1100
0000
0000
0000
0000
0000
0000
0000
0100
0000
0000
0000
0000
0010
0000
0000
0001
0000
0000
0000
0000
0000
0000
0000
1000
0000
0000
0000
0000
0000
0000
0000
0010
0000
0000
0000
0000
0000
0000
0000
0100
0000
0000
0000
0000
0001
0000
0000
1000
0000
0000
0000
0000
0000
0000
0000
0100
0000
0000
0000
0000
0000
0000
0000
,  // measure 41
0010
0000
0000
0000
0000
0000
0000
0000
0100
0000
0000
0000
0000
1000
0000
0000
0001
0000
0000
0000
0000
0000
0000
0000
0100
0000
0000
0000
0000
0000
0000
0000
0010
0000
0000
0000
0000
1000
0000
0000
0001
0000
0000
0000
0000
1000
0000
0000
0100
0000
0000
0000
0000
0000
0000
0000
0010
0000
0000
0000
0000
0000
0000
0000
,  // measure 42
0110
0000
0000
0000
0000
0000
0000
0000
0100
0000
0000
0000
0000
1000
0000
0000
0001
0000
0000
0000
0000
0000
0000
0000
0100
0000
0000
0000
0000
0000
0000
0000
0010
0000
0000
0000
0000
0000
0000
0000
0100
0000
0000
0000
0001
0000
1000
0000
0100
0000
0000
0000
0000
0000
0000
0000
1000
0000
0000
0000
0000
0000
0000
0000
,  // measure 43
0001
0000
0010
0000
0100
0000
1000
0000
0010
0000
0002
0003
0020
0030
2000
3000
,  // measure 44
2001
0000
0000
0000
0000
0000
0000
0000
3001
0000
0000
0000
0000
1000
0000
0000
0010
0000
0000
0000
0000
0000
0000
0000
0100
0000
0000
0000
0000
0000
0000
0000
0001
0000
0000
0000
0000
0000
0000
0000
1000
0000
0000
0000
0000
0100
0000
0000
0010
0000
0000
0000
0000
0000
0000
0000
0001
0000
0000
0000
0000
0000
0000
0000
,  // measure 45
1000
0000
0000
0000
0010
0000
0000
0000
0100
0000
0000
0000
0000
0001
0000
0000
1000
0000
0000
0000
0000
0000
0000
0000
0100
0000
0000
0000
0000
0000
0000
0000
1000
0000
0000
0000
0010
0000
0000
0000
0100
0000
0000
0000
0001
0000
0000
0000
0010
0000
0000
0000
0000
0000
0000
0000
0100
0000
0000
0000
0000
0000
0000
0000
,  // measure 46
1200
0000
0000
0000
0000
0000
0000
0000
1300
0000
0000
0000
0000
0001
0000
0000
0100
0000
0000
0000
0000
0000
0000
0000
0001
0000
0000
0000
0000
0000
0000
0000
1000
0000
0000
0000
0000
0000
0000
0000
0010
0000
0000
0000
1000
0000
0100
0000
0010
0000
0000
0000
0000
0000
0000
0000
0100
0000
0000
0000
0000
0000
0000
0000
,  // measure 47
0010
0000
0001
1000
0010
0000
0200
0000
0300
0000
0001
0000
0010
0000
0100
0000
,  // measure 48
1200
0000
0000
0000
0000
0000
0000
0000
1300
0000
0100
00M0
0100
0000
0001
0000
1000
0000
0000
0000
0010
0000
0000
0000
0210
0000
0000
0000
0000
0000
0000
0000
,  // measure 49
0000
0301
0010
0100
1000
0001
0100
0010
,  // measure 50
2010
0000
0000
0000
0000
0000
0000
0000
3001
0000
0010
0M00
0010
0000
1000
0000
0001
0000
0000
0000
0010
0000
0000
0000
0210
0000
0000
0000
0000
0000
0000
0000
,  // measure 51
0000
0000
1300
0000
0010
0000
0100
0000
0001
0000
1000
0000
0100
0010
0001
0000
,  // measure 52
0100
0020
0000
0130
2000
0000
3100
0020
,  // measure 53
0000
0000
0130
0000
0002
0000
0000
0000
0013
0100
1000
0001
0100
0000
0010
0000
,  // measure 54
2000
0000
0000
0000
0000
0000
0000
0000
3001
0000
0100
00M0
0100
0000
1000
0000
0001
0000
0000
0000
0010
0000
0000
0000
0200
0000
0000
0000
0000
0000
0000
0000
,  // measure 55
0300
000M
000M
000M
000M
1000
1000
0001
,  // measure 56
0102
0000
0000
0000
0000
0000
0000
0000
0103
0000
0000
0000
0000
0010
0000
0000
4000
0000
0000
0000
0000
0000
0000
0000
0000
0000
0000
0000
0000
0000
0000
0000
3001
0000
0000
0000
0100
0000
00M0
0000
0100
0000
0000
0000
0010
0000
0000
0000
2000
0000
0000
0000
0000
0000
0000
0000
3010
0000
0000
0000
0000
0000
0000
0000
,  // measure 57
0001
0000
0000
0000
0100
0000
00M0
0000
0100
0000
0000
0000
1000
0000
0000
0000
0001
0000
0000
0000
0000
0000
0000
0000
0010
0000
0000
0000
0000
0000
0000
0000
0100
0000
0000
0000
0000
0000
0000
0000
1000
0000
0000
0000
0000
0001
0000
0000
0100
0000
0000
0000
0000
0000
0000
0000
0010
0000
0000
0000
0000
0000
0000
0000
,  // measure 58
2010
0000
0000
0000
0000
0000
0000
0000
3001
0000
0000
0000
0000
1000
0000
0000
0010
0000
0000
0000
0000
0000
0000
0000
2000
0000
0000
0000
0000
0000
0000
0000
3100
0000
0000
0000
0000
0000
0000
0000
1000
0000
0000
0000
0000
0001
0000
0000
0020
0000
0000
0000
0000
0000
0000
0000
0130
0000
0000
0000
0000
0000
0000
0000
,  // measure 59
1000
0000
0100
00M0
0100
0000
0001
0000
0010
0000
0000
0000
1000
0000
0000
0000
0010
0000
0000
0000
0100
0000
0000
0000
1000
0000
0000
0000
0001
0000
0000
0000
,  // measure 60
0201
0000
0000
0000
0000
0000
0000
0000
0310
0000
0000
0000
0000
1000
0000
0000
0004
0000
0000
0000
0000
0000
0000
0000
0000
0000
0000
0000
0000
0000
0000
0000
1003
0000
0000
0000
0100
0000
00M0
0000
0100
0000
0000
0000
0010
0000
0000
0000
0002
0000
0000
0000
0000
0000
0000
0000
0013
0000
0000
0000
0000
0000
0000
0000
,  // measure 61
1000
0000
0100
00M0
0100
0000
0001
0000
1000
0000
0000
0000
0010
0000
0000
0000
1000
0000
0100
0000
0010
0000
0001
0000
0100
0000
0000
0000
0010
0000
0000
0000
,  // measure 62
1020
0000
0000
0000
0000
0000
0000
0000
0130
0000
0000
0000
0000
0001
0000
0000
1000
0000
0000
0000
0000
0000
0000
0000
0200
0000
0000
0000
0000
0000
0000
0000
0310
0000
0000
0000
0000
0000
0000
0000
0100
0000
0000
0000
0000
1000
0000
0000
0020
0000
0000
0000
0000
0000
0000
0000
0130
0000
0000
0000
0000
0000
0000
0000
,  // measure 63
0001
0000
0010
0M00
0010
0000
1000
0000
0100
0000
0000
0000
0001
0000
0000
0000
0100
0000
0000
0000
1000
0000
0000
0000
0010
0000
0000
0000
0100
0000
0000
0000
,  // measure 64
0002
0003
0000
0000
;

//---------------dance-single - Feraligatr----------------
#NOTES:
     dance-single:
     Feraligatr SH:
     Hard:
     8:
     0.471324,0.515876,0.145985,0.554745,0.193431,452.000000,432.000000,20.000000,76.000000,0.000000,0.000000,0.471324,0.515876,0.145985,0.554745,0.193431,452.000000,432.000000,20.000000,76.000000,0.000000,0.000000:
// measure 0
0000
0000
0000
0000
,  // measure 1
0000
0000
0000
0000
,  // measure 2
0000
0000
0000
0000
,  // measure 3
0000
0000
0000
0000
0000
0001
0010
0200
,  // measure 4
0300
1000
0001
0100
0010
1000
0001
1000
,  // measure 5
0010
0000
0100
0000
0001
0000
0020
0000
0000
0230
0000
0300
0000
0000
0000
0000
,  // measure 6
1000
0010
1000
0001
0100
0010
1000
0100
,  // measure 7
0010
0000
0001
1000
0000
1000
0020
0000
0030
0000
0100
0000
0100
0000
0001
0000
,  // measure 8
2000
3100
0010
0001
1000
0010
0100
0001
,  // measure 9
0010
0100
0010
0001
0100
0010
1000
0100
,  // measure 10
0010
0001
1000
0200
0000
0300
1000
0001
,  // measure 11
0100
0001
1000
0200
0300
0010
0010
0001
,  // measure 12
2001
0000
0000
3010
0200
0000
0000
0000
0001
0000
0000
0000
0301
1000
0000
0000
,  // measure 13
0100
0000
0010
0000
0001
0000
0100
0000
0010
1000
0010
1000
0001
0000
0010
0000
,  // measure 14
0210
0000
1300
0002
0100
0003
0002
0000
,  // measure 15
1003
0010
1000
0100
0001
0100
1000
0001
,  // measure 16
0201
0000
0310
2000
0001
3000
1000
0100
,  // measure 17
2000
0000
0000
0000
3001
0000
0100
0000
0010
1000
0010
1000
0001
0000
0010
0000
,  // measure 18
0120
0000
0031
2000
0100
3000
1000
0010
,  // measure 19
2000
0000
0000
0000
3000
0001
0010
0100
,  // measure 20
2000
0000
0000
0000
3001
0100
0001
0100
0010
0000
1000
0000
0002
0000
0000
0000
,  // measure 21
0003
1000
0100
0010
0001
1000
0010
0100
,  // measure 22
0002
0000
0000
0000
1003
0010
1000
0010
0100
0000
0001
0000
2000
0000
0000
0000
,  // measure 23
3000
0000
0001
0000
0010
0000
0100
0000
1000
0000
0001
0000
1000
0100
1000
0000
,  // measure 24
0001
0020
0000
0031
2000
0000
3001
0200
,  // measure 25
0000
0000
0301
0000
2000
0000
0000
0000
3010
0200
0000
0000
0300
0000
0000
0000
,  // measure 26
0002
0000
0000
0000
1003
0100
1000
0100
0010
0000
0001
0000
2000
0000
0000
0000
,  // measure 27
3000
0000
0000
0000
0000
0001
0001
0100
,  // measure 28
0120
0000
0000
0000
1030
0000
1000
0000
0001
0010
0001
0010
0200
0000
1300
0000
,  // measure 29
0100
1000
0100
1000
0001
0000
0100
0000
0010
0000
1000
0000
0100
0000
0010
0000
,  // measure 30
0021
0000
0130
1000
0001
0100
0010
1000
,  // measure 31
0001
0100
0001
0100
0010
0000
0001
0000
0010
0000
1000
0000
0001
0000
0010
0000
,  // measure 32
0120
0000
0000
0000
0031
0000
0001
0000
1000
0010
1000
0010
0200
0000
0301
0000
,  // measure 33
0100
0001
0100
0001
1000
0000
0100
0000
0010
0000
0001
0000
1000
0000
0010
0000
,  // measure 34
0210
0000
0301
1002
0000
1003
1200
0000
,  // measure 35
1300
0100
1000
0100
0010
0000
1000
0000
0010
0000
0001
0000
0100
0000
0010
0000
,  // measure 36
2000
0000
3000
0001
0010
0100
2000
0000
,  // measure 37
3000
0001
0100
0010
1000
0001
0100
0010
,  // measure 38
2000
0000
3000
0001
0010
0100
2000
0000
,  // measure 39
3000
0000
0001
1000
0001
1000
0010
0000
0200
0000
0000
0000
0310
0000
1000
0000
,  // measure 40
1001
0001
1000
0100
0010
0001
1000
0010
,  // measure 41
0100
0000
0001
0000
1000
0000
0100
0000
0010
0000
0001
0000
0020
0000
0000
0030
,  // measure 42
0110
0100
1000
0001
0100
0010
0100
0002
,  // measure 43
0003
0000
0100
0000
0010
0000
1000
0000
0100
0000
0002
0003
0200
0300
2000
3000
,  // measure 44
1002
0000
0103
0020
1000
0030
0002
0000
,  // measure 45
0000
1003
0200
0000
0010
0000
0300
0000
0001
1000
0001
1000
0010
0000
0100
0000
,  // measure 46
0201
0000
0310
2000
0001
3000
0020
0000
,  // measure 47
0000
0000
0000
0000
0030
0001
0100
0010
,  // measure 48
1020
0000
0000
0000
0130
0001
0100
0001
1000
0000
0100
0000
0020
0000
0000
0000
,  // measure 49
0000
0031
0100
0010
1000
0001
0010
0100
,  // measure 50
2100
0000
0000
0000
3001
0010
0001
0010
0100
0000
1000
0000
0002
0000
0000
0000
,  // measure 51
0000
0000
1003
0000
0010
0000
0100
0000
0001
0000
1000
0000
0001
0100
0001
0000
,  // measure 52
1000
0020
0000
1030
0002
0000
1003
0200
,  // measure 53
0000
0000
1300
0000
0002
0000
0000
0000
0013
0200
0000
0000
0300
0000
0000
0000
,  // measure 54
2000
0000
0000
0000
3001
0100
0001
0100
0010
0000
1000
0000
0002
0000
0000
0000
,  // measure 55
0003
0000
0000
0000
0000
1000
1000
0100
,  // measure 56
0120
0000
0000
0000
0031
0000
0001
0000
1000
0010
1000
0010
0200
0000
0301
0000
,  // measure 57
0100
0001
0100
0001
1000
0000
0100
0000
0010
0000
0001
0000
0100
0000
0010
0000
,  // measure 58
1020
0000
0130
0001
1000
0100
0010
0001
,  // measure 59
1000
0100
1000
0100
0010
0000
1000
0000
0010
0000
0001
0000
0100
0000
0010
0000
,  // measure 60
1020
0000
1030
0002
0010
0003
0002
0000
,  // measure 61
0000
0103
0020
0000
1030
0000
0100
0000
0010
0001
0010
0001
1000
0000
0010
0000
,  // measure 62
0120
0000
1030
0002
0010
0003
0200
0000
,  // measure 63
1300
0001
1000
0001
0100
0000
1000
0000
0100
0000
0001
0000
0010
0000
0100
0000
,  // measure 64
2000
3000
0000
0000
;

//---------------dance-single - Feraligatr----------------
#NOTES:
     dance-single:
     Feraligatr SM:
     Medium:
     6:
     0.296142,0.351734,0.102190,0.364964,0.021898,284.000000,270.000000,14.000000,50.000000,0.000000,0.000000,0.296142,0.351734,0.102190,0.364964,0.021898,284.000000,270.000000,14.000000,50.000000,0.000000,0.000000:
// measure 0
0000
0000
0000
0000
,  // measure 1
0000
0000
0000
0000
,  // measure 2
0000
0000
0000
0000
,  // measure 3
0000
0000
0000
0000
,  // measure 4
1000
0000
0001
0010
0000
0000
0100
0000
,  // measure 5
0000
0000
0000
0000
1000
0000
0000
0000
0010
0000
0000
0100
0000
0000
0001
1000
,  // measure 6
0100
0000
0010
0001
0000
0000
1000
0000
,  // measure 7
0000
0000
0010
0000
0000
0100
0100
0001
,  // measure 8
1000
0000
0100
0010
0000
0000
0100
0000
,  // measure 9
0000
0000
1000
0000
0000
0000
0001
0100
,  // measure 10
0010
0000
0000
0000
1000
0000
0001
0000
0000
0000
0000
0010
0100
0000
0000
0000
,  // measure 11
0000
0000
0000
0000
0000
1000
1000
0000
,  // measure 12
1002
0000
0103
0010
1000
0000
0002
0000
,  // measure 13
1003
0100
0010
0000
0001
1000
0001
0100
,  // measure 14
0020
0000
0000
2030
0000
0000
3200
0000
,  // measure 15
0000
0000
0310
0000
0001
0010
0100
1000
,  // measure 16
1200
0000
0000
0320
0000
0000
0031
1000
,  // measure 17
0002
0000
0000
0003
0100
0010
0100
0001
,  // measure 18
2000
0000
0000
3200
0000
0000
0310
0001
,  // measure 19
0020
0000
0000
0000
0030
0001
0100
0100
,  // measure 20
0010
0000
1000
0001
0000
0000
0010
0000
,  // measure 21
0000
0001
0010
0010
0001
1000
0010
0010
,  // measure 22
1000
0000
0001
0100
0000
0000
0010
0000
,  // measure 23
0000
1000
0100
0100
1000
0001
0020
0000
,  // measure 24
0130
2000
0000
3100
0020
0000
0130
2000
,  // measure 25
0000
3100
0200
0000
0320
0030
0000
0000
,  // measure 26
0001
0000
1000
0010
0000
0000
0100
0000
,  // measure 27
0000
0000
0000
0000
0000
0001
0001
1000
,  // measure 28
1002
0000
0103
0100
0040
0000
1030
0001
,  // measure 29
0040
0000
0130
1000
0001
0100
0010
1000
,  // measure 30
0002
0000
0013
0200
0000
0300
1000
0001
,  // measure 31
0400
0000
0301
0010
0100
0000
0000
0000
,  // measure 32
2100
0000
3001
0001
0400
0000
0310
1000
,  // measure 33
0004
0000
0013
0100
1000
0001
0100
0000
,  // measure 34
0002
0000
0013
0200
0000
1300
0002
0000
,  // measure 35
0103
0010
1000
0100
0010
0000
0000
0000
,  // measure 36
0001
0000
0000
0100
0000
0000
0010
0000
,  // measure 37
0000
0000
0000
0000
0000
0000
0000
0000
1000
0000
0000
0100
0000
0000
0010
0001
,  // measure 38
1000
0000
0000
0010
0000
0000
0100
0000
,  // measure 39
0000
0000
0000
0000
0002
0000
1003
0100
,  // measure 40
0110
0000
0001
1000
0000
0000
0010
0000
,  // measure 41
0100
0000
0001
0000
1000
0100
1000
0000
,  // measure 42
0001
0000
0000
0000
0100
0000
0010
0000
0000
0000
0000
1000
0001
0000
0000
0000
,  // measure 43
0010
0000
0000
0000
0000
0001
0100
0010
,  // measure 44
2010
0000
0000
3002
0000
0003
0020
0000
,  // measure 45
0000
0230
1300
0001
0100
0010
1000
0001
,  // measure 46
0020
0000
0030
0002
0000
0003
0200
0000
,  // measure 47
0000
0000
0300
0000
,  // measure 48
1002
0000
1003
1020
0000
0030
0210
0000
,  // measure 49
0300
0001
0000
0001
,  // measure 50
1002
0000
1003
1200
0000
0300
0120
0000
,  // measure 51
0030
0000
0001
0000
0000
1000
1000
0000
,  // measure 52
0010
2000
0000
3010
0200
0000
0310
2000
,  // measure 53
0000
3010
0020
0000
0230
0300
0000
0000
,  // measure 54
0001
0000
1000
0100
0000
0000
0010
0000
,  // measure 55
0000
0000
0000
0000
0000
0001
0001
1000
,  // measure 56
1002
0000
0013
0010
0400
0000
1300
0001
,  // measure 57
0400
0000
0310
1000
0001
0010
0100
1000
,  // measure 58
0002
0000
0103
0020
0000
0030
1000
0001
,  // measure 59
0040
0000
0031
0100
0010
0000
0000
0000
,  // measure 60
1020
0000
0130
0100
0040
0000
1030
0001
,  // measure 61
0400
0000
0310
1000
0001
0010
0100
1000
,  // measure 62
0002
0000
0103
0020
0000
0030
1000
0001
,  // measure 63
0040
0000
0031
0100
0010
1000
0100
0100
,  // measure 64
2000
3000
0000
0000
;

//---------------dance-single - Feraligatr----------------
#NOTES:
     dance-single:
     Feraligatr SE:
     Easy:
     4:
     0.225235,0.278102,0.058394,0.226277,0.000000,216.000000,208.000000,8.000000,31.000000,0.000000,0.000000,0.225235,0.278102,0.058394,0.226277,0.000000,216.000000,208.000000,8.000000,31.000000,0.000000,0.000000:
// measure 0
0000
0000
0000
0000
,  // measure 1
0000
0000
0000
0000
,  // measure 2
0000
0000
0000
0000
,  // measure 3
0000
0000
0000
0000
,  // measure 4
1000
0100
0010
0100
,  // measure 5
1000
0001
0010
0000
,  // measure 6
0100
1000
0001
0100
,  // measure 7
0010
0100
0001
0000
,  // measure 8
1000
0100
0010
0001
,  // measure 9
1000
0010
0100
0001
,  // measure 10
1000
0100
1000
0001
,  // measure 11
0100
0001
1000
0000
,  // measure 12
1001
0002
0000
0103
,  // measure 13
0010
1000
0001
0001
,  // measure 14
0020
0000
0130
2000
,  // measure 15
0000
3001
1000
0010
,  // measure 16
0200
0000
0000
0000
0301
0000
1000
0001
,  // measure 17
2000
0000
3010
0100
,  // measure 18
0002
0000
0000
0000
1003
0000
0100
0010
,  // measure 19
0200
0000
0300
0000
,  // measure 20
1000
0001
0001
0200
,  // measure 21
0300
0010
0000
1000
,  // measure 22
0100
0010
0010
0002
,  // measure 23
0003
0000
1000
0000
0000
0010
0010
0000
,  // measure 24
0200
0000
0000
0302
0000
0000
2003
0000
,  // measure 25
0000
0100
0000
3100
,  // measure 26
0020
0000
0000
0032
0000
0000
2003
0000
,  // measure 27
0000
0000
0000
0000
3000
0001
0001
0000
,  // measure 28
0201
0000
0310
0000
1000
0000
0001
1000
,  // measure 29
0100
0000
0010
0001
1000
0000
0001
0000
,  // measure 30
0100
0000
0010
0000
1000
0000
0100
0010
,  // measure 31
0001
0000
1000
0010
0100
0000
0000
0000
,  // measure 32
0102
0000
1003
0000
0100
0000
0010
0001
,  // measure 33
1000
0000
0010
0100
0001
0000
1000
0000
,  // measure 34
0100
0000
0010
0001
0000
0000
1000
0000
,  // measure 35
0001
0000
0100
0010
1000
0000
0000
0000
,  // measure 36
0001
0010
0001
1000
,  // measure 37
0010
0100
0001
1000
,  // measure 38
0100
1000
0001
0100
,  // measure 39
0010
0100
0002
0013
,  // measure 40
1001
1000
0010
0100
,  // measure 41
0010
1000
0001
0001
,  // measure 42
0010
0100
0010
0001
,  // measure 43
1000
0000
0000
0000
,  // measure 44
1002
0000
1003
0200
,  // measure 45
0000
1300
0001
0010
,  // measure 46
0200
0000
1300
0020
,  // measure 47
0000
0000
0030
0000
,  // measure 48
1001
0000
0000
1000
0000
0000
0010
0000
,  // measure 49
0000
0100
0000
0100
,  // measure 50
0001
0000
0000
1000
0000
0000
0100
0000
,  // measure 51
0000
0000
0010
0000
0000
0001
0001
0000
,  // measure 52
0020
0000
0000
0032
0000
0000
2003
0000
,  // measure 53
0000
0010
0000
3010
,  // measure 54
0200
0000
0000
0302
0000
0000
2003
0000
,  // measure 55
0000
0000
0000
0000
0000
3001
0001
0000
,  // measure 56
0021
0000
0130
0000
1000
0000
0001
1000
,  // measure 57
0010
0000
0100
0001
1000
0000
0001
0000
,  // measure 58
0010
0000
0100
0000
1000
0000
0010
0100
,  // measure 59
0001
0000
1000
0100
0010
0000
0000
0000
,  // measure 60
0012
1003
0010
0200
,  // measure 61
0000
0000
0310
1000
0001
0000
1000
0000
,  // measure 62
0100
0000
0010
0001
0000
0000
1000
0000
,  // measure 63
0001
0000
0100
0010
1000
0000
0000
0000
;

//---------------dance-single - Feraligatr----------------
#NOTES:
     dance-single:
     Feraligatr SB:
     Beginner:
     1:
     0.137643,0.185401,0.051095,0.043796,0.000000,132.000000,125.000000,7.000000,6.000000,0.000000,0.000000,0.137643,0.185401,0.051095,0.043796,0.000000,132.000000,125.000000,7.000000,6.000000,0.000000,0.000000:
// measure 0
0000
0000
0000
0000
,  // measure 1
0000
0000
0000
0000
,  // measure 2
0000
0000
0000
0000
,  // measure 3
0000
0000
0000
0000
,  // measure 4
1000
0010
0000
0100
,  // measure 5
0000
0001
0000
1000
,  // measure 6
0100
0010
0000
0001
,  // measure 7
0000
1000
0000
0010
,  // measure 8
0100
0001
0000
1000
,  // measure 9
0000
0100
0000
0010
,  // measure 10
0001
1000
0000
0010
,  // measure 11
0000
0000
0000
0000
,  // measure 12
2001
0000
0000
3100
,  // measure 13
0000
0010
0000
0001
,  // measure 14
2000
0000
0000
3010
,  // measure 15
0000
0100
0000
0001
,  // measure 16
2000
0000
0000
3100
,  // measure 17
0000
0010
0000
0001
,  // measure 18
2000
0000
0000
3010
,  // measure 19
0000
0100
0000
0000
,  // measure 20
0001
1000
1000
0100
,  // measure 21
0000
0010
0000
0010
,  // measure 22
0001
1000
1000
0010
,  // measure 23
0000
0100
0000
0100
,  // measure 24
0001
0000
0001
0010
,  // measure 25
0000
0010
0000
0000
,  // measure 26
0001
1000
0000
0010
,  // measure 27
0000
0000
0000
0000
,  // measure 28
1001
0000
0001
0000
,  // measure 29
0010
0000
0100
0000
,  // measure 30
0010
0000
0001
0000
,  // measure 31
1000
0000
0010
0000
,  // measure 32
0110
0000
0100
0000
,  // measure 33
0001
0000
1000
0000
,  // measure 34
0100
0000
0010
0000
,  // measure 35
0001
0000
1000
0000
,  // measure 36
0010
0000
0010
0000
,  // measure 37
0010
0000
0010
0000
,  // measure 38
0100
0000
0100
0000
,  // measure 39
0100
0000
0100
0000
,  // measure 40
1001
0000
0001
0000
,  // measure 41
0010
0000
0100
0000
,  // measure 42
0010
0000
0001
0000
,  // measure 43
1000
0000
0000
0000
,  // measure 44
0002
0000
0000
0103
,  // measure 45
0000
0010
0000
1000
,  // measure 46
0002
0000
0000
0013
,  // measure 47
0000
0100
0000
0000
,  // measure 48
1001
1000
1000
0010
,  // measure 49
0000
0100
0000
0100
,  // measure 50
0001
1000
1000
0100
,  // measure 51
0000
0010
0000
0010
,  // measure 52
0001
0000
0001
0100
,  // measure 53
0000
0100
0000
0000
,  // measure 54
0001
1000
0000
0100
,  // measure 55
0000
0000
0000
0000
,  // measure 56
1001
0000
0001
0000
,  // measure 57
0100
0000
0010
0000
,  // measure 58
0100
0000
0001
0000
,  // measure 59
1000
0000
0100
0000
,  // measure 60
0110
0000
0010
0000
,  // measure 61
0001
0000
1000
0000
,  // measure 62
0010
0000
0100
0000
,  // measure 63
0001
0000
1000
0000
;
