#TITLE:I Love You;
#SUBTITLE:;
#ARTIST:OMFG;
#TITLETRANSLIT:;
#SUBTITLETRANSLIT:;
#ARTISTTRANSLIT:;
#GENRE:;
#CREDIT:;
#BANNER:I Love You.png;
#BACKGROUND:I Love You-bg.png;
#LYRICSPATH:;
#CDTITLE:xRGTMx-cdtitle.png;
#MUSIC:I Love You.ogg;
#OFFSET:0.006000;
#SAMPLESTART:67.485001;
#SAMPLELENGTH:18.618000;
#SELECTABLE:YES;
#BPMS:0.000000=103.125000
,50.000000=51.563000
,51.000000=103.125000
,66.000000=51.563000
,66.500000=103.125000
,81.500000=51.563000
,82.000000=103.125000
,86.000000=51.563000
,88.000000=103.125000
,92.000000=51.563000
,94.000000=103.125000
,154.000000=51.563000
,155.000000=103.125000
,170.000000=51.563000
,170.500000=103.125000
,185.500000=51.563000
,186.000000=103.125000
;
#STOPS:107.750000=1.164000
;
#BGCHANGES:;
#KEYSOUNDS:;
#ATTACKS:;

//---------------dance-single - xRGTMx----------------
#NOTES:
     dance-single:
     xRGTMx:
     Challenge:
     10:
     0.643352,0.877194,0.256160,0.702375,0.706506,545.000000,514.000000,31.000000,85.000000,16.000000,0.000000,0.643352,0.877194,0.256160,0.702375,0.706506,545.000000,514.000000,31.000000,85.000000,16.000000,0.000000:
0000
0000
0000
0000
,
1000
0000
0000
0010
0000
0100
0010
0000
0000
1000
0000
0000
0001
0000
0000
0000
0000
0001
0000
0000
0000
0010
0000
0000
,
0100
0000
0000
1000
0000
0100
1000
0000
0000
0001
0000
1000
0100
0000
0000
0000
0000
0100
0000
0000
1000
0010
0000
0100
,
0001
0000
0000
0010
0000
0100
0010
0000
0000
0001
0000
0000
1000
0000
0000
0000
0000
1000
0000
0000
0000
0010
0000
0000
,
0010
0000
0000
0010
0000
0010
0100
0000
0000
0010
0000
0000
0010
0000
0000
1000
0000
1000
0001
0000
0001
0010
0000
0100
,
2000
0000
0000
3010
0000
0100
0020
0000
0000
2030
0000
0000
3002
0000
0000
0013
0000
0001
0010
0000
0000
0200
0000
0000
,
2300
0000
0000
3001
0000
1000
0020
0000
0000
1030
0000
0001
0200
0000
0000
0310
0000
0100
0010
0000
1000
0010
0000
1000
,
0002
0000
0000
0013
0000
0100
0020
0000
0000
0032
0000
0000
2003
0000
0000
3010
0000
1000
0010
0000
0000
0100
0000
0000
,
0200
0000
0000
0301
0000
0001
0200
0000
0000
0310
0000
0000
0020
0000
0000
1030
0000
1000
0001
0000
1000
0010
0000
1000
,
0101
0000
0000
0010
0000
0100
0010
0000
0000
0001
0000
0000
1100
0000
0000
0010
0000
0100
0010
0000
0000
1000
0000
0000
,
0101
0000
0000
0010
0000
0100
0010
0000
0000
0001
0000
0000
1100
0000
0000
0010
0000
0100
0010
0000
0000
1000
0000
0000
,
0101
0000
0100
0010
0000
0001
1100
0000
0100
0010
0000
1000
0101
0000
0100
0010
0000
0001
1100
0000
0100
0010
0000
1000
,
0001
0000
0010
0000
0100
0000
1000
0000
0001
0000
0100
0000
0010
0000
1000
0000
0100
0000
0010
0000
0001
0000
1000
0000
0M00
0000
0000
0001
0000
0001
1000
0000
1000
0010
0000
1000
02M1
0000
0000
0000
0000
0000
0310
0000
0000
0000
0001
0000
,
1000
0000
0000
0000
0000
0000
0000
0000
0000
0000
0000
0000
0000
0000
0000
0000
0000
0000
0000
0000
0000
0000
0000
0000
0001
0000
0000
0000
0000
0000
0000
0000
0000
0000
0000
0000
0000
0000
0000
0000
0000
0000
0000
0000
0000
0000
0000
0000
0100
0000
0000
0000
0000
0000
0000
0000
0000
0000
0000
0000
0000
0000
0000
0000
0000
0000
0000
0000
0000
0000
0000
0000
0010
0000
0000
0000
0000
0000
0000
0000
0000
0000
0000
0000
0000
0000
0000
2000
0000
0000
0000
0000
0000
0000
0000
0000
0000
0000
0000
0000
0000
0000
0000
0000
0000
0000
0000
0000
0000
0000
0000
0000
0000
0000
0000
0000
0000
0000
0000
0000
3002
0000
0000
0000
0000
0000
0000
0000
0000
0000
0000
0000
0000
0000
0000
0000
0000
0000
0000
0000
0000
0000
0000
0000
0013
0000
0000
0000
0000
0000
0000
0000
0000
0000
0000
0000
0000
0000
0000
0000
0000
0000
0000
0000
0000
0000
0000
0000
0100
0000
0000
0000
0000
0000
0000
0000
0000
0000
0000
0000
0000
0000
0000
0000
1000
0000
0000
0000
0000
0000
0000
0000
,
0001
0000
0000
1000
0000
0010
0400
0000
0000
0310
0000
1000
0010
0000
0100
0010
0000
1000
0021
0000
0000
0130
0000
0001
,
0010
0000
0000
0000
0000
0000
0000
0000
0000
0000
0000
0000
0000
0000
0000
0000
0000
0000
0000
0000
0000
0000
0000
0000
0001
0000
0000
0000
0000
0000
0000
0000
0000
0000
0000
0000
0000
0000
0000
0000
0000
0000
0000
0000
0000
0000
0000
0000
1000
0000
0000
0000
0000
0000
0000
0000
0000
0000
0000
0000
0000
0000
0000
0000
0000
0000
0000
0000
0000
0000
0000
0000
0001
0000
0000
0000
0000
0000
0000
0000
0000
0000
0000
0000
0000
0000
0000
0200
0000
0000
0000
0000
0000
0000
0000
0000
0000
0000
0000
0000
0000
0000
0000
0000
0000
0000
0000
0000
0000
0000
0000
0000
0000
0000
0000
0000
0000
0000
0000
0000
0302
0000
0000
0000
0000
0000
0000
0000
0000
0000
0000
0000
0000
0000
0000
0000
0000
0000
0000
0000
0000
0000
0000
0000
1003
0000
0000
0000
0000
0000
0000
0000
0000
0000
0000
0000
0000
0000
0000
0000
0000
0000
0000
0000
0000
0000
0000
0000
0010
0000
0000
0000
0000
0000
0000
0000
0000
0000
0000
0000
0000
0000
1000
0000
0000
0000
0000
0010
0000
0000
0000
0000
,
0100
0000
0000
0000
0000
0000
0001
0000
0000
0000
0000
0000
0040
0000
0000
0000
0000
0000
0130
0000
0000
0000
1000
0000
010M
0000
0100
0010
0000
0001
12M0
0000
0000
0000
0000
0000
0310
0000
0000
0000
1000
0000
0001
0000
0000
0000
0000
0000
,
1000
0000
0000
0000
0000
0000
0000
0000
0000
0000
0000
0000
0000
0000
0000
0000
0000
0000
0000
0000
0000
0000
0000
0000
0400
0000
0000
0000
0000
0000
0000
0000
0000
0000
0000
0000
0000
0000
0000
0000
0300
0000
0000
0000
0000
0000
0000
0000
0010
0000
0000
0000
0000
0000
0000
0000
0000
0000
0000
0000
0000
0000
0000
0002
0000
0000
0000
0000
0000
0000
0000
0000
0000
0000
0000
0000
0000
0000
0000
0000
0000
0000
0000
0000
0000
0000
0000
0000
0000
0000
0000
0000
0000
0000
0000
0000
2003
0000
0000
0000
0000
0000
0000
0000
0000
0000
0000
0000
0000
0000
0000
0000
0000
0000
0000
0000
0000
0000
0000
0000
3010
0000
0000
0000
0000
0000
0000
0000
0000
0000
0000
0000
0000
0000
0000
0000
0000
0000
0000
0000
0000
0000
0000
0000
0100
0000
0000
0000
0000
0000
0000
0000
0000
0000
0000
0000
0000
0000
0000
0000
0001
0000
0000
0000
0000
0000
0000
0000
1000
0000
0000
0000
0000
0000
0000
0000
0000
0000
0000
0000
0000
0000
0000
0000
0000
0000
0000
0000
0000
0000
0000
0000
,
0001
0000
0000
0000
0010
0000
0400
0000
0000
0000
0000
0000
0310
0000
0000
0000
0001
0000
4000
0000
0000
0000
0000
0000
3004
0000
0000
0000
0000
0003
1010
0000
0000
0000
0000
0000
0100
0000
0000
0000
0000
0000
0010
0000
0000
0000
0000
0000
,
0001
0000
0000
0000
0000
0000
0000
0000
0000
0000
0000
0000
0000
0000
0000
0000
0000
0000
0000
0000
0000
0000
0000
0000
1000
0000
0000
0000
0000
0000
0000
0000
0000
0000
0000
0000
0000
0000
0000
0000
0000
0000
0000
0000
0000
0000
0000
0000
0001
0000
0000
0000
0000
0000
0000
0000
0000
0000
0000
0000
0000
0000
0000
0200
0000
0000
0000
0000
0000
0000
0000
0000
0000
0000
0000
0000
0000
0000
0000
0000
0000
0000
0000
0000
0000
0000
0000
0000
0000
0000
0000
0000
0000
0000
0000
0000
0320
0000
0000
0000
0000
0000
0000
0000
0000
0000
0000
0000
0000
0000
0000
0000
0000
0000
0000
0000
0000
0000
0000
0000
1030
0000
0000
0000
0000
0000
0000
0000
0000
0000
0000
0000
0000
0000
0000
0000
0000
0000
0000
0000
0000
0000
0000
0000
0001
0000
0000
0000
0000
0000
0000
0000
0000
0000
0000
0000
0000
0000
0000
0000
0000
0000
0000
0000
1000
0000
0000
0000
0100
0000
0000
0000
0000
0000
0000
0000
0000
0000
0000
0000
0000
0000
0000
0000
1000
0000
0000
0000
0000
0000
0000
0000
,
0010
0000
0100
0001
0000
0000
0010
0000
0000
0M01
1000
0000
01M1
0000
0000
0010
0000
0000
0001
0000
0000
1000
0000
0000
,
0001
0000
0000
0000
0000
0000
0000
0000
0000
0000
0000
0000
0000
0000
0000
0000
0000
0000
0000
0000
0000
0000
0000
0000
0100
0000
0000
0000
0000
0000
0000
0000
0000
0000
0000
0000
0000
0000
0000
0000
0000
0000
0010
0000
0000
0000
0000
0000
0100
0000
0000
0000
0000
0000
0000
0000
0000
0000
0000
0000
0000
0000
0000
0000
0000
0000
0000
0000
0000
0000
0000
0000
0001
0000
0000
0000
0000
0000
0000
0000
0000
0000
0000
0000
0000
0000
0000
0000
0000
0000
0000
0000
0000
0000
0000
0000
2M00
0000
0000
0000
0000
0000
0000
0000
0000
0000
0000
0000
3020
0000
0000
0000
0000
0000
0000
0000
0000
0000
0000
0000
2030
0000
0000
0000
0000
0000
0000
0000
0000
0000
0000
0000
3002
0000
0000
0000
0000
0000
0000
0000
0000
0000
0000
0000
0023
0000
0000
0000
0000
0000
0000
0000
0000
0000
0000
0000
0032
0000
0000
0000
0000
0000
0000
0203
0000
0000
0000
0000
0000
0000
0000
0000
0000
0000
0000
0000
0000
0000
0000
0300
0020
0000
0000
0000
0000
0000
0000
0000
0000
0030
0000
0000
,
110M
0000
0000
0000
0010
0000
0000
0000
1000
0000
0000
0000
0001
0000
0000
0000
1000
0000
0000
0000
0100
0000
0000
0010
0100
0000
0000
0000
0010
0000
0000
0000
,
0002
0000
0000
0000
0000
0000
0000
0000
0000
0000
0000
0000
0023
0000
0000
0000
0000
0000
0000
0000
0000
0000
0000
0000
0032
0000
0000
0000
0000
0000
0000
0000
0000
0000
0000
0000
2003
0000
0000
0000
0000
0000
0000
0000
0000
0000
0000
0000
3200
0000
0000
0000
0000
0000
0000
0000
0000
0000
0000
0000
2300
0000
0000
0000
0000
0000
0000
3020
0000
0000
0000
0000
0000
0000
0000
0000
0000
0000
0000
0000
0000
0000
0000
0000
1030
0000
0000
0000
0000
0000
0000
0000
0000
0000
0000
0000
0014
0000
0000
0000
0000
0000
0000
0000
0000
0000
0000
0000
0000
0000
0000
0000
0000
0000
0000
0000
0000
0000
0000
0000
1003
0000
0000
0000
0000
0000
0000
0000
0000
0000
0000
0000
0000
0000
0000
0000
0000
0000
0000
0000
0000
0000
0000
0000
0100
0000
0000
0000
0000
0000
0000
0000
0000
0000
0000
0000
0000
0000
0000
0000
0000
0000
0000
0000
0000
0000
0000
0000
0001
0000
0000
0000
0000
0000
0000
0000
0000
0000
0000
0000
0000
0000
0000
0000
0000
0000
0000
0000
0000
0000
0000
0000
,
0100
0000
0000
0000
0000
0000
0000
0000
0010
0000
0000
0000
0000
0200
0000
0000
0000
0000
0000
0000
0000
0000
0000
0000
1300
0000
0000
0000
0000
0000
0000
0000
0104
0000
0000
0000
0000
0000
0000
0000
1003
0000
0000
0000
0000
0000
0000
0000
0010
0000
0000
0000
0000
0000
0000
0000
0001
0000
0000
0000
0000
0000
0000
0000
,
0010
0000
0000
0000
0000
0000
0000
0000
0100
0000
0000
0000
0000
0020
0000
0000
0000
0000
0000
0000
0000
0000
0000
0000
1030
0000
0000
0000
0000
0000
0000
0000
0014
0000
0000
0000
0000
0000
0000
0000
1003
0000
0000
0000
0000
0000
0000
0000
0100
0000
0000
0000
0000
0000
0000
0000
0001
0000
0000
0000
0000
0000
0000
0000
,
0100
0000
0000
0000
0000
0000
0000
0000
0000
0000
0000
0000
0000
0000
0000
0000
0000
0000
0000
0000
0000
0000
0000
0000
0010
0000
0000
0000
0000
0000
0000
0000
0000
0000
0000
0000
0000
0000
0000
0200
0000
0000
0000
0000
0000
0000
0000
0000
0000
0000
0000
0000
0000
0000
0000
0000
0000
0000
0000
0000
0000
0000
0000
0000
0000
0000
0000
0000
0000
0000
0000
0000
1300
0000
0000
0000
0000
0000
0000
0000
0000
0000
0000
0000
0000
0000
0000
0000
0000
0000
0000
0000
0000
0000
0000
0000
0104
0000
0000
0000
0000
0000
0000
0000
0000
0000
0000
0000
0000
0000
0000
0000
0000
0000
0000
0000
0000
0000
0000
0000
1003
0000
0000
0000
0000
0000
0000
0000
0000
0000
0000
0000
0000
0000
0000
0000
0000
0000
0000
0000
0000
0000
0000
0000
0010
0000
0000
0000
0000
0000
0000
0000
0000
0000
0000
0000
0000
0000
0000
0000
0000
0000
0000
0000
0000
0000
0000
0000
0100
0000
0000
0000
0000
0000
0000
0000
0000
0000
0000
0000
0000
00M0
0000
0000
0000
0000
0000
0000
0000
0000
0000
0000
,
0002
0000
0000
0013
0000
0100
0020
0000
0000
0032
0000
0000
2003
0000
0000
3010
0000
1000
0010
0000
0000
0200
0000
0000
,
0302
0000
0000
1003
0000
0001
0020
0000
0000
0031
0000
1000
0200
0000
0000
0310
0000
0100
0010
0000
0001
0010
0000
0001
,
2000
0000
0000
3010
0000
0100
0020
0000
0000
2030
0000
0000
3002
0000
0000
0013
0000
0001
0010
0000
0000
0100
0000
0000
,
0200
0000
0000
1300
0000
1000
0200
0000
0000
0310
0000
0000
0020
0000
0000
0031
0000
0001
0010
0000
0010
0001
0000
0001
,
2000
0000
0000
3010
0000
0100
0020
0000
0000
2030
0000
0000
3002
0000
0000
0013
0000
0001
0010
0000
0000
0200
0000
0000
,
2300
0000
0000
3001
0000
1000
0020
0000
0000
1030
0000
0001
0200
0000
0000
0310
0000
0100
0010
0000
1000
0010
0000
1000
,
0002
0000
0000
0013
0000
0100
0020
0000
0000
0032
0000
0000
2003
0000
0000
3010
0000
1000
0010
0000
0000
0100
0000
0000
,
0200
0000
0000
0301
0000
0001
0200
0000
0000
0310
0000
0000
0020
0000
0000
1030
0000
1000
0001
0000
1000
0010
0000
1000
,
0101
0000
0000
0010
0000
0100
0010
0000
0000
0001
0000
0000
1100
0000
0000
0010
0000
0100
0010
0000
0000
1000
0000
0000
,
0101
0000
0000
0010
0000
0100
0010
0000
0000
0001
0000
0000
1100
0000
0000
0010
0000
0100
0010
0000
0000
1000
0000
0000
,
0101
0000
0100
0010
0000
0001
1100
0000
0100
0010
0000
1000
0101
0000
0100
0010
0000
0001
1100
0000
0100
0010
0000
1000
,
0001
0000
0010
0000
0100
0000
1000
0000
0001
0000
0100
0000
0010
0000
1000
0000
0100
0000
0010
0000
0001
0000
1000
0000
0M00
0000
0000
1000
0000
1000
0001
0000
0001
0010
0000
0001
12M0
0000
0000
0000
0000
0000
0310
0000
0000
0000
1000
0000
,
0001
0000
0000
0000
0000
0000
0000
0000
0000
0000
0000
0000
0000
0000
0000
0000
0000
0000
0000
0000
0000
0000
0000
0000
1000
0000
0000
0000
0000
0000
0000
0000
0000
0000
0000
0000
0000
0000
0000
0000
0000
0000
0000
0000
0000
0000
0000
0000
0100
0000
0000
0000
0000
0000
0000
0000
0000
0000
0000
0000
0000
0000
0000
0000
0000
0000
0000
0000
0000
0000
0000
0000
0010
0000
0000
0000
0000
0000
0000
0000
0000
0000
0000
0000
0000
0000
0000
0002
0000
0000
0000
0000
0000
0000
0000
0000
0000
0000
0000
0000
0000
0000
0000
0000
0000
0000
0000
0000
0000
0000
0000
0000
0000
0000
0000
0000
0000
0000
0000
0000
2003
0000
0000
0000
0000
0000
0000
0000
0000
0000
0000
0000
0000
0000
0000
0000
0000
0000
0000
0000
0000
0000
0000
0000
3010
0000
0000
0000
0000
0000
0000
0000
0000
0000
0000
0000
0000
0000
0000
0000
0000
0000
0000
0000
0000
0000
0000
0000
0100
0000
0000
0000
0000
0000
0000
0000
0000
0000
0000
0000
0000
0000
0000
0000
0001
0000
0000
0000
0000
0000
0000
0000
,
0010
0000
0000
0001
0000
1000
0400
0000
0000
1300
0000
0001
0100
0000
0001
1000
0000
0001
1020
0000
0000
0130
0000
1000
,
0010
0000
0000
0000
0000
0000
0000
0000
0000
0000
0000
0000
0000
0000
0000
0000
0000
0000
0000
0000
0000
0000
0000
0000
1000
0000
0000
0000
0000
0000
0000
0000
0000
0000
0000
0000
0000
0000
0000
0000
0000
0000
0000
0000
0000
0000
0000
0000
0001
0000
0000
0000
0000
0000
0000
0000
0000
0000
0000
0000
0000
0000
0000
0000
0000
0000
0000
0000
0000
0000
0000
0000
1000
0000
0000
0000
0000
0000
0000
0000
0000
0000
0000
0000
0000
0000
0000
0200
0000
0000
0000
0000
0000
0000
0000
0000
0000
0000
0000
0000
0000
0000
0000
0000
0000
0000
0000
0000
0000
0000
0000
0000
0000
0000
0000
0000
0000
0000
0000
0000
2300
0000
0000
0000
0000
0000
0000
0000
0000
0000
0000
0000
0000
0000
0000
0000
0000
0000
0000
0000
0000
0000
0000
0000
3001
0000
0000
0000
0000
0000
0000
0000
0000
0000
0000
0000
0000
0000
0000
0000
0000
0000
0000
0000
0000
0000
0000
0000
0010
0000
0000
0000
0000
0000
0000
0000
0000
0000
0000
0000
0000
0000
0000
0000
0001
0000
0000
0000
0000
0000
0000
0000
,
0100
0000
0000
0000
0000
0000
0000
0000
0000
0000
0000
0000
0000
0000
0000
0000
0000
0000
0000
0000
0000
0000
0000
0000
0010
0000
0000
0000
0000
0000
0000
0000
0000
0000
0000
0000
0000
0000
0000
0000
0000
0000
0000
0000
0000
0000
0000
0000
0010
0000
0000
0000
0000
0000
0000
0000
0000
0000
0000
0000
0000
0000
0000
0000
0000
0000
0000
0000
0000
0000
0000
0000
0100
0000
0000
0000
0000
0000
0000
0000
0000
0000
0000
0000
0000
0000
0000
0000
0001
0000
0000
0000
0000
0000
0000
0000
1M00
0000
0000
0000
0000
0000
0000
0001
0000
0000
0010
0000
0100
0000
0000
0000
0000
0000
0000
0000
1000
0000
0000
0000
02M1
0000
0000
0000
0000
0000
0000
0000
0000
0000
0000
0000
0000
0000
0000
0000
0000
0000
0000
0000
0000
0000
0000
0000
0310
0000
0000
0000
0000
0000
0000
0000
0000
0000
0000
0000
0000
0000
0000
0000
0001
0000
0000
0000
0000
0000
0000
0000
1000
0000
0000
0000
0000
0000
0000
0000
0000
0000
0000
0000
0000
0000
0000
0000
0000
0000
0000
0000
0000
0000
0000
0000
,
0001
0000
0000
0000
0000
0000
0000
0000
0000
0000
0000
0000
0000
0000
0000
0000
0000
0000
0000
0000
0000
0000
0000
0000
0100
0000
0000
0000
0000
0000
0000
0000
0000
0000
0000
0000
0000
0000
0000
0000
0000
0000
0000
0000
0000
0000
0000
0000
0010
0000
0000
0000
0000
0000
0000
0000
0000
0000
0000
0000
0000
0000
0000
2000
0000
0000
0000
0000
0000
0000
0000
0000
0000
0000
0000
0000
0000
0000
0000
0000
0000
0000
0000
0000
0000
0000
0000
0000
0000
0000
0000
0000
0000
0000
0000
0000
3001
0000
0000
0000
0000
0000
0000
0000
0000
0000
0000
0000
0000
0000
0000
0000
0000
0000
0000
0000
0000
0000
0000
0000
0400
0000
0000
0000
0000
0000
0000
0000
0000
0000
0000
0000
0000
0000
0000
0000
0000
0000
0000
0000
0000
0000
0000
0000
0301
0000
0000
0000
0000
0000
0000
0000
0000
0000
0000
0000
0000
0000
0000
0000
0010
0000
0000
0000
0000
0000
0000
0000
0100
0000
0000
0000
0000
0000
0000
0000
0000
0000
0000
0000
0000
0000
0000
0000
0000
0000
0000
0000
0000
0000
0000
0000
,
0010
0000
0001
4000
0000
0000
3010
0000
0100
0010
0000
1000
0001
0000
1000
0021
0000
0000
0130
0000
0001
0010
0000
0000
,
0001
0000
0000
0000
0000
0000
0000
0000
0000
0000
0000
0000
0000
0000
0000
0000
0000
0000
0000
0000
0000
0000
0000
0000
1000
0000
0000
0000
0000
0000
0000
0000
0000
0000
0000
0000
0000
0000
0000
0000
0000
0000
0000
0000
0000
0000
0000
0000
0010
0000
0000
0000
0000
0000
0000
0000
0000
0000
0000
0000
0000
0000
0000
2000
0000
0000
0000
0000
0000
0000
0000
0000
0000
0000
0000
0000
0000
0000
0000
0000
0000
0000
0000
0000
0000
0000
0000
0000
0000
0000
0000
0000
0000
0000
0000
0000
3002
0000
0000
0000
0000
0000
0000
0000
0000
0000
0000
0000
0000
0000
0000
0000
0000
0000
0000
0000
0000
0000
0000
0000
0103
0000
0000
0000
0000
0000
0000
0000
0000
0000
0000
0000
0000
0000
0000
0000
0000
0000
0000
0000
0000
0000
0000
0000
0010
0000
0000
0000
0000
0000
0000
0000
0000
0000
0000
0000
0000
0000
0000
0000
0000
0000
0000
0000
1000
0000
0000
0000
0010
0000
0000
0000
0000
0000
0000
0000
0000
0000
0000
0000
0000
0000
0000
0000
0100
0000
0000
0000
0000
0000
0000
0000
,
0001
0000
1000
0100
0000
0000
0010
0000
0000
0M01
1000
0000
10M1
0000
0000
0000
0000
0000
0000
0000
0000
0000
0000
0000
,
0000
0000
0000
0000
,
0000
0000
0000
0000
,
0000
0000
0000
00M0
0000
0000
0000
0000
;

//---------------dance-single - Loodee----------------
#NOTES:
     dance-single:
     Loodee:
     Hard:
     8:
     0.526486,0.576361,0.173528,0.140475,0.384240,446.000000,425.000000,21.000000,17.000000,1.000000,0.000000,0.526486,0.576361,0.173528,0.140475,0.384240,446.000000,425.000000,21.000000,17.000000,1.000000,0.000000:
0000
0000
0000
0000
,
1000
0000
0000
0001
0000
0010
0001
0000
0000
1000
0000
0000
0010
0000
0000
0000
0000
0010
0000
0000
0000
0100
0000
0000
,
0001
0000
0000
1000
0000
0100
1000
0000
0000
0010
0000
0000
0100
0000
0000
0000
0000
0100
0000
0000
0001
1000
0000
0000
,
0100
0000
0000
0010
0000
0100
1000
0000
0000
0001
0000
0000
0100
0000
0000
0000
0000
0100
0000
0000
0000
0010
0000
0000
,
0010
0000
0000
0010
0000
1000
0001
0000
0000
0010
0000
0000
0010
0000
0000
0010
0000
0001
1000
0000
0001
1000
0000
0000
,
1010
0000
0000
0010
0000
0100
0010
0000
0000
1000
0000
0000
0001
0000
0000
0000
0000
0001
0000
0000
0000
0010
0000
0000
,
0100
0000
0000
0010
0000
0001
0010
0000
0000
0001
0000
0000
0100
0000
0000
0000
0000
0010
1000
0000
0000
0001
0000
0000
,
1001
0000
0000
1000
0000
0100
0010
0000
0000
0100
0000
0000
0010
0000
0000
0000
0000
0010
0000
0000
0000
0001
0000
0000
,
0001
0000
0000
0001
0000
1000
0010
0000
0000
0100
0000
0000
0100
0000
0000
0100
0000
0001
1000
0000
0001
1000
0000
0000
,
1100
0100
0010
0001
0011
0010
0001
1000
,
1010
0010
0100
0010
0110
0100
0001
1000
,
1001
0000
0001
0010
0000
0000
0001
0000
0001
0010
0000
0000
0100
0000
0100
1000
0000
0000
0100
0000
0100
1000
0000
0000
,
0001
1000
0001
1000
0001
1000
0001
1000
0001
1000
0001
1000
0000
0000
0000
0000
0000
0000
1010
0000
0000
0010
0000
0000
,
0001
0000
0000
0010
0000
0000
1000
0000
0000
0001
0000
0000
0010
0000
0000
0100
0000
0000
0010
0000
0000
0001
0000
1000
,
0001
0000
0000
0100
0000
0100
0010
0000
0000
1000
0000
0000
0001
0000
0010
0001
0000
0000
1100
0000
0000
0100
0000
0000
,
0001
0000
0000
0100
0000
0000
0010
0000
0000
0100
0000
0000
1000
0000
0000
0010
0000
0000
0010
0000
0000
0100
0000
0001
,
0100
0000
0000
0010
0000
0000
0010
0000
0000
1000
0000
0001
0020
0000
0030
0110
0000
0000
0010
0000
0000
1000
0000
0000
,
0010
0000
0000
0001
0000
0000
1000
0000
0000
0001
0000
0000
0100
0000
0000
0010
0000
0000
1000
0000
0001
1000
0000
0000
,
0001
0000
0010
0001
0000
0000
1000
0000
0000
0400
0000
0000
0000
0000
0000
1300
0000
0000
0010
0000
0000
0001
0000
0000
,
0010
0000
0000
0100
0000
0000
0001
0000
0000
1000
0000
0000
0100
0000
0000
0010
0000
0000
0001
0000
0000
0100
0000
0010
,
1000
0000
0000
0100
0000
0000
0010
0000
0000
2000
0000
3000
0010
0000
0000
0100
0000
0000
1000
0000
0000
0001
0000
0000
,
0100
0000
0000
0000
0000
0000
0000
0000
0000
0000
0000
0000
0000
0000
0000
0000
0000
0000
0000
0000
0000
0000
0000
0000
0100
0000
0000
0000
0000
0000
0000
0000
0000
0000
0000
0000
0000
0000
0000
0000
0000
0000
0010
0000
0000
0000
0000
0000
0000
0000
0000
0000
0000
0000
0000
0000
0000
0000
0000
0000
0000
0000
0000
0000
0000
0000
0000
0000
0000
0000
0000
0000
0100
0000
0000
0000
0000
0000
0000
0000
0000
0000
0000
0000
0000
0000
0000
0000
0000
0000
0000
0000
0000
0000
0000
0000
0001
0000
0000
0000
0000
0000
0000
0000
0000
0000
0000
0000
0020
0000
0000
0000
0000
0000
0000
0000
0000
0000
0000
0000
0230
0000
0000
0000
0000
0000
0000
0000
0000
0000
0000
0000
0320
0000
0000
0000
0000
0000
0000
0000
0000
0000
0000
0000
0032
0000
0000
0000
0000
0000
0000
0000
0000
0000
0000
0000
1003
0000
0000
0000
0000
0000
0000
0020
0000
0000
0000
0000
0000
0000
0000
0000
0000
0000
0000
0000
0000
0000
0000
0000
1030
0000
0000
0000
0000
0000
0000
0000
0000
0000
0000
0000
,
0001
0000
0000
0000
0010
0000
0000
0000
0100
0000
0000
0000
0010
0000
0000
0000
0001
0000
0000
0000
0001
0000
0000
1000
0000
0000
0000
0000
0010
0000
0000
0000
,
0100
0000
0000
0000
0000
0000
0000
0000
0000
0000
0000
0000
0002
0000
0000
0000
0000
0000
0000
0000
0000
0000
0000
0000
0023
0000
0000
0000
0000
0000
0000
0000
0000
0000
0000
0000
0230
0000
0000
0000
0000
0000
0000
0000
0000
0000
0000
0000
2300
0000
0000
0000
0000
0000
0000
0000
0000
0000
0000
0000
3001
0000
0000
0000
0000
0000
0000
0200
0000
0000
0000
0000
0000
0000
0000
0000
0000
0000
0000
0000
0000
0000
0000
0000
0301
0000
0000
0000
0000
0000
0000
0000
0000
0000
0000
0000
1000
0000
0000
0000
0000
0000
0000
0000
0000
0000
0000
0000
0000
0000
0000
0000
0000
0000
0000
0000
0000
0000
0000
0000
0001
0000
0000
0000
0000
0000
0000
0000
0000
0000
0000
0000
0000
0000
0000
0000
0000
0000
0000
0000
0000
0000
0000
0000
0010
0000
0000
0000
0000
0000
0000
0000
0000
0000
0000
0000
0000
0000
0000
0000
0000
0000
0000
0000
0000
0000
0000
0000
0001
0000
0000
0000
0000
0000
0000
0000
0000
0000
0000
0000
0000
0000
0000
0000
0000
0000
0000
0000
0000
0000
0000
0000
,
1000
0000
0000
0000
0000
0000
0000
0000
0010
0000
0000
0000
0000
0200
0000
0000
0000
0000
0000
0000
0000
0000
0000
0000
0301
0000
0000
0000
0000
0000
0000
0000
0010
0000
0000
0000
0000
0000
0000
0000
0100
0000
0000
0000
0000
0000
0000
0000
0010
0000
0000
0000
0000
0000
0000
0000
0100
0000
0000
0000
0000
0000
0000
0000
,
1000
0000
0000
0000
0000
0000
0000
0000
0010
0000
0000
0000
0000
2000
0000
0000
0000
0000
0000
0000
0000
0000
0000
0000
3001
0000
0000
0000
0000
0000
0000
0000
0010
0000
0000
0000
0000
0000
0000
0000
0100
0000
0000
0000
0000
0000
0000
0000
0010
0000
0000
0000
0000
0000
0000
0000
0001
0000
0000
0000
0000
0000
0000
0000
,
1000
0000
0000
0000
0000
0000
0000
0000
0000
0000
0000
0000
0000
0000
0000
0000
0000
0000
0000
0000
0000
0000
0000
0000
0001
0000
0000
0000
0000
0000
0000
0000
0000
0000
0000
0000
0000
0000
0000
0200
0000
0000
0000
0000
0000
0000
0000
0000
0000
0000
0000
0000
0000
0000
0000
0000
0000
0000
0000
0000
0000
0000
0000
0000
0000
0000
0000
0000
0000
0000
0000
0000
0310
0000
0000
0000
0000
0000
0000
0000
0000
0000
0000
0000
0000
0000
0000
0000
0000
0000
0000
0000
0000
0000
0000
0000
1000
0000
0000
0000
0000
0000
0000
0000
0000
0000
0000
0000
0000
0000
0000
0000
0000
0000
0000
0000
0000
0000
0000
0000
0100
0000
0000
0000
0000
0000
0000
0000
0000
0000
0000
0000
0000
0000
0000
0000
0000
0000
0000
0000
0000
0000
0000
0000
0010
0000
0000
0000
0000
0000
0000
0000
0000
0000
0000
0000
0000
0000
0000
0000
0000
0000
0000
0000
0000
0000
0000
0000
0100
0000
0000
0000
0000
0000
0000
0000
0000
0000
0000
0000
0000
00M0
0000
0000
0000
0000
0000
0000
0000
0000
0000
0000
,
1000
0000
0000
0001
0000
0100
0001
0000
0000
0010
0000
0000
0100
0000
0000
0000
0000
0100
0000
0000
0000
1000
0000
0000
,
0010
0000
0000
0100
0000
0001
0100
0000
0000
0010
0000
0000
1000
0000
0000
0000
0000
0100
0010
0000
0000
1000
0000
0000
,
0010
0000
0000
0001
0000
0100
0010
0000
0000
1000
0000
0000
0001
0000
0000
0000
0000
0001
0000
0000
0000
0010
0000
0000
,
0010
0000
0000
0010
0000
0100
1000
0000
0000
0010
0000
0000
0010
0000
0000
0010
0000
1000
0001
0000
1000
0001
0000
0000
,
0011
0000
0000
0010
0000
0001
1000
0000
0000
0001
0000
0000
0100
0000
0000
0000
0000
0100
0000
0000
0000
0010
0000
0000
,
1000
0000
0000
0001
0000
1000
0001
0000
0000
0010
0000
0000
0001
0000
0000
0100
0000
0010
0100
0000
0000
1000
0000
0000
,
0100
0000
0000
0010
0000
0100
0010
0000
0000
1000
0000
0000
0001
0000
0000
0000
0000
0001
0000
0000
0000
0010
0000
0000
,
0010
0000
0000
0010
0000
0001
1000
0000
0000
0010
0000
0000
0010
0000
0000
0010
0000
0100
0001
0000
0100
0001
0000
0000
,
1001
1000
0100
0010
0011
0001
0100
0010
,
1010
1000
0001
1000
1100
0100
0010
0001
,
1001
0000
1000
0010
0000
0000
1000
0000
1000
0010
0000
0000
0100
0000
0100
0001
0000
0000
0100
0000
0100
0001
0000
0000
,
1000
0100
1000
0100
1000
0100
1000
0100
1000
0100
1000
0100
0000
0000
0000
0000
0000
0000
0011
0000
0000
0010
0000
0000
,
1000
0000
0000
0010
0000
0000
0100
0000
0000
1000
0000
0000
0010
0000
0000
0001
0000
0000
0010
0000
0000
0100
0000
0010
,
0100
0000
0000
0001
0000
0100
0001
0000
0000
1000
0000
0000
0100
0000
1000
0100
0000
0000
0110
0000
0000
0010
0000
0000
,
1000
0000
0000
0010
0000
0000
0001
0000
0000
0100
0000
0000
0010
0000
0000
1000
0000
0000
1000
0000
0000
0001
0000
0001
,
1000
0000
0000
0001
0000
0000
0001
0000
0000
0100
0000
0010
0200
0300
0000
0110
0000
0000
0010
0000
0000
0001
0000
0000
,
0010
0000
0000
1000
0000
0000
0100
0000
0000
0001
0000
0000
0100
0000
0000
0010
0000
0000
0001
0000
0010
0001
0000
0000
,
1000
0000
0001
1000
0000
0000
0010
0000
0000
0100
0000
0001
0100
0000
0000
0110
0000
0000
0010
0000
0000
0001
0000
0000
,
0010
0100
0001
0010
0001
1000
0010
0001
,
0010
0000
0000
0100
0000
0000
0100
0000
0000
0002
0000
0003
1001
0000
0000
0000
0000
0000
0000
0000
0000
0000
0000
0000
;

//---------------dance-single - Loodee----------------
#NOTES:
     dance-single:
     Loodee:
     Medium:
     6:
     0.400177,0.384240,0.314003,0.115685,0.033053,339.000000,301.000000,38.000000,14.000000,0.000000,0.000000,0.400177,0.384240,0.314003,0.115685,0.033053,339.000000,301.000000,38.000000,14.000000,0.000000,0.000000:
0000
0000
0000
0000
,
0001
0000
0000
1000
0000
0000
1000
0000
0000
0100
0000
0000
0010
0000
0000
0000
0000
0010
0000
0000
0000
0001
0000
0000
,
0100
0010
0010
1000
0001
0000
0001
0010
,
0100
0000
0000
0010
0000
0000
0010
0000
0000
0001
0000
0000
1000
0000
0000
0000
0000
1000
0000
0000
0000
0010
0000
0000
,
0010
0010
1000
0010
0010
0010
1001
0000
,
1100
0000
0000
0100
0000
0000
0001
0000
0000
0100
0000
0000
0010
0000
0000
0000
0000
0010
0000
0000
0000
0001
0000
0000
,
1000
0010
0010
0100
0001
0000
0010
1000
,
0010
0000
0000
0100
0000
0000
0100
0000
0000
1000
0000
0000
0001
0000
0000
0000
0000
0001
0000
0000
0000
0100
0000
0000
,
0100
0100
0010
0100
0100
0100
1000
0100
,
0002
0013
0010
0010
0200
1300
1000
1000
,
0020
0130
0100
0100
0002
1003
1000
1000
,
0200
0301
0200
1300
0020
0031
0020
1030
,
0004
0000
0000
0000
0000
0000
0000
0000
0000
0000
0000
0003
0000
0000
0000
0000
0000
0000
0011
0000
0000
0000
0000
0000
,
0101
0001
1000
0000
0100
0001
0100
0010
,
1000
0010
0001
0000
1000
0010
0110
0000
,
1010
1000
0001
0000
0001
0010
1000
0010
,
0010
0000
0100
0000
0010
0000
0010
0000
0002
0003
1001
0000
0000
0000
1010
0000
,
0010
0100
0000
0010
0001
0010
0100
1000
,
0100
0001
0000
0010
0010
0110
0000
1100
,
1000
0001
0000
0010
1000
0010
0100
0001
,
0100
0000
0010
0000
0001
0000
0200
0300
0110
0000
0000
0000
0010
0000
1000
0000
,
0100
0000
0000
0000
0010
0000
0000
0000
0100
1000
0100
1000
0002
0000
0000
0003
,
0101
0000
0100
0001
1000
0000
0100
0000
,
0010
0001
0010
0100
2000
0000
0000
3000
1001
0000
0001
0000
0100
0000
0010
0000
,
0001
0010
0100
0001
1000
0100
1000
0010
,
0100
0001
0010
0001
1000
0010
1000
0100
,
0001
0100
1000
0001
0100
0010
0100
0001
,
1001
0000
0101
0100
0010
0000
0100
1000
,
0100
0010
0001
0010
0100
0000
0001
1000
,
1001
0000
0011
0010
0100
0000
0010
0001
,
0001
0001
1000
0001
0001
0100
1000
0100
,
0010
0000
1010
1000
0001
0000
0010
1000
,
0010
0100
0001
0100
1000
0000
0010
0001
,
0010
0000
1010
0010
1000
0000
0001
0010
,
0010
0010
0100
0010
0010
0100
0001
0100
,
0110
0000
1001
0000
,
0101
0000
1010
0000
,
1001
1100
0101
0110
,
1001
1001
0011
0011
0000
0000
1010
0000
,
0110
0100
0010
0000
1000
0001
0010
0100
,
0001
0100
1000
0000
0001
1000
1010
0000
,
0101
0001
1000
0000
0100
0010
0010
0010
,
0100
0010
0010
0010
2000
3010
0000
0110
,
0100
1000
0000
0001
1000
0010
0100
1000
,
0100
0001
0000
0010
0100
1100
0000
1001
,
1000
0010
0000
0010
0100
0001
0010
1000
,
0010
0100
0100
0002
0103
0000
0000
0000
;

//---------------dance-single - Loodee----------------
#NOTES:
     dance-single:
     Loodee:
     Easy:
     3:
     0.129851,0.134484,0.041316,0.082632,0.000000,110.000000,105.000000,5.000000,10.000000,0.000000,0.000000,0.129851,0.134484,0.041316,0.082632,0.000000,110.000000,105.000000,5.000000,10.000000,0.000000,0.000000:
0000
0000
0000
0000
,
0001
0000
0001
0000
,
1000
0000
1000
0000
,
0001
0000
0001
0000
,
0100
0000
0100
0000
,
0100
0000
0010
0000
,
1000
0000
0001
0000
,
0010
0000
0100
0000
,
0010
0000
0010
0000
,
0001
0000
0001
0000
,
1000
0000
1000
0000
,
0001
1000
0001
1000
,
0200
0000
0000
0000
0000
0300
0000
0000
0000
1001
0000
0000
,
0000
0001
0001
0010
,
0000
0100
0000
0010
,
0000
0100
0100
1000
,
0000
0000
1000
0000
0000
1001
0000
0000
,
0000
0001
0000
0001
0000
1000
0000
0000
,
0000
0200
0000
0000
0000
1300
0000
0000
,
0000
0010
0000
0010
0000
0100
0000
0000
,
0000
0001
0000
0000
1001
0000
0000
0000
,
1000
0000
0200
0000
,
1300
0000
0001
0000
,
0200
0000
0310
0000
,
1000
0000
0010
0000
,
0100
0000
0001
0000
,
0010
0000
0001
0000
,
1000
0000
1000
0000
,
0010
0000
0010
0000
,
0100
0000
0100
0000
,
0001
0000
0001
0000
,
0001
0000
0001
0000
,
0010
0000
0010
0000
,
0001
0000
0001
0000
,
1000
0000
1000
0000
,
2000
0000
3020
0000
,
0230
0000
0302
0000
,
1003
1000
0001
0001
,
0020
0000
0030
0110
,
0000
1000
1000
0001
,
0000
0100
0000
0010
,
0000
0100
0100
0001
,
0000
0000
0001
0000
0000
0110
0000
0000
,
0000
0001
0000
0001
0000
1000
0000
0000
,
0000
0100
0000
0000
0000
1000
0000
0000
,
0000
0010
0000
0010
0000
1000
0000
0100
,
0000
0200
0000
0000
0310
0000
0000
0000
;

//---------------dance-single - Loodee----------------
#NOTES:
     dance-single:
     Loodee:
     Beginner:
     1:
     0.060204,0.096060,0.024790,0.033053,0.000000,51.000000,48.000000,3.000000,4.000000,0.000000,0.000000,0.060204,0.096060,0.024790,0.033053,0.000000,51.000000,48.000000,3.000000,4.000000,0.000000,0.000000:
// measure 0
0000
0000
0000
0000
,  // measure 1
0000
0000
0000
0000
,  // measure 2
0000
0000
0000
0000
,  // measure 3
0000
0000
0000
0000
,  // measure 4
0000
0000
0000
0000
,  // measure 5
1000
0000
0000
0000
,  // measure 6
0001
0000
0000
0000
,  // measure 7
1000
0000
0000
0000
,  // measure 8
0100
0000
0100
0000
,  // measure 9
0100
0000
0000
0000
,  // measure 10
0100
0000
0000
0000
,  // measure 11
0010
0000
0010
0000
,  // measure 12
0020
0000
0030
1001
,  // measure 13
0000
0000
0000
0001
,  // measure 14
0000
0000
0000
0010
,  // measure 15
0000
0000
0000
0001
,  // measure 16
0000
0000
0000
0000
0000
1000
0000
0000
,  // measure 17
0000
0000
0000
0000
0000
0010
0000
0000
,  // measure 18
0000
0000
0000
0000
0000
1000
0000
0000
,  // measure 19
0000
0000
0000
0000
0000
0001
0000
0000
,  // measure 20
0000
0001
0000
0000
0001
0000
0000
0000
,  // measure 21
0000
0000
0002
0000
,  // measure 22
0003
0000
0000
0000
,  // measure 23
2000
0000
3000
0000
,  // measure 24
0000
0000
0010
0000
,  // measure 25
0000
0000
0100
0000
,  // measure 26
0000
0000
0010
0000
,  // measure 27
1000
0000
0000
0000
,  // measure 28
0001
0000
0000
0000
,  // measure 29
1000
0000
0000
0000
,  // measure 30
0010
0000
0010
0000
,  // measure 31
0010
0000
0000
0000
,  // measure 32
1000
0000
0000
0000
,  // measure 33
0001
0000
0000
0000
,  // measure 34
0010
0000
0000
0000
,  // measure 35
0001
0000
0000
0000
,  // measure 36
0001
0000
0000
0000
,  // measure 37
1000
0000
1000
0000
,  // measure 38
2000
0000
3000
1001
,  // measure 39
0000
0000
0000
0001
,  // measure 40
0000
0000
0000
1000
,  // measure 41
0000
0000
0000
0001
,  // measure 42
0000
0000
0000
0000
0000
0100
0000
0000
,  // measure 43
0000
0000
0000
0000
0000
0010
0000
0000
,  // measure 44
0000
0000
0000
0000
0000
0100
0000
0000
,  // measure 45
0000
0000
0000
0000
0000
0001
0000
0000
,  // measure 46
0000
0000
1001
0000
;
