#TITLE:I Hold Still;
#SUBTITLE:(feat. Slushii) [Goshfather Remix];
#ARTIST:Jauz x Crankdat;
#TITLETRANSLIT:;
#SUBTITLETRANSLIT:;
#ARTISTTRANSLIT:;
#GENRE:EDM;
#CREDIT:Feraligatr;
#BANNER:I Hold Still-bn.png;
#BACKGROUND:I Hold Still-bg.png;
#LYRICSPATH:;
#CDTITLE:FeraligatrV4-cd.png;
#MUSIC:Jauz x Crankdat ft Slushii - Hold Still [Goshfather Remix].ogg;
#OFFSET:0.020000;
#SAMPLESTART:30.216000;
#SAMPLELENGTH:15.118000;
#SELECTABLE:YES;
#DISPLAYBPM:64.000000:127.000000;
#BPMS:0.000000=126.999992
,78.000000=63.499996
,79.000000=126.999992
,91.000000=63.499996
,93.000000=126.999992
,107.000000=63.499996
,108.000000=126.999992
,124.000000=63.499996
,140.000000=126.999992
,172.000000=63.499996
,179.500000=300.000000
,180.250000=195.000000
,180.500000=150.000000
,180.750000=103.000000
,181.000000=126.999992
,195.000000=63.499996
,196.000000=126.999992
,208.000000=63.499996
,210.000000=126.999992
,224.000000=63.499996
,225.000000=126.999992
,237.000000=63.499996
,239.000000=126.999992
;
#STOPS:
;
#BGCHANGES:;
#KEYSOUNDS:;
#ATTACKS:;

//---------------dance-single - Feraligatr----------------
#NOTES:
     dance-single:
     Feraligatr:
     Challenge:
     10:
     0.604233,0.703241,0.244444,0.385185,0.607407,571.000000,538.000000,33.000000,52.000000,61.000000,0.000000,0.604233,0.703241,0.244444,0.385185,0.607407,571.000000,538.000000,33.000000,52.000000,61.000000,0.000000:
// measure 0
0000
0000
0000
0000
,  // measure 1
0000
0000
0000
0000
,  // measure 2
0000
0000
0000
0000
,  // measure 3
0000
0000
0000
0000
,  // measure 4
0001
0000
1000
1000
0100
0000
0010
0001
,  // measure 5
1000
0020
0130
0001
,  // measure 6
1000
0200
0310
0001
,  // measure 7
1000
0000
0020
0000
0130
0000
0100
0001
,  // measure 8
1000
0000
0100
0010
0001
0000
1001
0000
,  // measure 9
1000
0000
0010
0100
0001
0000
0101
1001
,  // measure 10
1000
0000
0100
0010
0001
0000
1001
0000
,  // measure 11
1000
0000
0010
1000
0001
0000
0011
1001
,  // measure 12
0001
1000
0010
0100
0001
1000
0100
1000
,  // measure 13
0001
0100
0001
1000
0100
0010
0001
1000
,  // measure 14
0010
0100
0001
1000
0100
1000
0001
0100
0010
1000
0001
0100
0001
1000
0100
1000
,  // measure 15
001M
0000
0000
0000
0000
0000
0000
0000
001M
000M
0000
0000
0000
0000
0000
0000
001M
000M
000M
0000
0100
0000
0000
0000
0001
0000
0000
0000
0010
0000
0000
0000
,  // measure 16
0001
0100
0010
0100
2000
0000
3100
0000
0001
0100
0010
0100
2000
0000
3100
0000
,  // measure 17
0001
0100
0010
0100
0001
0000
1000
0000
0001
0010
0100
0010
0001
0100
0010
0000
,  // measure 18
1000
0100
0010
0100
0002
0000
0103
0000
1000
0100
0010
0100
0002
0000
0103
0000
,  // measure 19
1000
0000
0100
0000
0010
0000
0100
0000
1000
0000
0000
0000
0001
0000
0000
0000
1MM0
0010
0000
0010
0100
0000
0100
0001
1MM0
0000
0010
0000
0100
0000
0010
0000
,  // measure 20
0002
0000
0013
0000
1000
0010
0100
0010
0002
0000
0013
0000
1000
0010
0100
0010
,  // measure 21
1000
0000
0001
0000
0011
0000
0000
0000
0011
0000
0000
0000
0001
1000
0100
0000
,  // measure 22
0M01
1000
0100
0000
0M01
1000
0100
0000
0M01
1000
0100
0000
M12M
0000
0032
0000
,  // measure 23
1003
0000
0000
0000
0010
0000
0100
0001
2MM1
0000
0000
0000
3200
0000
0000
0000
0301
0000
0100
0000
0010
0000
0001
0000
2000
0000
0000
0000
3200
0000
0000
0000
,  // measure 24
0301
0100
0010
0001
2000
0000
3100
0010
0100
1000
0001
0100
0010
1000
0100
0010
,  // measure 25
0001
0100
0010
0000
1002
0000
0203
0000
1300
0100
0010
1000
0002
0000
0203
0000
,  // measure 26
1300
0000
0100
0000
0010
0000
1000
0000
0002
0000
0000
0000
0103
0000
0010
0000
1000
0000
0001
0000
0010
0000
0001
0000
1MM0
0010
0000
0010
0100
0000
0100
0001
,  // measure 27
1MM0
0100
0010
0100
0002
0000
0103
0000
1000
0100
0010
0100
0002
0000
0103
0000
,  // measure 28
1000
0100
0010
0100
1000
0000
0001
0000
0101
0000
0000
0000
0101
0000
0000
0000
,  // measure 29
0110
0000
0000
0010
1000
0000
1001
0000
0000
0000
0001
0000
0011
0000
0000
0001
,  // measure 30
1000
0000
0000
0000
0000
0000
0001
0000
0000
0000
0000
0000
1000
0000
0000
0000
0000
0000
0001
0000
1000
0000
0001
0000
0100
0000
0000
0010
0000
0000
1000
0000
0000
0001
0000
0000
1000
0000
0000
0000
0000
0000
0100
0000
0000
0000
0000
0000
,  // measure 31
M11M
0010
0000
0000
0001
0100
0000
0000
,  // measure 32
0010
1000
0000
0010
0100
0002
1003
0100
,  // measure 33
0010
0001
0000
0000
1000
0010
0000
0000
,  // measure 34
0100
0000
0000
0000
0001
0000
0000
0000
0000
0000
0000
0000
0100
0000
0000
0000
0010
0000
0000
0000
2000
0000
0000
0000
3001
1000
0100
1000
0001
0100
0010
1000
,  // measure 35
01MM
0000
0010
0001
1000
0000
1010
0000
,  // measure 36
0010
0000
1000
0001
0010
0000
0110
1100
,  // measure 37
1000
0000
0001
0100
0010
0000
1010
0000
,  // measure 38
1000
0000
0001
1000
0100
0000
0110
0011
,  // measure 39
0010
0100
1000
0001
0100
0001
1000
0100
,  // measure 40
1000
0001
0100
0010
1000
0001
0010
0100
,  // measure 41
1000
0001
1000
0010
0100
0001
1000
0100
1000
0001
0100
0010
1000
0001
0100
0001
,  // measure 42
M010
0000
0000
0000
0000
0000
0000
0000
M010
M000
0000
0000
0000
0000
0000
0000
M010
M000
M000
0000
0100
0000
0000
0000
1000
0000
0000
0000
0010
0000
0000
0000
,  // measure 43
02M2
0000
0303
0000
00M0
0000
0000
0000
00M0
1000
0000
0100
0000
0010
0000
0001
,  // measure 44
1000
0010
1000
0001
1000
0100
1000
0001
1000
0010
0200
0000
0301
1000
1MM1
0000
,  // measure 45
0000
0000
0000
0000
0001
0010
0100
0010
2000
0000
3010
0000
0001
0010
0100
0010
,  // measure 46
2000
0000
3010
0000
0001
0010
0100
0010
0001
0000
1000
0000
0010
1000
0001
0010
,  // measure 47
0100
1000
0010
0100
0001
0100
0010
0100
2000
0000
3100
0000
0001
0100
0010
0100
,  // measure 48
2000
0000
0000
0000
3100
0000
0000
0000
0001
0000
0100
0000
0010
0000
0100
0000
0001
0000
0000
0000
1000
0000
0000
0000
01MM
0010
0000
0010
0001
0000
0001
1000
,  // measure 49
0MM1
0100
0010
0100
2000
0000
3100
0000
0001
0100
0010
0100
2000
0000
3100
0000
,  // measure 50
0001
0100
0010
0100
0001
0000
1000
0000
1100
0000
0000
0000
1100
0000
0000
0000
,  // measure 51
1000
0001
0100
0000
1M00
0001
0100
0000
1M00
0001
0100
0000
1M00
0001
0100
0000
,  // measure 52
M12M
0000
0000
0000
2030
0000
0000
0000
3001
0000
0000
0000
0010
0000
0001
1000
1MM2
0000
0000
0000
0023
0000
0000
0000
1030
0000
0010
0000
0100
0000
1000
0000
,  // measure 53
0002
0000
0023
0000
1030
0010
0100
1000
0002
0000
0013
0100
1000
0001
1000
0010
,  // measure 54
0100
0001
0100
0001
1000
0100
0010
0001
2000
0000
3020
0000
0031
0010
0100
0001
,  // measure 55
2000
0000
3020
0000
0031
0010
0100
0001
2000
0000
3010
0100
0001
1000
0100
0010
,  // measure 56
M10M
1000
0004
0000
1MM3
0010
0100
0010
0002
0000
0013
0000
1000
0010
0100
0010
,  // measure 57
0002
0000
0013
0000
1000
0010
0100
0010
1000
0000
0001
0000
0011
0000
0000
0000
,  // measure 58
0011
0000
0000
0000
0001
1000
0100
0000
0M01
1000
0100
0000
0M01
1000
0100
0000
,  // measure 59
0M01
0000
1000
0000
0100
0000
0000
0000
M12M
0000
0000
0000
0032
0000
0000
0000
1003
0000
0000
0000
0010
0000
0000
1000
2MM2
0000
0000
0000
0000
0000
0000
0000
,  // measure 60
3003
0M00
0000
0M00
,  // measure 61
0000
0M00
0000
0000
;

//---------------dance-single - Feraligatr----------------
#NOTES:
     dance-single:
     Feraligatr SH:
     Hard:
     8:
     0.466667,0.533333,0.200000,0.251852,0.203704,441.000000,414.000000,27.000000,34.000000,19.000000,0.000000,0.466667,0.533333,0.200000,0.251852,0.203704,441.000000,414.000000,27.000000,34.000000,19.000000,0.000000:
// measure 0
0000
0000
0000
0000
,  // measure 1
0000
0000
0000
0000
,  // measure 2
0000
0000
0000
0000
,  // measure 3
0000
0000
0000
0000
,  // measure 4
0001
0000
1000
0010
1000
0000
0001
0010
,  // measure 5
0000
0200
1300
0001
,  // measure 6
0000
2000
3100
0010
,  // measure 7
0000
0002
1003
1000
,  // measure 8
1010
0000
0010
0100
0001
0000
1001
0000
,  // measure 9
1000
0000
0100
0010
0001
0000
1001
1001
,  // measure 10
1000
0000
0010
0100
0001
0000
0101
0000
,  // measure 11
1000
0000
0001
0010
0100
0000
1100
1100
,  // measure 12
0001
0100
0001
0100
0010
1000
0010
1000
,  // measure 13
0001
0010
0001
0010
0100
1000
0100
1000
,  // measure 14
0004
0403
0340
4030
,  // measure 15
3100
0000
0100
0000
0100
0010
0001
0100
,  // measure 16
0001
1000
0001
0000
0010
0000
0100
0000
1000
0001
1000
0000
0010
0000
0100
0000
,  // measure 17
0001
1000
0001
0000
0010
0000
0100
0000
2100
0000
0000
0000
3001
0100
0010
0000
,  // measure 18
1000
0001
1000
0000
0100
0000
0010
0000
0001
1000
0001
0000
0100
0000
0010
0000
,  // measure 19
1000
0001
1000
0000
0100
0000
0010
0000
M002
0000
0000
0000
M103
0010
0100
0000
,  // measure 20
0001
0000
1000
0000
0100
0010
0100
0000
1000
0000
0001
0000
0100
0010
0100
0000
,  // measure 21
0001
0000
1000
0000
1100
0000
0000
0000
1100
0000
0000
0000
0001
0100
0001
0000
,  // measure 22
1000
0100
1000
0000
0001
0100
0001
0000
1000
0100
1000
0000
1M02
0000
0023
0000
,  // measure 23
0130
0000
0000
0000
1000
0000
0001
0100
M020
0000
0000
0000
1030
0000
0000
0000
0001
0000
0000
0000
0010
0000
0000
0000
0200
0000
0000
0000
1300
0000
0000
0000
,  // measure 24
0001
0000
0100
0000
0020
0000
1030
0000
0001
0000
0010
0000
0100
1000
0100
0000
,  // measure 25
1000
0010
0100
0000
0002
0000
1003
0000
0100
0000
0010
0000
0002
0000
1003
0000
,  // measure 26
0010
0100
0002
1003
0100
0010
0M02
0000
,  // measure 27
1M03
0010
1000
0000
0001
0000
0010
0000
0100
1000
0100
0000
0010
0000
0001
0000
,  // measure 28
1000
0010
1000
0000
0001
0000
0010
0000
0110
0000
0000
0000
0110
0000
0000
0000
,  // measure 29
0100
0100
1000
0000
0001
0001
0100
0000
,  // measure 30
0010
0000
1000
0000
0010
0000
1000
0000
0001
0010
0001
0010
0100
0000
0000
0000
,  // measure 31
100M
0001
0000
0000
1000
0010
0000
0000
,  // measure 32
1000
0001
0000
0010
0100
2000
3001
0100
,  // measure 33
0010
1000
0000
0000
0010
0100
0000
0000
,  // measure 34
0010
0000
1000
0000
0000
0000
0001
0000
0010
0000
0200
0000
1300
0000
0001
0100
,  // measure 35
M010
0000
1000
0001
0010
0000
0110
0000
,  // measure 36
0100
0000
1000
0001
0100
0000
0110
0110
,  // measure 37
0010
0000
0100
0001
1000
0000
1100
0000
,  // measure 38
0100
0000
0010
0001
1000
0000
1001
1001
,  // measure 39
1000
0010
1000
0010
0100
0001
0100
0001
,  // measure 40
1000
0100
1000
0100
0010
0001
0010
0001
,  // measure 41
4000
3040
0430
0304
,  // measure 42
0013
0000
0010
0000
0010
0100
1000
0010
,  // measure 43
022M
0000
0330
0000
0000
0000
0000
0000
0000
1000
0000
0001
0000
1000
0000
0001
,  // measure 44
0040
0000
0000
0000
0000
0230
1300
0MM1
,  // measure 45
0000
0000
0000
0000
1000
0100
1000
0000
0001
0000
0100
0000
0010
1000
0010
0000
,  // measure 46
0100
0000
0001
0000
1000
0100
1000
0000
0001
0000
0100
0000
0120
0000
0000
0000
,  // measure 47
1030
0000
0001
0010
0100
1000
0100
0000
0010
0000
0001
0000
1000
0010
1000
0000
,  // measure 48
0001
0000
0010
0000
0100
1000
0100
0000
0010
0000
0001
0000
2M00
0000
0000
0000
,  // measure 49
30M1
0100
0001
0000
1000
0000
0100
0000
0010
0001
0010
0000
0100
0000
1000
0000
,  // measure 50
0001
0100
0001
0000
1000
0000
0100
0000
0110
0000
0000
0000
0110
0000
0000
0000
,  // measure 51
0001
0010
0001
0000
1000
0010
1000
0000
0001
0010
0001
0000
1000
0010
1000
0000
,  // measure 52
0M02
0000
0000
0000
0023
0000
0000
0000
0130
0000
0000
0000
1000
0000
0001
1000
0M20
0000
0000
0000
0130
0000
0000
0000
0001
0000
0000
0000
1000
0000
0000
0000
,  // measure 53
0200
0310
0001
1000
0200
0310
0001
1000
,  // measure 54
0001
0100
0001
0100
0010
1000
0010
0000
2000
0000
3100
0000
0010
0000
0001
0000
,  // measure 55
2000
3010
0100
0001
2000
3100
0010
0001
,  // measure 56
1M00
0010
0200
0000
M301
1000
0001
0000
0010
0000
0100
0000
1000
0001
1000
0000
,  // measure 57
0010
0000
0100
0000
0001
1000
0001
0000
0010
0000
0100
0000
1100
0000
0000
0000
,  // measure 58
1100
0000
0000
0000
0001
0100
0001
0000
1000
0100
1000
0000
0001
0100
0001
0000
,  // measure 59
1000
0100
1000
0000
10M2
0000
0203
0000
0310
0000
1000
0000
2M02
0000
0000
0000
,  // measure 60
3003
0000
0000
0000
;

//---------------dance-single - Feraligatr----------------
#NOTES:
     dance-single:
     Feraligatr SM:
     Medium:
     6:
     0.297354,0.333333,0.066667,0.229630,0.000000,281.000000,272.000000,9.000000,31.000000,0.000000,0.000000,0.297354,0.333333,0.066667,0.229630,0.000000,281.000000,272.000000,9.000000,31.000000,0.000000,0.000000:
// measure 0
0000
0000
0000
0000
,  // measure 1
0000
0000
0000
0000
,  // measure 2
0000
0000
0000
0000
,  // measure 3
0000
0000
0000
0000
,  // measure 4
1000
0000
0010
0000
0100
0000
0001
1000
,  // measure 5
0000
0002
0013
0100
,  // measure 6
0000
2000
3010
0100
,  // measure 7
0000
0002
0013
0010
,  // measure 8
0100
0000
0000
1000
0000
0000
1001
0000
,  // measure 9
0001
0000
0000
0100
0000
0000
0010
0010
,  // measure 10
1000
0000
0000
0001
0000
0000
0011
0000
,  // measure 11
0010
0000
0000
0100
0000
0000
1000
1000
,  // measure 12
0001
0100
0001
0000
1000
0100
1000
0000
,  // measure 13
0001
0100
0001
0000
1000
0100
1000
0000
,  // measure 14
0001
0001
0100
0100
0010
0010
1000
1000
,  // measure 15
0001
0001
0001
0000
,  // measure 16
0001
0100
0010
0000
1000
0100
0010
0000
,  // measure 17
0001
0100
0010
1000
0002
0000
0023
0000
,  // measure 18
0031
0010
0100
0000
1000
0010
0100
0000
,  // measure 19
0001
0010
0100
1000
0002
0000
0103
0010
,  // measure 20
1000
0000
0100
0010
0001
0000
0100
0010
,  // measure 21
1000
0001
0010
0000
0010
0000
0100
1000
,  // measure 22
0100
1000
0100
1000
0100
1000
0002
0000
,  // measure 23
0000
0003
0101
0000
1000
0100
0010
0000
,  // measure 24
0001
0100
0010
0000
1000
0100
0020
0000
,  // measure 25
0032
0000
1003
0000
0001
0100
0010
0000
,  // measure 26
1000
0100
0010
0000
0001
0100
0020
0000
,  // measure 27
1030
0100
0010
0000
0001
0100
0010
0000
,  // measure 28
1000
0100
0010
0100
1000
0000
1000
0000
,  // measure 29
0001
0100
0001
0100
,  // measure 30
0001
1000
0001
1000
0200
0000
0310
0000
,  // measure 31
0002
0003
0000
0000
0200
0300
0000
0000
,  // measure 32
0020
0030
0000
2000
3000
0000
0000
0000
,  // measure 33
0002
0003
0000
0000
0200
0300
0000
0000
,  // measure 34
0020
0030
0000
2000
3000
0000
0000
0000
,  // measure 35
0001
0000
0000
0010
0000
0000
0110
0000
,  // measure 36
1000
0000
0000
0010
0000
0000
0100
0100
,  // measure 37
0001
0000
0000
1000
0000
0000
1100
0000
,  // measure 38
0100
0000
0000
0010
0000
0000
0001
0001
,  // measure 39
1000
0010
1000
0000
0001
0010
0001
0000
,  // measure 40
1000
0010
1000
0000
0001
0010
0001
0000
,  // measure 41
1000
1000
0010
0010
0100
0100
0001
0001
,  // measure 42
1000
1000
1000
0000
,  // measure 43
2002
3003
0000
0000
0000
0000
0000
0000
,  // measure 44
0000
0000
0000
0000
0000
0000
0000
1001
,  // measure 45
0000
0000
1000
0010
0100
0000
0001
0010
,  // measure 46
0100
0000
1000
0010
0100
0001
2000
0000
,  // measure 47
3200
0000
1300
0100
0010
0000
0001
0100
,  // measure 48
0010
0000
1000
0100
0010
0001
2000
0000
,  // measure 49
3010
0100
0001
0000
0010
0100
1000
0000
,  // measure 50
0010
0100
0001
1000
0100
0000
0100
0000
,  // measure 51
0010
0001
0010
0001
0010
0001
0010
0001
,  // measure 52
2000
0000
0000
3000
1010
0000
0001
0010
,  // measure 53
0100
0000
1000
0010
0100
0000
0001
0010
,  // measure 54
0200
0000
2300
0000
3001
0000
1000
0010
,  // measure 55
0100
0000
0001
0010
0100
0000
1000
0010
,  // measure 56
0200
0000
0301
0010
0100
0000
1000
0010
,  // measure 57
0100
0000
0001
0010
0100
0010
0001
0000
,  // measure 58
0001
0000
1000
0010
1000
0010
1000
0010
,  // measure 59
1000
0010
0200
0000
0000
0300
2002
0000
,  // measure 60
3003
0000
0000
0000
;

//---------------dance-single - Feraligatr----------------
#NOTES:
     dance-single:
     Feraligatr SE:
     Easy:
     4:
     0.194709,0.222222,0.059259,0.103704,0.000000,184.000000,176.000000,8.000000,14.000000,0.000000,0.000000,0.194709,0.222222,0.059259,0.103704,0.000000,184.000000,176.000000,8.000000,14.000000,0.000000,0.000000:
0000
0000
0000
0000
,
0000
0000
0000
0000
,
0000
0000
0000
0000
,
0000
0000
0000
0000
,
1000
0000
1000
0000
,
0001
0000
0001
0000
,
0100
0000
0100
0000
,
0010
0000
0010
0000
,
1000
0000
0000
1001
,
0001
0000
0000
0000
0000
0000
0010
0010
,
0100
0000
0000
1100
,
1000
0000
0000
0000
0000
0000
0001
0001
,
0100
0100
0010
0010
,
1000
1000
0001
0001
,
0020
0000
0000
0000
,
0130
0100
0100
0000
,
1001
1000
0010
0100
,
0010
1000
0001
0010
,
0100
0010
0001
1000
,
0010
0100
0002
1003
,
0100
0010
0100
1000
,
0001
0100
0100
0010
,
0010
0010
0010
2000
,
0000
3001
0010
0100
,
0010
0001
1000
0010
,
0100
0010
1000
0001
,
0010
0100
1000
0002
,
0103
0010
0100
0001
,
1000
0100
0010
0010
,
0001
0001
0001
0001
,
1000
1000
0020
0030
,
0100
0000
0001
0000
,
1000
0000
0000
0100
0000
0000
0000
0000
,
0010
0000
0001
0000
,
1000
0000
0000
0010
0000
0000
0000
0000
,
0100
0000
0000
1001
,
1000
0000
0000
0000
0000
0000
0100
0100
,
0010
0000
0000
0011
,
0001
0000
0000
0000
0000
0000
1000
1000
,
0010
0010
0100
0100
,
0001
0001
1000
1000
,
0200
0000
0000
0000
,
0310
0010
0010
0000
,
2002
3003
0000
0000
0000
0000
0000
0000
,
0000
0000
0000
0000
,
0000
1001
0001
0100
,
0010
0100
0001
1000
,
0100
0010
0100
1000
,
0001
0100
0010
2000
,
3001
0010
0100
0010
,
0001
1000
0010
0010
,
0100
0100
0100
0100
,
0002
0000
1003
0100
,
0010
0100
1000
0001
,
0100
0010
0100
0001
,
1000
0100
0010
0001
,
2000
3010
0100
0010
,
1000
0001
0010
0100
,
0100
1000
1000
1000
,
1000
0000
0002
0000
0000
0003
2002
0000
,
3003
0000
0000
0000
;

//---------------dance-single - Feraligatr----------------
#NOTES:
     dance-single:
     Feraligatr SN:
     Beginner:
     1:
     0.113228,0.200000,0.022222,0.096296,0.000000,107.000000,104.000000,3.000000,13.000000,0.000000,0.000000,0.113228,0.200000,0.022222,0.096296,0.000000,107.000000,104.000000,3.000000,13.000000,0.000000,0.000000:
0000
0000
0000
0000
,
0000
0000
0000
0000
,
0000
0000
0000
0000
,
0000
0000
0000
0000
,
1000
0000
0000
0000
,
0001
0000
0000
0000
,
0100
0000
0000
0000
,
0010
0000
0000
0000
,
1000
0000
1000
0000
,
0001
0000
0001
0000
,
0010
0000
0010
0000
,
0100
0000
0100
0000
,
1000
1000
0001
0001
,
0100
0100
0010
0010
,
2000
0000
0000
0000
,
3000
0000
0000
0000
,
1001
0000
1000
0000
,
0001
0000
0100
0000
,
0010
0000
0100
0000
,
0001
0000
2000
3100
,
0000
0010
0000
0100
,
0000
1000
0000
0001
,
0000
0100
0000
0020
,
1030
0001
0000
0010
,
0000
0100
0000
0010
,
0000
0001
0000
1000
,
0000
0001
0000
0200
,
0310
0000
1000
0000
,
0001
0000
0010
0000
,
0100
0000
0010
0000
,
0001
0000
1000
0000
,
0010
0000
0000
0000
,
0000
0000
0000
0000
,
1000
0000
0000
0000
,
0000
0000
0000
0000
,
0001
0000
0001
0000
,
0010
0000
0010
0000
,
0100
0000
0100
0000
,
1000
0000
1000
0000
,
0001
0001
0100
0100
,
0010
0010
1000
1000
,
0002
0000
0000
0000
,
0003
0000
0000
0000
,
2002
3003
0000
0000
0000
0000
0000
0000
,
0000
0000
0000
0000
,
0000
1000
0000
0100
,
0000
0010
0000
0100
,
0000
1000
0000
0001
,
0000
0100
0000
0020
,
1030
0000
0001
0000
,
0010
0000
0100
0000
,
1000
0000
0001
0000
,
0200
0000
0310
0000
,
1000
0000
0001
0000
,
0010
0000
0100
0000
,
0010
0000
0001
0000
,
2000
3010
0000
0100
,
0000
0001
0000
1000
,
0000
0100
0000
0010
,
0000
0000
0002
0000
0000
0003
2002
0000
,
3003
0000
0000
0000
;
