#TITLE:Hydraulic;
#SUBTITLE:;
#ARTIST:Datsik;
#TITLETRANSLIT:;
#SUBTITLETRANSLIT:;
#ARTISTTRANSLIT:;
#GENRE:;
#CREDIT:;
#BANNER:hydraulicbn.jpg;
#BACKGROUND:hydraulic.jpg;
#LYRICSPATH:;
#CDTITLE:maxx-cdtitle.png;
#MUSIC:Datsik - Hydraulic.ogg;
#OFFSET:-0.017000;
#SAMPLESTART:25.962999;
#SAMPLELENGTH:12.973000;
#SELECTABLE:YES;
#DISPLAYBPM:148.000000;
#BPMS:0.000000=148.000000
,72.000000=222.000000
,72.750000=74.000000
,73.000000=148.000000
,74.000000=222.000000
,74.750000=74.000000
,75.000000=148.000000
,88.000000=222.000000
,88.750000=74.000000
,89.000000=148.000000
,90.000000=222.000000
,90.750000=74.000000
,91.000000=148.000000
,104.000000=222.000000
,104.750000=74.000000
,105.000000=148.000000
,106.000000=222.000000
,106.750000=74.000000
,107.000000=148.000000
,120.000000=222.000000
,120.750000=74.000000
,121.000000=148.000000
,122.000000=222.000000
,122.750000=74.000000
,123.000000=148.000000
,200.000000=222.000000
,200.750000=74.000000
,201.000000=148.000000
,202.000000=222.000000
,202.750000=74.000000
,203.000000=148.000000
,204.000000=222.000000
,204.750000=74.000000
,205.000000=148.000000
,206.000000=222.000000
,206.750000=74.000000
,207.000000=148.000000
,216.000000=222.000000
,216.750000=74.000000
,217.000000=148.000000
,218.000000=222.000000
,218.750000=74.000000
,219.000000=148.000000
,220.000000=222.000000
,220.750000=74.000000
,221.000000=148.000000
,232.000000=222.000000
,232.750000=74.000000
,233.000000=148.000000
,234.000000=222.000000
,234.750000=74.000000
,235.000000=148.000000
,236.000000=222.000000
,236.750000=74.000000
,237.000000=148.000000
,238.000000=222.000000
,238.750000=74.000000
,239.000000=148.000000
,248.000000=222.000000
,248.750000=74.000000
,249.000000=148.000000
,250.000000=222.000000
,250.750000=74.000000
,251.000000=148.000000
,252.000000=222.000000
,252.750000=74.000000
,253.000000=148.000000
,256.000000=74.000000
;
#STOPS:
;
#BGCHANGES:;
#KEYSOUNDS:;
#ATTACKS:;

//---------------dance-single - Maxx----------------
#NOTES:
     dance-single:
     Maxx:
     Challenge:
     11:
     0.719161,0.979873,0.283227,0.246681,1.000429,551.000000,520.000000,31.000000,27.000000,0.000000,0.000000,0.719161,0.979873,0.283227,0.246681,1.000429,551.000000,520.000000,31.000000,27.000000,0.000000,0.000000:
0000
0000
0000
0000
,
0000
0000
0000
0000
,
0000
0000
0000
0000
,
0000
0000
0000
0000
,
0001
1000
0001
1000
0001
0100
0001
0100
,
0010
1000
0010
1000
0001
0010
0001
0010
,
0001
1000
0100
0010
0001
1000
0010
0100
0001
1000
0100
0010
0100
1000
0010
0100
,
0001
0000
1000
0000
0100
0000
0010
0000
0001
0000
1000
0000
0010
0000
0100
0000
0001
0000
1000
0000
0001
0000
0010
0000
0400
0000
0000
0000
0000
0000
0000
0000
0000
0000
0000
0000
0000
0000
0000
0000
0000
0000
0000
0000
0000
0300
0000
0000
,
1001
0000
1000
0001
0100
0000
0010
0010
,
1000
0000
0001
1000
0100
0000
0010
0010
,
0001
0000
1000
0001
0100
0000
0010
0010
,
1000
0000
0001
1000
0100
0000
0010
0010
,
0001
0000
1001
0001
0200
0000
0310
1000
,
0001
0000
1001
1000
0200
0000
0310
0001
,
1000
0010
1000
0001
0010
0100
0010
0001
,
1000
0000
0000
0010
0000
0000
0100
0000
0000
0001
0000
0000
1000
0000
0100
0000
0010
0000
0001
0000
1000
0000
0001
0000
0400
0000
0000
0000
0000
0000
0000
0000
0000
0000
0000
0000
0000
0000
0000
0000
0000
0000
0000
0000
0000
0300
0000
0000
,
1004
0000
0000
0000
0000
0000
0000
0000
0000
0000
0000
0000
0013
0000
0000
0000
0000
0000
0100
0000
0000
0000
0000
0000
1000
0000
0000
0000
0001
0000
0000
0000
0100
0000
0000
0000
0010
0000
0000
1000
0000
0000
0010
0000
0000
1000
0000
0000
,
0001
1000
0001
0010
0100
0010
0001
1000
0010
0100
0001
1000
,
0200
0000
0310
0001
1002
0000
0103
0000
,
0010
1000
0001
1000
0100
1000
0010
0100
0001
1000
0001
0010
,
0100
0000
0000
0000
0000
0000
0000
0000
0000
0000
0000
0000
1000
0000
0000
0000
0000
0000
0000
0000
0000
0000
0000
0000
0000
0000
0000
0000
1000
0000
0000
0000
0000
0000
0000
0000
0000
0001
0000
0000
0000
0000
0000
0000
0000
0000
1000
0000
0000
0000
0000
0000
0000
0000
0000
0000
0100
0000
0000
0000
0000
0000
0000
0000
0000
0000
0010
0000
0000
0000
0000
0000
0000
0000
0000
0000
0001
0000
0000
0000
0000
0000
0000
0000
0000
0000
0000
1000
0000
0000
0000
0000
0000
0000
0000
0000
0010
0000
0000
0000
0000
0000
0000
0000
0000
0000
0000
0000
0000
0000
0000
0000
0000
0000
0000
0000
0000
0000
0000
0000
0100
0000
0000
0000
0000
0000
0000
0000
0000
0000
0000
0000
0000
0000
0000
0000
0000
0000
0000
0000
0000
0000
0000
0000
0001
0000
0000
0000
0000
0000
0000
0000
0000
0000
0000
0000
1000
0000
0000
0000
0000
0000
0000
0000
0000
0000
0000
0000
0001
0000
0000
0000
0000
0000
0000
0000
0000
0000
0000
0000
1000
0000
0000
0000
0000
0000
0000
0000
0000
0000
0000
0000
,
0100
0000
0000
0010
0000
0000
0001
0000
1000
0000
0001
0000
0100
0000
0010
0000
1000
0000
0001
0000
1000
0000
0100
0000
,
0020
0000
0031
1000
1020
0000
0130
0000
,
0001
1000
0100
0010
0001
1000
0010
0000
0000
0100
0000
0000
0001
0000
1000
0000
0100
0000
0010
0000
0100
0000
1000
0000
,
0004
0000
0000
0000
0000
0000
0000
0000
0000
0000
0000
0000
1003
0000
0000
0000
0000
0000
0001
0000
0000
0000
0000
0000
0010
0000
0000
0000
0001
0000
0000
0000
0100
0000
0000
0000
0001
0000
0000
1000
0000
0000
0001
0000
0000
1000
0000
0000
,
0100
0010
0001
1000
0010
1000
0100
0010
0001
0100
0001
0010
,
0200
0000
1300
0001
1002
0000
0103
0000
,
0010
0000
0000
0000
1000
0000
0000
0000
0001
0000
0000
0000
1000
0100
0000
0000
0010
0000
0000
0000
0001
0000
0000
0000
0100
0000
0000
0000
0001
0000
0000
0000
1000
0000
0000
0000
0100
0000
0000
0000
0010
0000
0000
0000
0001
0000
0000
0000
,
1000
0000
0000
0000
0000
0000
0000
0000
0000
0000
0000
0000
0001
0000
0000
0000
0000
0000
0000
0000
0000
0000
0000
0000
0000
0000
0000
0000
0001
0000
0000
0000
0000
0000
0000
0000
0000
1000
0000
0000
0000
0000
0000
0000
0000
0000
0001
0000
0000
0000
0000
0000
0000
0000
0000
0000
0010
0000
0000
0000
0000
0000
0000
0000
0000
0000
0100
0000
0000
0000
0000
0000
0000
0000
0000
0000
1000
0000
0000
0000
0000
0000
0000
0000
0000
0000
0000
0001
0000
0000
0000
0000
0000
0000
0000
0000
0100
0000
0000
0000
0000
0000
0000
0000
0000
0000
0000
0000
0000
0000
0000
0000
0000
0000
0000
0000
0000
0000
0000
0000
0010
0000
0000
0000
0000
0000
0000
0000
0000
0000
0000
0000
0000
0000
0000
0000
0000
0000
0000
0000
0000
0000
0000
0000
1000
0000
0000
0000
0000
0000
0000
0000
0000
0000
0000
0000
0001
0000
0000
0000
0000
0000
0000
0000
0000
0000
0000
0000
0010
0000
0000
0000
0000
0000
0000
0000
0000
0000
0000
0000
0001
0000
0000
0000
0000
0000
0000
0000
0000
0000
0000
0000
,
0010
0000
0000
0100
0000
0000
1000
0000
0001
0000
0010
0000
0001
0000
1000
0000
0010
0000
0100
0000
0001
0000
1000
0000
,
0200
0000
0310
0001
2001
0000
3010
0000
,
1000
0001
0010
0100
1000
0010
0100
0001
1000
0100
0010
0001
,
0200
0000
0000
0000
0310
0000
0010
0000
1000
0000
0000
0000
0001
1000
0001
1000
,
0200
0000
0000
0310
0011
0000
1001
0000
,
1000
0000
0000
0000
1000
0000
0104
0003
0000
0000
0000
0000
0010
0000
0000
0000
0010
0000
0104
0003
0000
0000
0000
0000
,
1000
0000
0000
0000
1000
0000
0014
0003
0000
0000
0000
0000
0100
0000
0000
0000
0100
0000
0014
0003
0000
0000
0000
0000
,
1000
0000
0000
0000
0000
0000
0000
0000
0000
0000
0000
0000
0001
0000
0000
0000
0000
0000
0000
0000
0000
0000
0000
0000
0000
0000
0000
0000
0001
0000
0000
0000
0000
0000
0000
0000
0000
1000
0000
0000
0000
0000
0000
0000
0000
0000
0001
0000
0000
0000
0000
0000
0000
0000
0000
0000
0100
0000
0000
0000
0000
0000
0000
0000
0000
0000
0010
0000
0000
0000
0000
0000
0000
0000
0000
0000
1000
0000
0000
0000
0000
0000
0000
0000
0000
0000
0000
0001
0000
0000
0000
0000
0000
0000
0000
0000
0010
0000
0000
0000
0000
0000
0000
0000
0000
0000
0000
0000
0000
0000
0000
0000
0000
0000
0000
0000
0000
0000
0000
0000
0100
0000
0000
0000
0000
0000
0000
0000
0000
0000
0000
0000
0000
0000
0000
0000
0000
0000
0000
0000
0000
0000
0000
0000
1000
0000
0000
0000
0000
0000
0000
0000
0000
0000
0000
0000
0001
0000
0000
0000
0000
0000
0000
0000
0000
0000
0000
0000
1000
0000
0000
0000
0000
0000
0000
0000
0000
0000
0000
0000
0001
0000
0000
0000
0000
0000
0000
0000
0000
0000
0000
0000
,
0100
0010
1000
0001
0021
0000
0130
1000
,
0001
0000
0000
0000
0001
0000
4100
3000
0000
0000
0000
0000
0010
0000
0000
0000
0010
0000
4100
3000
0000
0000
0000
0000
,
0001
0000
0000
0000
0001
0000
4010
3000
0000
0000
0000
0000
0100
0000
0000
0000
0100
0000
4010
3000
0000
0000
0000
0000
,
0002
0000
0000
0000
1003
0000
0010
0000
0110
0000
0000
0000
0001
1000
0001
1000
,
0200
0000
0000
1300
0010
0000
1001
0000
,
1000
0000
0000
0000
1000
0000
0104
0003
0000
0000
0000
0000
0010
0000
0000
0000
0010
0000
0104
0003
0000
0000
0000
0000
,
1000
0000
0000
0000
1000
0000
0014
0003
0000
0000
0000
0000
0100
0000
0000
0000
0100
0000
0014
0003
0000
0000
0000
0000
,
1000
0000
0000
0000
0000
0000
0000
0000
0000
0000
0000
0000
0001
0000
0000
0000
0000
0000
0000
0000
0000
0000
0000
0000
0000
0000
0000
0000
0001
0000
0000
0000
0000
0000
0000
0000
0000
1000
0000
0000
0000
0000
0000
0000
0000
0000
0001
0000
0000
0000
0000
0000
0000
0000
0000
0000
0100
0000
0000
0000
0000
0000
0000
0000
0000
0000
0010
0000
0000
0000
0000
0000
0000
0000
0000
0000
1000
0000
0000
0000
0000
0000
0000
0000
0000
0000
0000
0001
0000
0000
0000
0000
0000
0000
0000
0000
0010
0000
0000
0000
0000
0000
0000
0000
0000
0000
0000
0000
0000
0000
0000
0000
0000
0000
0000
0000
0000
0000
0000
0000
0100
0000
0000
0000
0000
0000
0000
0000
0000
0000
0000
0000
0000
0000
0000
0000
0000
0000
0000
0000
0000
0000
0000
0000
1000
0000
0000
0000
0000
0000
0000
0000
0000
0000
0000
0000
0001
0000
0000
0000
0000
0000
0000
0000
0000
0000
0000
0000
1000
0000
0000
0000
0000
0000
0000
0000
0000
0000
0000
0000
0001
0000
0000
0000
0000
0000
0000
0000
0000
0000
0000
0000
,
0100
0010
1000
0001
0021
0000
0130
1000
,
0001
0000
0000
0000
0001
0000
4100
3000
0000
0000
0000
0000
0010
0000
0000
0000
0010
0000
4100
3000
0000
0000
0000
0000
,
0001
0000
0000
0000
0001
0000
4010
3000
0000
0000
0000
0000
0100
0000
0000
0000
0100
0000
4010
3000
0000
0000
0000
0000
,
1004
0000
0000
0000
0000
0000
1003
0000
0000
0010
0000
0000
0100
0000
0001
0000
1000
0000
0000
0000
0000
0000
0000
0000
,
0001
1000
0100
0010
0001
1000
0010
1000
0100
0010
0001
0100
,
0020
0000
0000
1000
0000
0000
0001
0000
0000
0130
0001
1000
,
0200
0000
0000
0000
0001
0000
0000
0000
1000
0000
0000
0000
0310
0001
1000
0001
,
0100
0000
0000
0000
0000
0000
0000
0000
0000
0000
0000
0000
0010
0000
0000
0000
0000
0000
0000
0000
0000
0000
0000
0000
0000
0000
0000
0000
0010
0000
0000
0000
0000
0000
0000
0000
0000
1000
0000
0000
0000
0000
0000
0000
0000
0000
0001
0000
0000
0000
0000
0000
0000
0000
0000
0000
1000
0000
0000
0000
0000
0000
0000
0000
0000
0000
0100
0000
0000
0000
0000
0000
0000
0000
0000
0000
0010
0000
0000
0000
0000
0000
0000
0000
0000
0000
0000
0001
0000
0000
0000
0000
0000
0000
0000
0000
1000
0000
0000
0000
0000
0000
0000
0000
0000
0000
0000
0000
0000
0000
0000
0000
0000
0000
0000
0000
0000
0000
0000
0000
0010
0000
0000
0000
0000
0000
0000
0000
0000
0000
0000
0000
0000
0000
0000
0000
0000
0000
0000
0000
0000
0000
0000
0000
0000
0000
0000
0000
0000
0000
0000
0000
0000
0000
0000
0000
0000
0000
0000
0000
0000
0000
0000
0000
0000
0000
0000
0000
0000
0000
0000
0000
0000
0000
0000
0000
0000
0000
0000
0000
0000
0000
0000
0000
0000
0000
0000
0000
0000
0000
0000
0000
,
1000
0000
0000
0001
0000
0000
0010
0000
0100
0000
1000
0000
0001
0000
0100
0000
0001
0000
0010
0000
0100
0000
1000
0000
,
0020
0000
0000
1000
0000
0000
0001
0000
0000
0130
0001
1000
,
0200
0000
0000
0000
0000
0000
0000
0000
0000
0000
0000
0000
0310
0000
0000
0000
0001
0000
0000
0000
1000
0000
0000
0000
0020
0000
0000
0000
0000
0000
0000
0000
0000
0000
0000
0000
0130
0000
0000
0001
0000
0000
0100
0000
0000
0001
0000
0000
,
4000
0000
0000
0000
0000
0000
3001
0000
0000
0010
0000
0000
0100
0000
1000
0000
0001
0000
0000
0000
0000
0000
0000
0000
,
1000
0100
0010
0001
1000
0010
1000
0001
0010
0100
1000
0001
,
0200
0000
0000
0001
0000
0000
1000
0000
0000
0310
1000
0001
,
0020
0000
0000
0000
1000
0000
0000
0000
0001
0000
0000
0000
0130
1000
0001
1000
,
0010
0000
0000
0000
0000
0000
0000
0000
0000
0000
0000
0000
0100
0000
0000
0000
0000
0000
0000
0000
0000
0000
0000
0000
0000
0000
0000
0000
0100
0000
0000
0000
0000
0000
0000
0000
0000
0001
0000
0000
0000
0000
0000
0000
0000
0000
1000
0000
0000
0000
0000
0000
0000
0000
0000
0000
0100
0000
0000
0000
0000
0000
0000
0000
0000
0000
0010
0000
0000
0000
0000
0000
0000
0000
0000
0000
0001
0000
0000
0000
0000
0000
0000
0000
0000
0000
0000
1000
0000
0000
0000
0000
0000
0000
0000
0000
0010
0000
0000
0000
0000
0000
0000
0000
0000
0000
0000
0000
0000
0000
0000
0000
0000
0000
0000
0000
0000
0000
0000
0000
0100
0000
0000
0000
0000
0000
0000
0000
0000
0000
0000
0000
0000
0000
0000
0000
0000
0000
0000
0000
0000
0000
0000
0000
0000
0000
0000
0000
0000
0000
0000
0000
0000
0000
0000
0000
0000
0000
0000
0000
0000
0000
0000
0000
0000
0000
0000
0000
0000
0000
0000
0000
0000
0000
0000
0000
0000
0000
0000
0000
0000
0000
0000
0000
0000
0000
0000
0000
0000
0000
0000
0000
,
0001
0000
0000
1000
0000
0000
0001
0000
0010
0000
0001
0000
1000
0000
0010
0000
1000
0000
0100
0000
0010
0000
0001
0000
,
0200
0000
0000
0001
0000
0000
1000
0000
0000
0310
1000
0001
,
0200
0000
0000
0000
0000
0000
0000
0000
0000
0000
0000
0000
0310
0000
0000
0000
1000
0000
0000
0000
0001
0000
0000
0000
0020
0000
0000
0000
0000
0000
0000
0000
0000
0000
0000
0000
0031
0000
0000
1000
0000
0000
0001
0000
0000
1000
0000
0000
,
0200
0000
0000
0000
,
0300
0000
0000
0000
;

//---------------dance-single - Feraligatr----------------
#NOTES:
     dance-single:
     Feraligatr:
     Hard:
     11:
     0.723076,0.979873,0.274090,0.484226,1.009566,554.000000,524.000000,30.000000,53.000000,32.000000,0.000000,0.723076,0.979873,0.274090,0.484226,1.009566,554.000000,524.000000,30.000000,53.000000,32.000000,0.000000:
0000
0000
0000
0000
,
0000
0000
0000
0000
,
0000
0000
0000
0000
,
0000
0000
0000
0000
,
1000
0100
1000
0001
0100
0010
1000
0001
,
0010
0100
1000
0001
0100
0010
1000
0001
,
1000
0100
0010
0001
1000
0001
0100
0010
0100
0001
1000
0100
1000
0001
0100
0010
,
1000
0000
0001
0000
0010
0000
0001
0000
1000
0000
0010
0000
0100
0000
0001
0000
1000
0000
0100
0000
0010
0000
0100
0000
4000
0000
0000
0000
0000
0000
0000
0000
0000
0000
0000
0000
0000
0000
0000
0000
0000
0000
0000
0000
0000
3000
0000
0000
,
1002
0000
1003
0010
0210
0000
0301
1000
,
1200
0000
0310
0001
2001
0000
3010
0100
,
0102
0000
1003
0100
0120
0000
0031
1000
,
1020
0000
0130
0001
2001
0000
3100
0010
,
0012
0000
0000
0000
0000
0000
0000
0000
1003
0000
0000
0000
0010
0000
0000
0000
0204
0003
0000
0000
0000
0000
0000
0000
4300
3000
0000
0000
0400
0300
0000
0000
,
0102
0000
0000
0000
0000
0000
0000
0000
1003
0000
0000
0000
0100
0000
0000
0000
0021
0000
0000
0000
0000
0000
0000
0000
4030
3000
0000
0000
0040
0030
0000
0000
,
0001
0000
0000
0000
0100
0000
0000
0000
0010
0000
0000
0000
1000
0000
0000
0000
0004
0003
0000
0000
0010
0000
0000
0000
4000
3000
0000
0000
0040
0030
0000
0000
,
0001
0000
0000
0010
0000
0000
0100
0000
0000
1000
0000
0000
0001
0000
0100
0000
0010
0000
1000
0000
0001
0000
1000
0000
0400
0000
0000
0000
0000
0000
0000
0000
0000
0000
0000
0000
0000
0000
0000
0000
0000
0000
0000
0000
0000
0300
0000
0000
,
1002
0000
0000
0000
0000
0000
0000
0000
0000
0000
0000
0000
0013
0000
0000
0000
0000
0000
0001
0000
0000
0000
0000
0000
1000
0000
0000
0000
0010
0000
0000
0000
0100
0000
0000
0000
0001
0000
0000
1000
0000
0000
0001
0000
0000
1000
0000
0000
,
0100
0010
0001
0100
0010
1000
0001
1000
0100
0010
0100
1000
,
0020
0000
0130
0001
0021
0000
0130
0000
,
1000
0001
0100
0001
1000
0100
0010
0100
1000
0001
0100
0010
,
1000
0000
0000
0000
0001
0000
0000
0000
0010
0000
0000
0001
0000
0000
1000
0000
0000
0010
0000
0000
0100
0000
0000
0001
0000
0000
1000
0000
0000
0001
0000
0000
0010
0000
0000
0000
0000
0000
0000
0000
0100
0000
0000
0000
0000
0000
0000
0000
1000
0000
0000
0000
0001
0000
0000
0000
1000
0000
0000
0000
0001
0000
0000
0000
,
0100
0000
0000
0001
0000
0000
0010
0000
0100
0000
1000
0000
0001
0000
0100
0000
0001
0000
1000
0000
0100
0000
1000
0000
,
0020
0000
0130
0001
0021
0000
0130
0000
,
1000
0001
0100
0010
0100
0001
1000
0100
0010
0001
0000
0000
1000
0000
0010
0000
0100
0000
0001
0000
1000
0000
0100
0000
,
0020
0000
0000
0000
0000
0000
0000
0000
0000
0000
0000
0000
0130
0000
0000
0000
0000
0000
1000
0000
0000
0000
0000
0000
0001
0000
0000
0000
0100
0000
0000
0000
0010
0000
0000
0000
1000
0000
0000
0001
0000
0000
1000
0000
0000
0001
0000
0000
,
0010
0100
1000
0010
0100
0001
1000
0001
0010
0100
0010
0001
,
0200
0000
0310
1000
1200
0000
0310
0000
,
0001
0000
0000
0000
1000
0000
0000
0000
0010
0000
0000
0000
0100
0001
0000
0000
1000
0000
0000
0000
0100
0000
0000
0000
0010
0000
0000
0000
0001
0000
0000
0000
1000
0000
0000
0000
0010
0000
0000
0000
0100
0000
0000
0000
0001
0000
0000
0000
,
1000
0000
0000
0000
0001
0000
0000
0000
0010
0000
0000
0100
0000
0000
1000
0000
0000
0001
0000
0000
0100
0000
0000
0010
0000
0000
1000
0000
0000
0001
0000
0000
0010
0000
0000
0000
0000
0000
0000
0000
0100
0000
0000
0000
0000
0000
0000
0000
1000
0000
0000
0000
0001
0000
0000
0000
1000
0000
0000
0000
0001
0000
0000
0000
,
0100
0000
0000
0001
0000
0000
0010
0000
0100
0000
1000
0000
0001
0000
0010
0000
0001
0000
1000
0000
0010
0000
1000
0000
,
0200
0000
0310
0001
0201
0000
0310
0000
,
1000
0001
0010
0100
1000
0001
0100
0001
1000
0100
0010
0001
,
0200
0000
0000
0000
0310
0000
1000
0000
0002
0000
0000
0000
1003
0100
1000
0100
,
0020
0000
0000
0031
1001
0000
1000
0000
,
0001
0000
0000
0000
0100
0000
1000
0000
0000
00MM
0000
0000
1000
0000
0000
0000
0010
0000
0001
0000
0000
MM00
0000
0000
,
0001
0000
0000
0000
0100
0000
1000
0000
0000
00MM
0000
0000
1000
0000
0000
0000
0010
0000
0001
0000
0000
MM00
0000
0000
,
0001
0000
0000
0000
0010
0000
0000
0000
0100
0000
0000
1000
0000
0000
0001
0000
0000
0100
0000
0000
0010
0000
0000
1000
0000
0000
0001
0000
0000
0010
0000
0000
0200
0000
0000
0000
0000
0000
0000
0000
0000
0000
0000
0000
0000
0000
0000
0000
1300
0000
0000
0000
0001
0000
0000
0000
1000
0000
0000
0000
0001
0000
0000
0000
,
0200
0000
0310
1000
1002
0000
0013
0100
,
1000
0000
0000
0000
0010
0000
0001
0000
0000
MM00
0000
0000
0001
0000
0000
0000
0100
0000
1000
0000
0000
00MM
0000
0000
,
1000
0000
0000
0000
0010
0000
0001
0000
0000
MM00
0000
0000
0001
0000
0000
0000
0100
0000
1000
0000
0000
00MM
0000
0000
,
2001
0000
0000
0000
3100
0000
0010
0000
0021
0000
0000
0000
0130
1000
0100
1000
,
0002
0000
0000
0103
0110
0000
1000
0000
,
0001
0000
0000
0000
0010
0000
1000
0000
0000
0M0M
0000
0000
1000
0000
0000
0000
0100
0000
0001
0000
0000
M0M0
0000
0000
,
0001
0000
0000
0000
0010
0000
1000
0000
0000
0M0M
0000
0000
1000
0000
0000
0000
0100
0000
0001
0000
0000
M0M0
0000
0000
,
0001
0000
0000
0000
0100
0000
0000
0000
0010
0000
0000
1000
0000
0000
0001
0000
0000
0010
0000
0000
0100
0000
0000
1000
0000
0000
0001
0000
0000
0100
0000
0000
0020
0000
0000
0000
0000
0000
0000
0000
0000
0000
0000
0000
0000
0000
0000
0000
1030
0000
0000
0000
0001
0000
0000
0000
1000
0000
0000
0000
0001
0000
0000
0000
,
0020
0000
0130
1000
1002
0000
0103
0010
,
1000
0000
0000
0000
0100
0000
0001
0000
0000
M0M0
0000
0000
0001
0000
0000
0000
0010
0000
1000
0000
0000
0M0M
0000
0000
,
1000
0000
0000
0000
0100
0000
0001
0000
0000
M0M0
0000
0000
0001
0000
0000
0000
0010
0000
1000
0000
0000
0M0M
0000
0000
,
1002
0000
0000
0000
0000
0000
0103
0000
0000
0010
0000
0000
1000
0000
0001
0000
1000
0000
0000
0000
0000
0000
0000
0000
,
0100
0010
0001
0100
0010
1000
0001
1000
0100
0010
0100
1000
,
0020
0000
0000
0130
0000
0000
1020
0000
0000
0130
0010
1000
,
0200
0000
0000
0000
0310
0000
0000
0000
1200
0000
0000
0000
0310
0001
0010
0001
,
1000
0000
0000
0000
0010
0000
0000
0000
0100
0000
0000
0001
0000
0000
1000
0000
0000
0100
0000
0000
1000
0000
0000
0001
0000
0000
0100
0000
0000
0010
0000
0000
1000
0000
0000
0000
0000
0000
0000
0000
0001
0000
0000
0000
0000
0000
0000
0000
0000
0000
0000
0000
0000
0000
0000
0000
0000
0000
0000
0000
0000
0000
0000
0000
,
0010
0000
0000
0001
0000
0000
0100
0000
0010
0000
1000
0000
0001
0000
0100
0000
0001
0000
1000
0000
0100
0000
1000
0000
,
0020
0000
0000
0130
0000
0000
1020
0000
0000
0130
0010
1000
,
0200
0000
0000
0000
0000
0000
0000
0000
0000
0000
0000
0000
0310
0000
0000
0000
0001
0000
0000
0000
0100
0000
0000
0000
2000
0000
0000
0000
0000
0000
0000
0000
0000
0000
0000
0000
3100
0000
0000
0010
0000
0000
0100
0000
0000
0010
0000
0000
,
2000
0000
0000
0000
0000
0000
3100
0000
0000
0010
0000
0000
0001
0000
1000
0000
0001
0000
0000
0000
0000
0000
0000
0000
,
1000
0100
1000
0010
0100
0001
1000
0100
1000
0001
0010
0001
,
0200
0000
0000
0310
0000
0000
0201
0000
0000
0310
0100
0001
,
0020
0000
0000
0000
0130
0000
0000
0000
0021
0000
0000
0000
0130
1000
0100
1000
,
0001
0000
0000
0000
0100
0000
0000
0000
0010
0000
0000
1000
0000
0000
0001
0000
0000
0010
0000
0000
0100
0000
0000
1000
0000
0000
0001
0000
0000
0100
0000
0000
0001
0000
0000
0000
0000
0000
0000
0000
1000
0000
0000
0000
0000
0000
0000
0000
0000
0000
0000
0000
0000
0000
0000
0000
0000
0000
0000
0000
0000
0000
0000
0000
,
0010
0000
0000
1000
0000
0000
0100
0000
0010
0000
0001
0000
1000
0000
0010
0000
1000
0000
0001
0000
0010
0000
0001
0000
,
0200
0000
0000
0310
0000
0000
0201
0000
0000
0310
0100
0001
,
0020
0000
0000
0000
0000
0000
0000
0000
0000
0000
0000
0000
0130
0000
0000
0000
1000
0000
0000
0000
0010
0000
0000
0000
0002
0000
0000
0000
0000
0000
0000
0000
0000
0000
0000
0000
0013
0000
0000
0100
0000
0000
0010
0000
0000
0100
0000
0000
,
0002
0000
0000
0000
,
0003
0000
0000
0000
;

//---------------dance-single - Feraligatr----------------
#NOTES:
     dance-single:
     Feraligatr SM:
     Medium:
     8:
     0.480310,0.564169,0.292363,0.328908,0.420272,368.000000,336.000000,32.000000,36.000000,0.000000,0.000000,0.480310,0.564169,0.292363,0.328908,0.420272,368.000000,336.000000,32.000000,36.000000,0.000000,0.000000:
0000
0000
0000
0000
,
0000
0000
0000
0000
,
0000
0000
0000
0000
,
0000
0000
0000
0000
,
1000
0100
1000
0000
0001
0100
0001
0000
,
1000
0100
1000
0000
0001
0100
0001
0000
,
1000
0100
0010
0001
0100
0010
1000
0100
,
0001
0100
1000
0010
0002
0000
0000
0000
,
0013
0000
1000
0001
0010
0000
0100
1000
,
0001
0000
0100
0010
1000
0000
0001
0010
,
0100
0000
1000
0001
0100
0000
0010
0100
,
0001
0000
1000
0100
0010
0000
0001
1000
,
0010
0000
0100
0001
0010
0000
1000
0010
,
0001
0000
0100
0001
0010
0000
1000
0010
,
0001
0000
0100
0001
0010
0100
0001
0100
,
1000
0000
0010
0000
0100
0000
0001
0000
0020
0000
0000
0000
0000
0000
0000
0030
,
1002
0000
0000
1003
0000
0000
0001
0100
0001
0000
0000
0000
,
1000
0100
1000
0100
0010
0001
1000
0001
1000
0010
0100
0001
,
0020
0030
0120
0030
,
0001
1000
0010
0100
0001
1000
0100
1000
0001
0100
0001
1000
,
0400
0000
0000
0000
0310
0010
0000
0000
,
0001
0000
0000
0001
0000
0000
1000
0000
0010
0000
1000
0000
0001
0000
0010
0000
0100
0000
1000
0000
0001
0000
1000
0000
,
0020
0030
0120
0030
,
4000
0000
0000
0000
0000
0000
0000
0000
0000
3001
0000
0000
0010
0000
0100
0000
1000
0000
0001
0000
1000
0000
0010
0000
,
0200
0000
0000
0301
0000
0000
1000
0100
1000
0000
0000
0000
,
0001
0100
0001
0010
0100
1000
0001
1000
0100
1000
0001
0100
,
0020
0030
1020
0030
,
1000
0000
0000
0000
0001
0000
0000
0000
0010
0000
0000
0000
0004
0003
0000
0000
1000
0000
0000
0000
0010
0000
0000
0000
0100
0000
0000
0000
0001
0000
0000
0000
1000
0000
0000
0000
0100
0000
0000
0000
0010
0000
0000
0000
0001
0000
0000
0000
,
4000
0000
0000
0000
3010
0010
0000
0000
,
0100
0000
0000
0100
0000
0000
0001
0000
1000
0000
0001
0000
0010
0000
0100
0000
1000
0000
0001
0000
1000
0000
0010
0000
,
0200
0300
0201
0300
,
0001
1000
0001
0010
0100
0010
0001
1000
0001
0100
0010
1000
,
0001
0000
0000
0000
,
2000
0000
0000
3001
0010
0000
0000
0000
,
0100
1100
0001
0101
,
1000
1100
0001
0101
,
1000
0000
0001
0100
0010
0000
1000
0001
,
0010
0000
0001
0100
0010
0000
1000
0001
,
0010
1100
0001
0101
,
1000
1100
0001
0101
,
1000
0000
0001
0010
0100
0000
1000
0001
,
0200
0000
0000
0310
1000
0000
0001
0000
,
1000
1010
0001
0011
,
1000
1010
0001
0011
,
1000
0000
0001
0100
0010
0000
1000
0001
,
0010
0000
0100
1000
0001
0000
0100
0001
,
1000
0011
1000
1010
,
0001
0011
1000
1010
,
1002
0000
0000
0013
0000
0000
0001
1000
0001
0000
0000
0000
,
1000
0100
1000
0001
0100
0010
0100
0001
1000
0001
0010
0100
,
2000
3000
2100
3000
,
2000
3000
2100
3000
,
0004
0000
0000
0000
0103
0100
0000
0000
,
0010
0000
0000
0010
0000
0000
1000
0000
0001
0000
0010
0000
0100
0000
0010
0000
0001
0000
1000
0000
0001
0000
0100
0000
,
0020
0030
1020
0030
,
0020
0000
0000
0000
0030
0000
0000
0000
0220
0000
0000
0000
0000
0000
0000
0330
,
2001
0000
0000
3100
0000
0000
1000
0001
1000
0000
0000
0000
,
0001
0010
0001
1000
0010
0100
0010
1000
0001
1000
0100
0010
,
0002
0003
0012
0003
,
0002
0003
0012
0003
,
4000
0000
0000
0000
3010
0010
0000
0000
,
0100
0000
0000
0100
0000
0000
0001
0000
1000
0000
0100
0000
0010
0000
0100
0000
1000
0000
0001
0000
1000
0000
0010
0000
,
0200
0300
0201
0300
,
0200
0000
0000
0000
0300
0000
0000
0000
0220
0000
0000
0000
0000
0000
0000
0330
,
2002
0000
0000
0000
,
3003
0000
0000
0000
;

//---------------dance-single - Feraligatr----------------
#NOTES:
     dance-single:
     Feraligatr SE:
     Easy:
     5:
     0.314551,0.415704,0.228409,0.292363,0.000000,241.000000,216.000000,25.000000,32.000000,0.000000,0.000000,0.314551,0.415704,0.228409,0.292363,0.000000,241.000000,216.000000,25.000000,32.000000,0.000000,0.000000:
// measure 0
0000
0000
0000
0000
,  // measure 1
0000
0000
0000
0000
,  // measure 2
0000
0000
0000
0000
,  // measure 3
0000
0000
0000
0000
,  // measure 4
1000
0001
0100
0001
,  // measure 5
1000
0100
0010
0001
,  // measure 6
1000
0010
1000
0010
0100
0001
0100
0001
,  // measure 7
0020
0000
0000
0000
,  // measure 8
0031
0000
1000
0010
1000
0000
0001
0010
,  // measure 9
0001
0000
1000
0010
1000
0000
0001
0010
,  // measure 10
0001
0000
1000
0100
1000
0000
0001
0100
,  // measure 11
0001
0000
1000
0100
1000
0000
0001
0100
,  // measure 12
0001
0000
1000
0100
0010
0000
0001
0100
,  // measure 13
0010
0000
1000
0100
0010
0000
0001
0100
,  // measure 14
0010
0000
1000
0100
0010
0000
0001
0100
,  // measure 15
0010
0000
0000
0000
1000
0000
0100
0000
0020
0000
0000
0000
0000
0000
0000
0030
,  // measure 16
1001
0000
1000
0000
,  // measure 17
0001
0100
0001
1000
0100
0000
0000
0000
,  // measure 18
0020
0030
0020
0030
,  // measure 19
0001
1000
0001
0100
0010
0000
0000
0000
,  // measure 20
2000
0000
3001
0000
,  // measure 21
1000
0000
0100
1000
0001
0100
0010
0000
,  // measure 22
2000
3000
2000
3000
,  // measure 23
0000
0000
0000
0001
0010
0000
0000
0000
,  // measure 24
0100
0000
1000
0000
,  // measure 25
0001
0100
0001
1000
0100
0000
0000
0000
,  // measure 26
0020
0030
0020
0030
,  // measure 27
0001
1000
0010
0100
0001
0000
0000
0000
,  // measure 28
2000
0000
3100
0000
,  // measure 29
0010
0000
0001
1000
0010
1000
0001
0000
,  // measure 30
0020
0030
0020
0030
,  // measure 31
0100
1000
0001
0100
0010
0000
0000
0000
,  // measure 32
1000
0000
0000
0000
,  // measure 33
0002
0000
0000
0013
0100
0000
0000
0000
,  // measure 34
1000
1100
0001
0101
,  // measure 35
1000
1100
0001
0101
,  // measure 36
1000
0000
0000
0001
0100
0000
0000
0000
,  // measure 37
0000
0000
0000
0010
1000
0000
0000
0000
,  // measure 38
0001
0011
1000
1010
,  // measure 39
0001
0011
1000
1010
,  // measure 40
0001
0000
0000
1000
0100
0000
0000
0000
,  // measure 41
0000
0000
0000
0010
0001
0000
0000
0000
,  // measure 42
1000
1010
0001
0011
,  // measure 43
1000
1010
0001
0011
,  // measure 44
1000
0000
0000
0001
0010
0000
0000
0000
,  // measure 45
0000
0000
0000
0100
1000
0000
0000
0000
,  // measure 46
0001
0101
1000
1100
,  // measure 47
0001
0101
1000
1100
,  // measure 48
1001
0000
0001
0000
,  // measure 49
0001
1000
0001
0010
0100
0000
0000
0000
,  // measure 50
2000
3000
2100
3000
,  // measure 51
2000
3000
2100
3000
,  // measure 52
0002
0000
0103
0000
,  // measure 53
0010
0000
1000
0001
1000
0100
0010
0000
,  // measure 54
0002
0003
0012
0003
,  // measure 55
0002
0000
0000
0000
0003
0000
0000
0000
2000
0000
0000
0000
0000
0000
0000
3000
,  // measure 56
1001
0000
1000
0000
,  // measure 57
1000
0001
1000
0100
0010
0000
0000
0000
,  // measure 58
0002
0003
0012
0003
,  // measure 59
0002
0003
0012
0003
,  // measure 60
2000
0000
3010
0000
,  // measure 61
0100
0000
0001
1000
0001
0010
0100
0000
,  // measure 62
2000
3000
2100
3000
,  // measure 63
2000
3000
0002
0000
,  // measure 64
0203
0000
0000
0000
,  // measure 65
0300
0000
0000
0000
;

//---------------dance-single - Feraligatr----------------
#NOTES:
     dance-single:
     Feraligatr SN:
     Beginner:
     2:
     0.177506,0.267238,0.009136,0.264954,0.000000,136.000000,135.000000,1.000000,29.000000,0.000000,0.000000,0.177506,0.267238,0.009136,0.264954,0.000000,136.000000,135.000000,1.000000,29.000000,0.000000,0.000000:
// measure 0
0000
0000
0000
0000
,  // measure 1
0000
0000
0000
0000
,  // measure 2
0000
0000
0000
0000
,  // measure 3
0000
0000
0000
0000
,  // measure 4
1000
0000
0001
0000
,  // measure 5
1000
0100
1000
0100
,  // measure 6
0020
0000
0000
0000
,  // measure 7
0032
0000
0000
0000
,  // measure 8
1003
0000
0001
0000
,  // measure 9
0100
0000
0001
0000
,  // measure 10
1000
0000
0100
0000
,  // measure 11
0010
0000
0001
0000
,  // measure 12
1000
0000
0001
0000
,  // measure 13
0100
0000
0010
0000
,  // measure 14
1000
0001
1000
0001
,  // measure 15
2000
0000
0000
0000
0000
0000
0000
0000
0000
0000
0000
0000
0000
0000
0000
3000
,  // measure 16
1001
0000
0001
0000
,  // measure 17
1000
0000
0100
0000
,  // measure 18
0020
0030
0020
0030
,  // measure 19
0001
0000
1000
0000
,  // measure 20
0010
0000
0100
0000
,  // measure 21
0001
0000
1000
0000
,  // measure 22
0200
0300
0200
0300
,  // measure 23
1000
0000
0001
0000
,  // measure 24
0100
0000
0001
0000
,  // measure 25
1000
0000
0000
0000
,  // measure 26
2000
3000
2000
3000
,  // measure 27
0001
0000
0100
0000
,  // measure 28
0001
0000
1000
0000
,  // measure 29
0100
0000
0010
0000
,  // measure 30
0002
0003
0002
0003
,  // measure 31
1000
0000
0010
0000
,  // measure 32
0100
0000
0000
0000
,  // measure 33
0002
0000
1003
0000
,  // measure 34
0001
0001
1000
1000
,  // measure 35
0001
0001
1000
1000
,  // measure 36
0100
0000
0010
0000
,  // measure 37
0001
0000
0100
0000
,  // measure 38
0001
0001
1000
1000
,  // measure 39
0001
0001
1000
1000
,  // measure 40
0100
0000
0010
0000
,  // measure 41
0001
0000
0100
0000
,  // measure 42
0001
0001
1000
1000
,  // measure 43
0001
0001
1000
1000
,  // measure 44
0100
0000
0010
0000
,  // measure 45
0001
0000
0100
0000
,  // measure 46
0001
0001
1000
1000
,  // measure 47
0001
0001
1000
1000
,  // measure 48
0100
0000
0000
0000
,  // measure 49
0010
0000
0001
0000
,  // measure 50
2000
3000
2000
3000
,  // measure 51
2000
3000
2000
3000
,  // measure 52
0001
0000
0100
0000
,  // measure 53
0010
0000
1000
0000
,  // measure 54
0002
0003
0002
0003
,  // measure 55
0002
0003
0020
0000
,  // measure 56
0130
0000
1000
0000
,  // measure 57
0001
0000
0100
0000
,  // measure 58
0020
0030
0020
0030
,  // measure 59
0020
0030
0020
0030
,  // measure 60
1000
0000
0001
0000
,  // measure 61
0010
0000
0100
0000
,  // measure 62
2000
3000
2000
3000
,  // measure 63
2000
3000
0020
0000
,  // measure 64
0230
0000
0000
0000
,  // measure 65
0300
0000
0000
0000
;
