#TITLE:Got You;
#SUBTITLE:;
#ARTIST:Sunset Neon;
#TITLETRANSLIT:;
#SUBTITLETRANSLIT:;
#ARTISTTRANSLIT:;
#GENRE:;
#CREDIT:;
#BANNER:Got You-bn.png;
#BACKGROUND:Got You-bg.png;
#LYRICSPATH:;
#CDTITLE:xRGTMx-cdtitle.png;
#MUSIC:Got You.ogg;
#OFFSET:0.007000;
#SAMPLESTART:15.122000;
#SAMPLELENGTH:16.271187;
#SELECTABLE:YES;
#BPMS:0.000000=118.000000
;
#STOPS:
;
#BGCHANGES:;
#KEYSOUNDS:;
#ATTACKS:;

//---------------dance-single - ----------------
#NOTES:
     dance-single:
     xRGTMx-SX:
     Challenge:
     10:
     0.696718,0.789567,0.314647,0.501937,0.910228,651.000000,609.000000,42.000000,67.000000,2.000000,0.000000,0.696718,0.789567,0.314647,0.501937,0.910228,651.000000,609.000000,42.000000,67.000000,2.000000,0.000000:
// measure 0
0000
0000
0000
0000
,  // measure 1
0000
0000
0000
0000
0000
0000
0000
0000
0000
0000
0000
0000
0000
0000
0000
0000
0000
0000
0000
0000
0000
0000
1000
0001
1000
0000
0010
0000
0100
0000
0000
0000
,  // measure 2
0210
0000
0310
0200
0301
0000
0001
0100
0000
0100
0000
0010
0000
1000
0001
0010
,  // measure 3
0100
1000
0100
0000
0010
0000
0010
0100
0000
0100
0000
1000
0000
0100
0010
0001
,  // measure 4
0100
0010
0100
0000
0010
0000
0010
0100
0000
0100
0000
0001
0000
1000
0001
0010
,  // measure 5
0100
1000
0100
0000
0010
0000
0010
0100
0000
0100
0000
1000
0021
0000
1030
0001
,  // measure 6
1200
0000
0310
0200
0301
0000
0001
0100
0000
0100
0000
0010
0000
1000
0001
0010
,  // measure 7
0100
0000
0000
0000
0000
0000
0000
0000
0000
0000
0000
0000
0000
0000
1000
0100
0010
0000
0010
0000
0000
0000
0010
0000
0000
0000
0001
0000
1000
0000
0000
0000
,  // measure 8
0001
0000
0000
0000
0101
0000
0100
0000
0010
0000
0000
0000
0110
0000
0000
0100
,  // measure 9
0000
0001
1000
0000
0001
0000
0010
0000
0100
0000
0010
0000
0001
0000
0000
0100
,  // measure 10
0000
0010
0100
0000
0001
0000
0001
0000
0010
0000
0100
0000
1000
0100
1000
0010
,  // measure 11
0000
0010
0100
0000
0001
0000
1000
0000
0010
0100
0001
0000
0011
0000
0010
0200
,  // measure 12
0000
0300
1000
0000
0100
0010
0001
0000
1000
0000
0010
0100
0001
0000
1000
0100
,  // measure 13
0000
0100
0010
0000
0001
0010
0100
0000
1000
0000
0010
0100
0001
0000
1000
0100
,  // measure 14
0000
0010
0100
0000
1000
0001
0100
0000
0010
0000
0100
0010
1000
0001
0010
0100
,  // measure 15
0000
0100
0010
0000
0001
1000
0100
1000
0001
0100
0001
0000
0010
0000
0100
0010
,  // measure 16
0000
0002
2003
0000
3100
0000
0010
0000
,  // measure 17
0000
0010
0000
0010
,  // measure 18
0000
0002
2003
0000
3010
0000
0100
0000
,  // measure 19
0000
0000
0000
0000
0100
0000
0000
0000
0000
0000
0000
0000
0100
0000
0010
0100
,  // measure 20
0001
1000
0100
0000
1000
0000
0001
1000
0000
0001
1000
0000
0010
0000
1000
0000
,  // measure 21
0001
0010
0100
0000
1000
0000
0010
0100
0000
0010
0100
0000
0021
0000
1030
0000
,  // measure 22
0201
0000
1300
0200
0310
0000
0010
0100
0000
0100
0000
1000
0021
1030
0100
0010
,  // measure 23
0201
0000
0310
0200
1300
0000
0001
0100
0000
0100
0000
0010
0000
0100
1000
0100
,  // measure 24
0001
1000
0100
0000
1000
0000
1000
0001
0000
1000
0001
0000
0010
0000
0001
0000
,  // measure 25
1000
0010
0100
0000
0001
0000
0010
0100
0000
0010
0100
0000
1020
0000
0031
0000
,  // measure 26
1200
0000
0301
0200
0310
0000
0010
0100
0000
0100
0000
0001
1020
0031
0100
0010
,  // measure 27
1200
0000
0310
0200
0301
0000
1000
0100
0000
0100
0000
0010
0000
0100
0001
0100
,  // measure 28
1000
0001
0010
0000
0001
0000
0001
1000
0000
0001
1000
0000
0100
0000
1000
0000
,  // measure 29
0001
0100
0010
0000
1000
0000
0100
0010
0000
0100
0010
0000
0201
0000
1300
0000
,  // measure 30
0021
0000
1030
0020
0130
0000
0100
0010
0000
0010
0000
1000
0201
1300
0010
0100
,  // measure 31
0021
0000
0130
0020
1030
0000
0001
0010
0000
0010
0000
0100
0000
0010
1000
0010
,  // measure 32
0001
1000
0010
0000
1000
0000
1000
0001
0000
1000
0001
0000
0100
0000
0001
0000
,  // measure 33
1000
0100
0010
0000
0001
0000
0100
0010
0000
0100
0010
0000
1200
0000
0301
0000
,  // measure 34
1020
0000
0031
0020
0130
0000
0100
0010
0000
0010
0000
0001
1200
0301
0010
0100
,  // measure 35
1020
0000
0130
0020
0031
0000
1000
0010
0000
0010
0100
0001
0010
0000
0001
0000
,  // measure 36
1000
0000
0000
0000
0010
0000
0000
1000
0000
1000
0001
0001
0010
0000
0100
0000
,  // measure 37
1000
0000
1000
0000
0010
0000
0100
0001
0000
0001
2000
0000
3100
0000
0010
0000
,  // measure 38
0200
0000
0000
0000
0310
0000
0010
0001
0000
0001
1000
1000
0010
0100
0001
1000
,  // measure 39
0100
0000
0010
0000
0100
0000
0010
0000
0002
0000
0000
0000
1003
0010
0100
0000
0000
0000
0000
0000
0000
0000
0000
0000
0000
0000
0000
0000
0000
0000
0000
0000
,  // measure 40
0012
0000
0000
0000
1003
0000
0010
0100
0000
0010
0100
0100
0001
0000
1000
0000
,  // measure 41
0100
0000
0002
0000
0103
0010
0001
1100
0000
0010
1100
0000
0001
0000
1000
0000
,  // measure 42
0100
0000
1000
0000
0001
1000
0001
0000
0010
0000
0100
0000
0010
0000
0001
0000
0000
0000
0100
0000
0010
0000
0010
0000
1000
0000
0000
0000
0001
0000
0000
0000
,  // measure 43
0010
0000
0000
0000
2000
0000
3010
0000
0100
0000
1000
0000
0001
1000
0001
0000
0100
0000
0010
0000
1000
0000
0100
0000
0010
0000
0000
0000
0000
0000
0000
0000
,  // measure 44
0100
1000
0100
1000
0002
0000
0000
0000
0003
0000
0100
0000
0010
0000
0000
0000
,  // measure 45
0100
0000
0000
0000
0010
0000
0000
0000
0000
0000
0100
0000
0010
0100
0000
0000
,  // measure 46
0100
0002
2003
0000
3000
0100
0010
0000
,  // measure 47
0100
0000
0000
0000
,  // measure 48
1001
1000
0100
0000
1000
0000
0001
1000
0000
0001
1000
0000
0010
0000
1000
0000
,  // measure 49
0001
0010
0100
0000
1000
0000
0010
0100
0000
0010
0100
0000
0021
0000
1030
0000
,  // measure 50
0201
0000
1300
0200
0310
0000
0010
0100
0000
0100
0000
1000
0021
1030
0100
0010
,  // measure 51
0201
0000
0310
0200
1300
0000
0001
0100
0000
0100
0000
0010
0000
0100
1000
0100
,  // measure 52
0001
1000
0100
0000
1000
0000
1000
0001
0000
1000
0001
0000
0010
0000
0001
0000
,  // measure 53
1000
0010
0100
0000
0001
0000
0010
0100
0000
0010
0100
0000
1020
0000
0031
0000
,  // measure 54
1200
0000
0301
0200
0310
0000
0010
0100
0000
0100
0000
0001
1020
0031
0100
0010
,  // measure 55
1200
0000
0000
0000
0310
0000
0100
0001
0100
0000
0010
0000
1000
0000
0001
0000
0000
0000
0001
0000
0010
0000
0000
0000
0100
0000
0010
0000
0100
0000
1000
0000
,  // measure 56
0001
0010
0001
0000
1000
0000
0001
1000
0000
0001
1000
0000
0100
0000
1000
0000
,  // measure 57
0001
0100
0010
0000
1000
0000
0100
0010
0000
0100
0010
0000
0201
0000
1300
0000
,  // measure 58
0021
0000
1030
0020
0130
0000
0100
0010
0000
0010
0000
1000
0201
1300
0010
0100
,  // measure 59
0021
0000
0130
0020
1030
0000
0001
0010
0000
0010
0000
0100
0000
0010
1000
0010
,  // measure 60
0001
1000
0010
0000
1000
0000
1000
0001
0000
1000
0001
0000
0100
0000
0001
0000
,  // measure 61
1000
0100
0010
0000
0001
0000
0100
0010
0000
0100
0010
0000
1200
0000
0301
0100
,  // measure 62
0021
0000
1030
0020
0130
0000
0100
0010
1000
0001
1000
0100
1020
0031
0100
0010
,  // measure 63
1200
0000
0310
0000
1000
0000
0001
1000
0100
0000
0010
0000
0002
0000
2000
0000
0000
0000
0000
0000
3003
0000
0000
0000
00M0
0000
0000
0000
0M00
0000
0000
0000
;

//---------------dance-single - Feraligatr----------------
#NOTES:
     dance-single:
     Feraligatr SH:
     Hard:
     9:
     0.657120,0.646009,0.269697,0.584344,0.741667,614.000000,578.000000,36.000000,78.000000,0.000000,0.000000,0.657120,0.646009,0.269697,0.584344,0.741667,614.000000,578.000000,36.000000,78.000000,0.000000,0.000000:
0000
0000
0000
0000
,
0000
0000
0000
0000
,
2100
0000
0001
0000
3010
0000
0100
0001
0000
0001
0000
1000
0000
0100
0010
0001
,
1000
0010
1000
0000
0100
0000
0010
0001
0000
0001
0000
0100
0000
0001
0010
0100
,
1000
0001
1000
0000
0010
0000
0100
0001
0000
0001
0000
1000
0000
0100
0010
0001
,
1000
0010
1000
0000
0100
0000
0010
0001
0000
0001
0000
0100
0110
0000
0000
0000
,
0102
0000
1000
0000
0013
0000
0100
1000
0000
1000
0000
0001
0000
0100
0010
1000
,
0100
0000
0000
0000
0000
0000
0000
0000
0010
0001
0000
1001
0000
1000
0010
0000
,
0110
0000
0000
0000
0101
0000
1000
0000
0001
0000
0000
0000
0010
0000
0000
0100
,
0000
1000
0001
0000
0101
0000
0100
0000
0010
0000
1000
0000
0100
0000
0000
0010
,
0000
0001
1000
0000
1010
0000
0010
0000
0100
0000
0001
0000
1000
0100
0010
0001
,
0000
0001
0100
0000
0110
0000
0010
0000
1000
0100
0010
0000
1000
0000
0010
0001
,
0000
0000
0100
0000
0110
0000
0010
0000
1000
0000
0000
0000
0001
0000
0000
0100
,
0000
0001
1000
0000
1100
0000
0100
0000
0010
0000
0001
0000
0100
0000
0010
1000
,
0000
1000
0001
0000
0011
0000
0010
0000
0100
0000
1000
0000
0001
0100
0001
0010
,
0000
0010
0100
0000
1100
0000
1000
0000
0001
0100
0010
0000
0001
0000
0010
1000
,
0000
0200
0320
0031
2000
0000
3010
1000
,
0002
0000
0013
0100
0010
0000
0001
0000
0200
0000
0000
0000
0310
0000
2000
0000
,
0000
3000
0200
1300
0002
0000
0103
0001
,
2000
0000
3100
0010
0100
0000
1000
0000
0020
0000
0000
0000
0130
0000
0010
1000
,
0100
0010
0100
0000
1000
0000
0001
0100
0000
0001
0100
0000
0010
0000
0001
0000
,
0010
0100
0001
0000
1000
0000
0100
0010
0000
0100
0010
0000
0011
0000
0000
0000
,
2010
0000
3002
0000
0203
0000
0301
1000
0000
1000
0000
0100
2000
3001
0100
0010
,
2000
3001
1000
0000
0010
0000
1000
0001
0000
0001
0000
0010
0000
0001
0100
0010
,
1000
0001
1000
0000
0100
0000
0010
0001
0000
0010
0001
0000
0100
0000
1000
0000
,
0100
0010
1000
0000
0001
0000
0010
0100
0000
0010
0100
0000
1100
0000
0000
0000
,
0201
0000
2300
0000
3200
0000
0320
0000
0032
0000
0023
0000
0200
0300
1030
0001
,
0020
0130
0010
0000
0001
0000
1000
0010
0000
0010
0000
0100
0000
0001
0010
0100
,
1000
0001
1000
0000
0010
0000
0100
0001
0000
0100
0001
0000
0010
0000
1000
0000
,
0010
0100
1000
0000
0001
0000
0100
0010
0000
0100
0010
0000
1010
0000
0000
0000
,
0021
0000
0230
0000
2300
0000
3001
0100
0000
0100
0000
0010
2000
3001
0010
0100
,
2000
3001
1000
0000
0100
0000
0010
0001
0000
0001
0000
0100
0000
0001
0010
0100
,
1000
0001
1000
0000
0010
0000
0100
0001
0000
0100
0001
0000
0010
0000
1000
0000
,
0010
0100
1000
0000
0001
0000
0100
0010
0000
0100
0010
0000
1010
0000
0000
0000
,
0021
0000
2030
0000
3020
0000
0230
0000
0302
0000
0203
0000
0020
0030
1300
0001
,
0200
0310
0100
0000
0001
0000
1000
0200
0000
0310
0001
0000
0101
0000
1010
0000
,
0001
0000
0000
0000
0010
0000
0000
0100
0000
1000
0010
0100
0010
0000
1000
0000
,
0001
0000
0001
0000
0010
0000
0100
2000
0000
3001
0100
0000
1010
0000
0101
0000
,
2000
0000
0000
0000
3100
0000
0010
0001
0000
1000
0010
0100
0010
0000
0000
0000
,
1000
0001
1000
0001
0020
0000
0030
1100
0000
0000
0000
0000
0000
0000
0000
0000
,
2001
0000
0000
0000
3010
0000
0100
0001
0000
0100
0001
1000
0001
0000
0010
0000
,
0100
0000
1000
0000
0010
0100
0001
0010
0000
0001
0010
0000
0100
0000
1000
0000
,
1000
0001
0100
0010
1000
0100
0010
0001
0000
1000
0010
0100
0010
0000
1000
0000
,
0001
0000
0010
0100
1000
0001
0100
0010
0100
0001
1000
0100
0010
0000
0000
0000
,
0000
0000
0002
0103
0020
1030
0001
0010
,
0200
0000
1300
0001
0100
0000
0010
0000
2000
0000
3100
0000
0010
0001
0200
0000
,
0010
0300
2000
3100
0020
0031
1000
0010
,
0200
0300
0000
0000
0000
0000
0000
0000
,
0001
1000
0001
0000
0010
0000
0100
1000
0000
0100
1000
0000
0100
0000
0001
0000
,
0100
0010
0001
0000
1000
0000
0010
0100
0000
0010
0100
0000
0101
0000
0000
0000
,
2100
0000
3002
0000
0023
0000
0031
1000
0000
1000
0000
0010
2000
3001
0010
0100
,
2000
3001
1000
0000
0100
0000
1000
0001
0000
0001
0000
0100
0000
0001
0010
0100
,
1000
0001
1000
0000
0010
0000
0100
0001
0000
0100
0001
0000
0010
0000
1000
0000
,
0010
0100
1000
0000
0001
0000
0100
0010
0000
0100
0010
0000
1010
0000
0000
0000
,
0021
0000
2030
0000
3020
0000
0230
0000
0302
0000
0203
0000
0020
0030
1300
0001
,
0200
0310
0100
0001
1000
0001
0010
0100
0000
1000
0001
0000
0010
0001
0100
0010
,
1000
0001
1000
0000
0100
0000
0010
0001
0000
0010
0001
0000
0100
0000
1000
0000
,
0100
0010
1000
0000
0001
0000
0010
0100
0000
0010
0100
0000
1100
0000
0000
0000
,
0201
0000
0320
0000
2030
0000
3001
0010
0000
0010
0000
0100
2000
3001
0100
0010
,
2000
3001
1000
0000
0010
0000
0100
0001
0000
0001
0000
0010
0000
0001
0100
0010
,
1000
0001
1000
0000
0100
0000
0010
0001
0000
0010
0001
0000
0100
0000
1000
0000
,
0100
0010
1000
0000
0001
0000
0010
0100
0000
0010
0100
0000
1100
0000
0001
0100
,
0020
0000
0032
0000
0023
0000
0230
0000
2300
0000
3200
0000
0020
0030
0301
1000
,
0200
0310
0001
1000
0001
0100
0010
2000
0000
3001
1000
0000
1100
0000
0011
0000
;

//---------------dance-single - Feraligatr----------------
#NOTES:
     dance-single:
     Feraligatr SM:
     Medium:
     6:
     0.416318,0.502452,0.172307,0.089899,0.157323,389.000000,366.000000,23.000000,12.000000,0.000000,0.000000,0.416318,0.502452,0.172307,0.089899,0.157323,389.000000,366.000000,23.000000,12.000000,0.000000,0.000000:
0000
0000
0000
0000
,
0000
0000
0000
0000
,
1100
1000
0010
0000
0100
0001
1000
0100
,
0010
0010
0001
0000
1000
0010
0100
0001
,
1000
1000
0100
0000
0010
0100
1000
0001
,
0100
0100
0010
0000
1000
0100
0011
0000
,
1010
1000
0100
0000
0010
0001
1000
0010
,
0100
0000
0000
0000
0000
0000
0000
0000
0001
1000
0000
0001
0000
1000
0001
0000
,
0010
0000
0000
0000
0110
0000
1000
0000
0010
0000
0000
0000
1000
0000
0000
0100
,
0000
0000
0000
0000
0110
0000
0010
0000
0001
0000
0000
0000
1000
0000
0000
0020
,
0000
0130
0101
0001
1000
0000
0100
0010
,
0000
0001
1000
0000
1010
0000
0000
0000
0001
0100
0001
0000
0010
0000
0100
1000
,
0000
0000
0001
0000
0101
0000
0100
0000
0010
0000
0000
0000
1000
0000
0000
0100
,
0000
0000
0000
0000
0110
0000
0010
0000
0002
0000
0000
0000
2003
0000
0000
3020
,
0000
0130
0010
0000
1010
0000
1000
0000
0001
0000
0000
0000
0010
0000
0000
0100
,
0000
1000
0001
0000
0101
0000
0100
0000
0010
1000
0010
0000
0100
0000
0001
1000
,
0000
0200
0300
0010
,
0000
0010
0000
0010
,
0000
0002
0003
0100
,
0000
0100
0000
0100
,
0001
1000
0001
0000
0010
0000
0000
0000
0100
0000
1000
0000
0010
0000
0001
0000
,
0000
0010
0000
1000
0000
0100
0000
0001
,
0000
0100
1000
0001
0100
0000
0110
0000
,
1010
0000
1000
0000
0100
0010
0001
0010
,
0100
1000
0100
0000
0010
0000
0000
0000
0001
0000
1000
0000
0010
0000
0001
0000
,
0000
0010
0000
1000
0000
0100
0000
0001
,
0000
0100
1000
0001
0100
0010
0000
1000
,
0100
0000
0010
0000
0001
1000
0010
0100
,
0001
1000
0001
0000
0010
0000
0000
0000
0100
0000
1000
0000
0010
0000
0001
0000
,
0000
0010
0000
1000
0000
0100
0000
0001
,
0000
0100
0010
0001
1000
0000
1010
0000
,
0110
0000
0100
0000
0001
0100
0010
1000
,
0010
0100
0010
0000
1000
0000
0000
0000
0001
0000
0010
0000
0100
0000
0001
0000
,
0000
0100
0000
1000
0000
0010
0000
0001
,
0000
0010
1000
0001
0010
0100
1000
0000
,
1100
0000
0001
0000
0100
0001
0010
0100
,
2000
0000
0000
0000
0001
0000
0000
0010
3000
0000
1000
0001
1000
0000
0000
0000
,
0002
0000
0000
0000
0100
0000
0000
1000
0003
0001
1000
0000
0100
0000
0010
0000
,
0002
0000
0000
0000
1000
0000
0000
0100
0003
0000
0001
1000
0001
0000
0000
0000
,
1000
0100
1000
0100
1000
0000
0000
1001
0000
0000
0000
0000
0000
0000
0000
0000
,
0201
0000
0000
0000
0310
0000
1000
0001
0000
1000
0001
0000
0010
0000
0100
0000
,
1000
0000
0010
0000
0010
0000
0100
0001
0000
0100
0001
0000
1000
0000
0100
0000
,
0100
0000
0010
0001
1000
0000
0001
0100
0000
0001
0100
0001
1000
0000
0100
0000
,
0010
0000
0001
0000
1000
0000
0001
0000
0010
0000
0100
1000
0010
0000
0000
0000
,
0000
0000
0200
0000
0300
0100
0001
0000
,
0100
0000
0000
0000
0001
0000
0000
0000
0000
0000
0100
0000
0001
0100
0000
0000
,
0100
0000
0020
0000
0030
0010
1000
0000
,
0010
0000
0000
0000
,
1000
0001
1000
0000
0010
0000
0000
0000
0100
0000
0001
0000
0010
0000
1000
0000
,
0000
0010
0000
0001
0000
0100
0000
1000
,
0000
0100
0001
1000
0100
0000
0110
0000
,
0011
0000
0001
0000
0100
0010
1000
0010
,
0100
0001
0100
0000
0010
0000
0000
0000
1000
0000
0001
0000
0010
0000
1000
0000
,
0000
0010
0000
0001
0000
0100
0000
1000
,
0000
0100
0001
1000
0100
0010
0000
0001
,
0100
0001
0010
0100
1000
0001
0100
0010
,
1000
0001
1000
0000
0100
0000
0000
0000
0010
0000
0001
0000
0100
0000
1000
0000
,
0000
0100
0000
0001
0000
0010
0000
1000
,
0000
0010
0100
1000
0001
0000
0101
0000
,
0110
0000
0010
0000
1000
0010
0100
0001
,
0100
0010
0100
0000
0001
0000
0000
0000
1000
0000
0100
0000
0010
0000
1000
0000
,
0000
0010
0000
0001
0000
0100
0000
1000
,
0000
0100
0001
1000
0100
0010
0001
0000
,
0011
0000
1000
0000
0010
1000
0100
0100
;

//---------------dance-single - Feraligatr----------------
#NOTES:
     dance-single:
     Feraligatr SE:
     Easy:
     3:
     0.278259,0.310433,0.277189,0.014983,0.003746,260.000000,223.000000,37.000000,2.000000,0.000000,0.000000,0.278259,0.310433,0.277189,0.014983,0.003746,260.000000,223.000000,37.000000,2.000000,0.000000,0.000000:
0000
0000
0000
0000
,
0000
0000
0000
0000
,
1000
0010
0100
0001
,
1000
0100
0010
0001
,
1000
0001
0100
0010
,
1000
0001
0010
0110
,
1001
1000
0010
0100
,
0001
0000
0000
0000
,
1001
1000
0001
0010
,
0100
1000
0001
0100
,
0010
1000
0100
0010
,
0100
1000
0010
0001
,
0010
0100
0001
0010
,
0100
1000
0001
0100
,
0010
1000
0001
0010
,
0100
1000
0001
0100
,
0100
0001
0000
0001
,
0000
0001
0000
0001
,
0000
1000
0000
1000
,
0000
1000
0000
1000
,
0100
0010
0100
1000
,
0010
0100
0001
1001
,
0110
1000
0100
0110
,
0110
0010
0001
1000
,
0010
0100
0001
1000
,
0100
1000
0001
0101
,
1010
1000
0001
0011
,
0011
1000
0010
0100
,
0001
1000
0100
1000
,
0010
0100
0001
1001
,
0110
0001
0010
0110
,
0110
0100
1000
0001
,
0100
0001
1000
0100
,
0010
0001
1000
1010
,
0101
0100
0010
1010
,
1010
1000
0001
0000
,
0020
0000
0000
0000
0100
0000
0000
0030
0000
0000
0000
0000
0100
0000
0000
0000
,
1000
1000
0001
0100
,
0020
0000
0000
0000
1000
0000
0000
0000
0000
0000
0000
0030
1000
0000
0000
0000
,
0001
0000
0000
0000
0000
0000
0000
1001
0000
0000
0000
0000
0000
0000
0000
0000
,
1000
0100
0010
0010
,
0001
0100
0100
0010
,
1000
0100
0100
0010
,
0001
1000
0010
0110
,
0000
1000
0000
1000
,
0000
1000
0000
1000
,
0000
0001
0000
0001
,
0000
0000
0000
0000
,
0010
0100
0010
0001
,
0100
0010
1000
1001
,
0110
0001
0010
0110
,
0110
0100
1000
0001
,
0100
0010
1000
0001
,
0010
0001
1000
1010
,
0101
0001
1000
1100
,
1100
0001
0100
0010
,
1000
0001
0010
0001
,
0100
0010
1000
1001
,
0110
1000
0100
0110
,
0110
0010
0001
1000
,
0010
1000
0001
0010
,
0100
1000
0001
0101
,
1010
0010
0100
0101
,
0101
0001
1000
0100
;

//---------------dance-single - Feraligatr----------------
#NOTES:
     dance-single:
     Feraligatr SN:
     Beginner:
     2:
     0.138059,0.165190,0.149832,0.164815,0.000000,129.000000,109.000000,20.000000,22.000000,0.000000,0.000000,0.138059,0.165190,0.149832,0.164815,0.000000,129.000000,109.000000,20.000000,22.000000,0.000000,0.000000:
0000
0000
0000
0000
,
0000
0000
0000
0000
,
1000
0000
0001
0000
,
0010
0000
0001
0000
,
0100
0000
0010
0000
,
1000
0000
0000
1001
,
1001
0000
0000
0000
,
0010
0000
0000
0000
,
0001
0000
1000
0000
,
0100
0000
0010
0010
,
0010
0000
0001
0000
,
0100
0000
0010
0010
,
0010
0000
1000
0000
,
0100
0000
0010
0001
,
0010
0000
0100
0000
,
1000
0000
0001
0100
,
0001
0000
0000
1000
,
0000
1000
0000
1000
,
0000
0000
0000
0001
,
0000
0001
0000
0001
,
0010
0000
0000
0100
,
0000
0000
0000
0110
,
0220
0330
0000
1000
,
1000
0000
0000
0000
,
0001
0000
0100
0000
,
0010
0000
0000
1001
,
2002
3003
0000
0001
,
0001
0000
0000
0000
,
0010
0000
0100
0000
,
1000
0000
0000
0110
,
0220
0330
0000
0001
,
0001
0000
0000
0000
,
1000
0000
0100
0000
,
0010
0000
0000
1001
,
2002
3003
0000
0000
,
0220
0330
0000
0000
,
0002
0000
0003
0000
,
2000
0000
3000
0000
,
0020
0000
0030
0000
,
0200
0000
0000
0000
0000
0000
0000
0300
0000
0000
0000
0000
0000
0000
0000
0000
,
1001
0000
0000
0000
,
1000
1000
1000
0000
,
0001
0000
0000
0000
,
0010
0010
0010
0000
,
0000
0000
0000
1000
,
0000
1000
0000
1000
,
0000
0000
0000
0001
,
0100
0000
0000
0000
,
0001
0000
1000
0000
,
0100
0000
0000
0110
,
0220
0330
0000
1000
,
1000
0000
0000
0000
,
0001
0000
0100
0000
,
0010
0000
0000
1001
,
2002
3003
0000
1000
,
1000
0000
0100
0000
,
0010
0000
0001
0000
,
1000
0000
0000
0110
,
0220
0330
0000
0001
,
0001
0000
0000
0000
,
1000
0000
0010
0000
,
0100
0000
0000
1001
,
2002
3003
0000
1000
,
1000
0000
0000
0000
;
