#TITLE:Glitchtastic;
#SUBTITLE:;
#ARTIST:Husky;
#TITLETRANSLIT:;
#SUBTITLETRANSLIT:;
#ARTISTTRANSLIT:;
#GENRE:;
#CREDIT:;
#BANNER:Glitchtastic-bn.png;
#BACKGROUND:Glitchtastic-bg.png;
#LYRICSPATH:;
#CDTITLE:maxx-cdtitle.png;
#MUSIC:Glitchtastic.ogg;
#OFFSET:-0.118000;
#SAMPLESTART:76.055000;
#SAMPLELENGTH:15.000000;
#SELECTABLE:YES;
#DISPLAYBPM:128.000000;
#BPMS:0.000000=128.000000
,89.000000=192.000000
,89.375000=64.000000
,89.500000=128.000000
,97.000000=192.000000
,97.375000=64.000000
,97.500000=128.000000
,105.000000=192.000000
,105.375000=64.000000
,105.500000=128.000000
,113.000000=192.000000
,113.375000=64.000000
,113.500000=128.000000
,126.000000=192.000000
,126.375000=64.000000
,126.500000=128.000000
,127.000000=192.000000
,127.375000=64.000000
,127.500000=128.000000
,130.000000=192.000000
,130.375000=64.000000
,130.500000=128.000000
,138.000000=192.000000
,138.375000=64.000000
,138.500000=128.000000
,142.000000=192.000000
,142.375000=64.000000
,142.500000=128.000000
,143.000000=192.000000
,143.375000=64.000000
,143.500000=128.000000
,146.000000=192.000000
,146.375000=64.000000
,146.500000=128.000000
,154.000000=192.000000
,154.375000=64.000000
,154.500000=128.000000
,264.000000=192.000000
,264.375000=64.000000
,264.500000=128.000000
;
#STOPS:
;
#BGCHANGES:;
#KEYSOUNDS:;
#ATTACKS:;

//---------------dance-single - Maxx----------------
#NOTES:
     dance-single:
     Maxx:
     Challenge:
     10:
     0.680146,0.771103,0.442325,0.554917,0.707720,592.000000,537.000000,55.000000,69.000000,13.000000,5.000000,0.680146,0.771103,0.442325,0.554917,0.707720,592.000000,537.000000,55.000000,69.000000,13.000000,5.000000:
// measure 0
0000
0000
0000
0000
,  // measure 1
0000
0000
0000
0000
,  // measure 2
0000
0000
0000
0000
,  // measure 3
0000
0000
0000
0000
,  // measure 4
0000
0000
0000
0000
,  // measure 5
0000
0000
0000
0000
,  // measure 6
0000
0000
0000
0000
,  // measure 7
2000
0000
3001
1000
0010
0200
0000
M3MM
,  // measure 8
0002
0000
0000
0000
0000
0000
0000
0000
1003
0000
0000
0000
0000
0000
0000
0000
0100
0000
0000
0000
0000
0000
0000
0000
0010
0000
0000
0000
0000
0000
0000
0000
0001
0000
0000
0000
0000
1000
0000
0000
0001
0000
0000
0000
0000
1000
0000
0000
0010
0000
0000
0000
0000
0000
0000
0000
0100
0000
0000
0000
0000
0001
0000
0000
,  // measure 9
2000
0000
0000
0000
0000
0000
0000
0000
3100
0000
0000
0000
0000
0000
0000
0000
0010
0000
0000
0000
0000
0000
0000
0000
0100
0000
0000
0000
0000
0000
0000
0000
1000
0000
0000
0000
0000
0001
0000
0000
1000
0000
0000
0000
0000
0001
0000
0000
0010
0000
0000
0000
0000
0000
0000
0000
0001
0000
0000
0000
0000
1000
0000
0000
,  // measure 10
0200
0000
0000
0000
0000
0000
0000
0000
0310
0000
0000
0000
0000
0000
0000
0000
0100
0000
0000
0000
0000
0000
0000
0000
1000
0000
0000
0000
0000
0000
0000
0000
0001
0000
0000
0000
0000
1000
0000
0000
0010
0000
0000
0000
0000
1000
0000
0000
0001
0000
0000
0000
0000
0000
0000
0000
0100
0000
0000
0000
0000
0010
0000
0000
,  // measure 11
2000
0000
0000
0000
0000
0000
0000
0000
3100
0000
0000
0000
0000
0000
0000
0000
0010
0000
0000
0000
0000
0000
0000
0000
0100
0000
0000
0000
0000
0000
0000
0000
1000
0000
0000
0000
0000
0001
0000
0000
0100
0000
0000
0000
0000
0001
0000
0000
1000
0000
0000
0000
0000
0000
0000
0000
0100
0000
0000
0000
0000
0010
0000
0000
,  // measure 12
0002
0000
0000
0000
0000
0000
0000
0000
0103
0000
0000
0000
0000
0000
0000
0000
0010
0000
0000
0000
0000
0000
0000
0000
0100
0000
0000
0000
0000
0000
0000
0000
0001
0000
0000
0000
0000
1000
0000
0000
0001
0000
0000
0000
0000
1000
0000
0000
0010
0000
0000
0000
0000
0000
0000
0000
1000
0000
0000
0000
0000
0001
0000
0000
,  // measure 13
0200
0000
0000
0000
0000
0000
0000
0000
0310
0000
0000
0000
0000
0000
0000
0000
0100
0000
0000
0000
0000
0000
0000
0000
0001
0000
0000
0000
0000
0000
0000
0000
1000
0000
0000
0000
0000
0001
0000
0000
1000
0000
0000
0000
0000
0001
0000
0000
0010
0000
0000
0000
0000
0000
0000
0000
0001
0000
0000
0000
0000
1000
0000
0000
,  // measure 14
0200
0000
0000
0000
0000
0000
0000
0000
0310
0000
0000
0000
0000
0000
0000
0000
0100
0000
0000
0000
0000
0000
0000
0000
1000
0000
0000
0000
0000
0000
0000
0000
0001
0000
0000
0000
0000
1000
0000
0000
0010
0000
0000
0000
0000
1000
0000
0000
0001
0000
0000
0000
0000
0000
0000
0000
0100
0000
0000
0000
0000
0010
0000
0000
,  // measure 15
2000
0000
0000
0000
0000
0000
0000
0000
3100
0000
0000
0000
0000
0000
0000
0000
0010
0000
0000
0000
0000
0000
0000
0000
0100
0000
0000
0000
0000
0000
0000
0000
1000
0000
0000
0000
0000
0001
0000
0000
0100
0000
0000
0000
0000
0001
0000
0000
1000
0000
0000
0000
0000
0000
0000
0000
0010
0000
0000
0000
0000
0100
0000
0000
,  // measure 16
0002
0000
0003
0001
0000
0000
0010
0000
0200
0000
0300
0100
0000
0000
0000
0000
,  // measure 17
2000
0000
3000
1000
0000
0000
0001
0000
0200
0000
0300
0100
0000
0000
0000
0000
,  // measure 18
0001
1000
0001
1000
0100
0010
0100
0010
,  // measure 19
0001
1000
0001
1000
0010
0100
0010
1000
0001
0010
0001
0100
0010
1000
0001
0010
,  // measure 20
0100
0000
0000
0000
0000
0000
0100
0000
0000
0000
0000
0000
0100
0000
0000
0000
1000
0000
0000
0000
0001
0000
0000
0000
0000
0000
0000
0000
0000
1000
0000
0000
0001
0000
0000
0000
0000
0100
0000
0000
0000
0000
0000
0000
0000
0010
0000
0000
0100
0000
0000
0000
0000
0002
0000
0000
0000
0000
0000
0000
0000
1003
0000
0000
,  // measure 21
0100
0000
0000
0000
0000
0000
0000
0000
1000
0000
0000
0000
0000
0001
0000
0000
0000
0000
0000
0000
0000
0100
0000
0000
0020
0000
0000
0000
0000
0000
0000
0000
1030
0000
0000
0000
0100
0000
0000
0000
0000
0000
0000
0000
0001
0000
0000
0000
0000
0000
0000
0000
0000
0000
0000
0000
0100
0000
0000
0000
0000
0000
0000
0000
,  // measure 22
0000
0000
0000
0000
0000
1000
0000
0000
0000
0000
0000
0000
0000
0001
0000
0000
2200
0000
0000
0000
0000
0000
0000
0000
3300
0000
0000
0000
0000
0000
0000
0000
0001
0000
0000
0000
0000
1000
0000
0000
0001
0000
0000
0000
0000
0010
0000
0000
0000
0000
0000
0000
0000
0001
0000
0000
0000
0000
0000
0000
0000
0100
0000
0000
,  // measure 23
0010
0000
0000
0000
0000
0000
0000
0000
1000
0000
0000
0000
0000
0001
0000
0000
0000
0000
0000
0000
0000
0000
1000
0000
0000
0000
0000
0000
1000
0000
0000
0000
0001
0000
0000
0000
0000
0000
0000
0000
0010
0000
0000
0000
0000
0000
0001
0000
0000
0000
0000
0000
1000
0000
0000
0000
0000
0000
0001
0000
0000
0000
0000
0000
,  // measure 24
1000
0000
0000
0000
0000
0000
0000
0000
0000
0000
0000
0000
0000
0000
0000
0010
0000
0000
0000
0000
0000
0000
0000
0000
0000
0000
0000
0000
0000
0000
0000
1000
0000
0000
0000
0000
0000
0000
0000
0000
0000
0000
0000
0000
0000
0000
0000
0000
0202
0000
0000
0000
0000
0000
0000
0000
0000
0000
0000
0000
0000
0000
0000
0000
0000
0000
0000
0000
0000
0000
0000
0000
0303
0000
0000
0000
0000
0000
0000
0000
0000
0000
0000
0000
0000
0000
0000
0000
0000
0000
0000
0000
0000
0000
0000
0000
1000
0000
0000
0000
0000
0000
0000
0000
0000
0000
0000
0000
0000
0000
0000
0001
0000
0000
0000
0000
0000
0000
0000
0000
0100
0000
0000
0000
0000
0000
0000
0000
0000
0000
0000
0000
0000
0000
0000
0010
0000
0000
0000
0000
0000
0000
0000
0000
1000
0000
0000
0000
0000
0000
0000
0000
0000
0000
0000
0000
0000
0000
0000
0002
0000
0000
0000
0000
0000
0000
0000
0000
0000
0000
0000
0000
0000
0000
0000
0000
0000
0000
0000
0000
0000
0000
0000
1003
0000
0000
0000
0000
0000
0000
0000
0000
,  // measure 25
0100
0000
0000
0000
0000
0000
0000
0000
1000
0000
0000
0000
0000
0001
0000
0000
0100
0000
0000
0000
0000
0010
0000
0000
2000
0000
0000
0000
0000
0000
0000
0000
3001
0000
0000
0000
0010
0000
0000
0000
0000
0000
0000
0000
1000
0000
0000
0000
0000
0000
0000
0000
0000
0000
0000
0000
0010
0000
0000
0000
0000
0000
0000
0000
,  // measure 26
0000
0000
0000
0000
0000
0001
0000
0000
0000
0000
0000
0000
0000
1000
0000
0000
0202
0000
0000
0000
0000
0000
0000
0000
0303
0000
0000
0000
0000
0000
0000
0000
1000
0000
0000
0000
0000
0001
0000
0000
0100
0000
0000
0000
0000
0010
0000
0000
1000
0000
0000
0000
0000
0002
0000
0000
0000
0000
0000
0000
0000
1003
0000
0000
,  // measure 27
0100
0000
0000
0000
0000
0000
0000
0000
0000
0000
0000
0000
0000
0000
0000
0000
0000
0000
0000
0000
0000
0000
0000
0000
1000
0000
0000
0000
0000
0000
0000
0000
0000
0000
0000
0000
0000
0000
0000
0001
0000
0000
0000
0000
0000
0000
0000
0000
0000
0000
0000
0000
0000
0000
0000
0000
0000
0000
0000
0000
0000
0100
0000
0000
0000
0000
0000
0000
0000
0000
0000
0000
0020
0000
0000
0000
0000
0000
0000
0000
0000
0000
0000
0000
0000
0000
0000
0000
0000
0000
0000
0000
0000
0000
0000
0000
1030
0000
0000
0000
0000
0000
0000
0000
0000
0000
0000
0000
0100
0000
0000
0000
0000
0000
0000
0000
0000
0000
0000
0000
0000
0000
0000
0000
0000
0000
0000
0000
0000
0000
0000
0000
0001
0000
0000
0000
0000
0000
0000
0000
0000
0000
0000
0000
0000
0000
0000
0000
0000
0000
0000
0000
0000
0000
0000
0000
0000
0000
0000
0000
0000
0000
0000
0000
0000
0000
0000
0000
0100
0000
0000
0000
0000
0000
0000
0000
0000
0000
0000
0000
0000
0000
0000
0000
0000
0000
0000
0000
0000
0000
0000
0000
,  // measure 28
0010
0000
0000
0000
0000
0001
0000
0000
0000
0000
0000
0000
0000
0001
0000
0000
2200
0000
0000
0000
0000
0000
0000
0000
3301
0000
0000
0000
0000
0000
0000
0000
0010
0000
0000
0000
0000
0100
0000
0000
0000
0000
0000
0000
0000
1000
0000
0000
0000
0000
0000
0000
0000
0000
0001
0000
0000
0000
0000
0000
0100
0000
0000
0000
,  // measure 29
0010
0000
0000
0000
0000
0000
0000
0000
1000
0000
0000
0000
0000
0000
0000
0000
0002
0000
0000
0000
0000
0000
0000
0000
0000
0000
0000
0000
0003
0000
0000
0000
1000
0000
0000
0000
0000
0001
0000
0000
0000
0000
0000
0000
0000
0010
0000
0000
0000
0000
0000
0000
0000
0000
0001
0000
0000
0000
0000
0000
1000
0000
0000
0000
,  // measure 30
0100
0000
0000
0000
0000
0000
0000
0000
0010
0000
0000
0000
0000
0000
0000
0000
0002
0000
0000
0000
0000
0000
0000
0000
0000
0000
0000
0000
0003
0000
0000
0000
1000
0000
0000
0000
0010
0000
0000
0000
0000
0000
0000
0000
0000
0100
0000
0000
0000
0000
0000
0000
0000
0000
0010
0000
0000
0000
0000
0000
1000
0000
0000
0000
,  // measure 31
0001
0000
0010
0000
0200
0000
0000
0300
2020
0000
3030
0000
2020
0000
3030
0000
,  // measure 32
0001
0000
0000
0000
0000
0000
0000
0000
1000
0000
0000
0000
0000
0100
0000
0000
0000
0000
0000
0000
0000
0010
0000
0000
0000
0000
0000
0000
0000
0010
0000
0000
0202
0000
0000
0000
0000
0000
0000
0000
1303
0000
0000
0000
0000
0010
0000
0000
0000
0000
0000
0000
0000
M010
0000
0000
0001
0000
0000
0000
0000
1000
0000
0000
,  // measure 33
0010
0000
0000
0000
0000
0000
0000
0000
0410
0000
0000
0000
0000
0000
0000
0000
0301
0000
0000
0000
0000
1000
0000
0000
0000
0000
0000
0000
0000
1000
0000
0000
0001
0000
0000
0000
0000
0010
0000
0000
0000
0000
0000
0000
0000
0100
0000
0000
0000
0000
0000
0000
0000
1000
0000
0000
0001
0000
0000
0000
0000
0000
0000
0000
,  // measure 34
0100
0000
0000
0000
0000
0000
0000
0000
0010
0000
0000
0000
0000
1000
0000
0000
0000
0000
0000
0000
0000
0001
0000
0000
0000
0000
0000
0000
0000
0001
0000
0000
2200
0000
0000
0000
0000
0000
0000
0000
3301
0000
0000
0000
0000
0010
0000
0000
0000
0000
0000
0000
0000
001M
0000
0000
1000
0000
0000
0000
0000
0001
0000
0000
,  // measure 35
0010
0000
0000
0000
0000
0000
0000
0000
0410
0000
0000
0000
0000
0000
0000
0000
1300
0000
0000
0000
0000
0001
0000
0000
0000
0000
0000
0000
0000
0001
0000
0000
2200
0000
0000
0000
0000
0000
0000
0000
3300
0000
0000
0000
0000
0000
0000
0000
2200
0000
0000
0000
0000
0000
0000
0000
3300
0000
0000
0000
0000
0000
0000
0000
,  // measure 36
0001
0000
0000
0000
0000
0000
0000
0000
1000
0000
0000
0000
0000
0001
0000
0000
0000
0000
0000
0000
0000
0010
0000
0000
0000
0000
0000
0000
0000
0001
0000
0000
2200
0000
0000
0000
0000
0000
0000
0000
3301
0000
0000
0000
0000
0010
0000
0000
0000
0000
0000
0000
0000
001M
0000
0000
1000
0000
0000
0000
0000
0001
0000
0000
,  // measure 37
0010
0000
0000
0000
0000
0000
0000
0000
0410
0000
0000
0000
0000
0000
0000
0000
1300
0000
0000
0000
0000
0001
0000
0000
0000
0000
0000
0000
0000
0001
0000
0000
1000
0000
0000
0000
0000
0010
0000
0000
0000
0000
0000
0000
0000
0100
0000
0000
0000
0000
0000
0000
0000
0001
0000
0000
1000
0000
0000
0000
0000
0000
0000
0000
,  // measure 38
0100
0000
0000
0000
0000
0000
0000
0000
0010
0000
0000
0000
0000
0001
0000
0000
0000
0000
0000
0000
0000
1000
0000
0000
0000
0000
0000
0000
0000
1000
0000
0000
0202
0000
0000
0000
0000
0000
0000
0000
1303
0000
0000
0000
0000
0010
0000
0000
0000
0000
0000
0000
0000
M010
0000
0000
0001
0000
0000
0000
0000
1000
0000
0000
,  // measure 39
0010
0000
0000
0000
0000
0000
0000
0000
0410
0000
0000
0000
0000
0000
0000
0000
0301
0000
0000
0000
0000
1000
0000
0000
0000
0000
0000
0000
0000
1000
0000
0000
0001
0000
0000
0000
0000
0100
0000
0000
0000
0000
0000
0000
0000
0001
0000
0000
1000
0000
0000
0000
0000
0000
0M01
0000
0000
0000
0000
0000
0000
0000
0000
0000
,  // measure 40
0000
0M01
0000
0000
0000
0000
0000
0M01
0000
0000
0000
0000
0000
0M01
0000
0000
1001
0000
0000
0000
1000
0000
0000
0000
0001
0000
1000
0000
0000
0000
0000
0000
,  // measure 41
1001
0000
1000
0000
0020
0000
0130
0000
0101
0000
0100
0000
0001
1000
0000
0000
,  // measure 42
0101
0000
0001
0000
2000
0000
3100
0000
0011
0000
0010
0000
0001
1000
0000
0000
,  // measure 43
0011
0000
0010
0000
0002
0000
0103
0000
0101
0000
0100
0000
0001
1000
0000
0000
,  // measure 44
1100
0000
0100
0000
2000
0000
3001
0000
0011
0000
0010
0000
0001
1000
0000
0000
,  // measure 45
0011
0000
0010
0000
0002
0000
1003
0000
1010
0000
0010
0000
1000
0001
0000
0000
,  // measure 46
1010
0000
0010
0000
2000
0000
3001
0000
0101
0000
0100
0000
0001
1000
0000
0000
,  // measure 47
0101
0000
0100
0000
0002
0000
1003
0000
1100
0000
0100
0000
1000
0001
0000
0000
,  // measure 48
1100
0000
1000
0000
0002
0000
0003
0000
100M
0100
0000
0010
0001
1000
0000
0000
,  // measure 49
1010
0000
1000
0000
0002
0000
1003
0000
1100
0000
1000
0000
1001
0001
0000
0000
,  // measure 50
1010
0000
1000
0000
0002
0000
0013
0000
0011
0000
0001
0000
1001
1000
0000
0000
,  // measure 51
0101
0000
0001
0000
2000
0000
3100
0000
1100
0000
1000
0000
1001
0001
0000
0000
,  // measure 52
1010
0000
1000
0000
0002
0000
0003
0000
1001
0000
0001
0000
0101
0100
0000
0000
,  // measure 53
1001
0000
0001
0000
0020
0000
0130
0000
1100
0000
1000
0000
1001
0001
0000
0000
,  // measure 54
1010
0000
1000
0000
0200
0000
0310
0000
0011
0000
0001
0000
1001
1000
0000
0000
,  // measure 55
0101
0000
0100
0000
0020
0000
1030
0000
1010
0000
1000
0000
1001
0001
0000
0000
,  // measure 56
1100
1000
0002
0003
1000
0100
0010
2000
,  // measure 57
0000
0000
0000
0000
0000
0000
0000
0000
3010
0000
0000
0000
0000
0000
0000
0000
0001
0000
0000
0000
0000
0000
0000
0000
0100
0000
0000
0000
0000
0010
0000
0000
1000
0000
0000
0000
0000
0000
0000
0000
0100
0000
0000
0000
0000
0000
0000
0000
0010
0000
0000
0000
0000
0000
0000
0000
0100
0000
0000
0000
0000
0000
0000
0000
,  // measure 58
1000
0000
0000
0000
0000
0001
0000
0000
1000
0000
0000
0000
0000
0001
0000
0000
0100
0000
0000
0000
0000
0000
0000
0000
0010
0000
0000
0000
0000
0000
0000
0000
1000
0000
0000
0000
0000
0000
0000
0000
0100
0000
0000
0000
0000
0000
0000
0000
0010
0000
0000
0000
0000
0000
0000
0000
2000
0000
0000
0000
0000
0000
0000
0000
,  // measure 59
0000
0000
0000
0000
0000
0000
0000
0000
3010
0000
0000
0000
0000
0000
0000
0000
0001
0000
0000
0000
0000
0000
0000
0000
0100
0000
0000
0000
0000
0010
0000
0000
1000
0000
0000
0000
0000
0000
0000
0000
0001
0000
0000
0000
0000
0000
0000
0000
0010
0000
0000
0000
0000
0000
0000
0000
0001
0000
0000
0000
0000
0000
0000
0000
,  // measure 60
0100
0000
0000
0000
0000
0010
0000
0000
1000
0000
0000
0000
0000
0001
0000
0000
0100
0000
0000
0000
0000
0000
0000
0000
0010
0000
0000
0000
0000
1000
0000
0000
0001
0000
0000
0000
0000
0000
0000
0000
0100
0000
0000
0000
0000
0000
0000
0000
0010
0000
0000
0000
0000
0000
0000
0000
0002
0000
0000
0000
0000
0000
0000
0000
,  // measure 61
0000
0000
0000
0000
0000
0000
0000
0000
0013
0000
0000
0000
0000
0000
0000
0000
1000
0000
0000
0000
0000
0000
0000
0000
0100
0000
0000
0000
0000
0010
0000
0000
0001
0000
0000
0000
0000
0000
0000
0000
0100
0000
0000
0000
0000
0000
0000
0000
0010
0000
0000
0000
0000
0000
0000
0000
0100
0000
0000
0000
0000
0000
0000
0000
,  // measure 62
0001
0000
0000
0000
0000
1000
0000
0000
0001
0000
0000
0000
0000
1000
0000
0000
0100
0000
0000
0000
0000
0000
0000
0000
0010
0000
0000
0000
0000
0000
0000
0000
0001
0000
0000
0000
0000
0000
0000
0000
0100
0000
0000
0000
0000
0000
0000
0000
0010
0000
0000
0000
0000
0000
0000
0000
0002
0000
0000
0000
0000
0000
0000
0000
,  // measure 63
0000
0000
0000
0000
0000
0000
0000
0000
0013
0000
0000
0000
0000
0000
0000
0000
1000
0000
0000
0000
0000
0000
0000
0000
0100
0000
0000
0000
0000
0010
0000
0000
0001
0000
0000
0000
0000
0000
0000
0000
1000
0000
0000
0000
0000
0000
0000
0000
0010
0000
0000
0000
0000
0000
0000
0000
0100
0000
0000
0000
0000
0000
0000
0000
,  // measure 64
0001
0000
0000
0000
0000
1000
0000
0000
0001
0000
0000
0000
0000
1000
0000
0000
0100
0000
0000
0000
0000
0000
0000
0000
0010
0000
0000
0000
0000
0000
0000
0000
0001
0000
0000
0000
0000
0000
0000
0000
1000
0000
0000
0000
0000
0000
0000
0000
0001
0000
0000
0000
1000
0000
0000
0000
0000
0000
0000
0000
0001
0000
0000
0000
,  // measure 65
1000
0000
0000
0000
0000
0000
0000
0000
0001
0000
0000
0000
0000
0000
0000
0000
0100
0000
0000
0000
0000
0000
0000
0000
0010
0000
0000
0000
0000
0000
1000
0000
0000
0000
0000
0000
0001
0000
0000
0000
0000
0000
1000
0000
0000
0000
0000
0000
0001
0000
0000
0000
0000
0010
0000
0000
0000
0000
0000
0001
0000
0000
0000
0000
,  // measure 66
2200
33M0
0000
0000
0000
0000
0000
0000
;

//---------------dance-single - Benpai----------------
#NOTES:
     dance-single:
     Benpai SH:
     Hard:
     9:
     0.554917,0.558385,0.032169,0.386029,0.530790,483.000000,479.000000,4.000000,48.000000,4.000000,0.000000,0.554917,0.558385,0.032169,0.386029,0.530790,483.000000,479.000000,4.000000,48.000000,4.000000,0.000000:
0000
0000
0000
0000
,
0000
0000
0000
0000
,
0000
0000
0000
0000
,
0000
0000
0000
0000
,
0000
0000
0000
0000
,
0000
0000
0000
0000
,
0000
0000
0000
0000
,
2000
0000
3001
1000
0010
0200
0000
0000
,
0302
0000
0000
0000
0000
0000
0000
0000
1003
0000
0000
0000
0000
0000
0000
0000
0100
0000
0000
0000
0000
0000
0000
0000
0010
0000
0000
0000
0000
0000
0000
0000
0001
0000
0000
0000
0000
0000
0000
0000
1000
0000
0000
0000
0000
0000
0000
0000
0010
0000
0000
0000
0000
0000
0000
0000
0100
0000
0000
0000
0000
0001
0000
0000
,
2000
0000
0000
0000
0000
0000
0000
0000
3100
0000
0000
0000
0000
0000
0000
0000
0010
0000
0000
0000
0000
0000
0000
0000
0001
0000
0000
0000
0000
0000
0000
0000
1000
0000
0000
0000
0000
0000
0000
0000
0001
0000
0000
0000
0000
0000
0000
0000
0100
0000
0000
0000
0000
0000
0000
0000
0010
0000
0000
0000
0000
1000
0000
0000
,
0200
0000
0000
0000
0000
0000
0000
0000
0310
0000
0000
0000
0000
0000
0000
0000
0100
0000
0000
0000
0000
0000
0000
0000
1000
0000
0000
0000
0000
0000
0000
0000
0001
0000
0000
0000
0000
0000
0000
0000
0100
0000
0000
0000
0000
0000
0000
0000
0010
0000
0000
0000
0000
0000
0000
0000
1000
0000
0000
0000
0000
0001
0000
0000
,
0020
0000
0000
0000
0000
0000
0000
0000
0130
0000
0000
0000
0000
0000
0000
0000
1000
0000
0000
0000
0000
0000
0000
0000
0001
0000
0000
0000
0000
0000
0000
0000
0100
0000
0000
0000
0000
0000
0000
0000
0010
0000
0000
0000
0000
0000
0000
0000
1000
0000
0000
0000
0000
0000
0000
0000
0010
0000
0000
0000
0000
0100
0000
0000
,
0002
0000
0000
0000
0000
0000
0000
0000
1003
0000
0000
0000
0000
0000
0000
0000
0100
0000
0000
0000
0000
0000
0000
0000
0010
0000
0000
0000
0000
0000
0000
0000
0100
0000
0000
0000
0000
0000
0000
0000
1000
0000
0000
0000
0000
0000
0000
0000
0001
0000
0000
0000
0000
0000
0000
0000
1000
0000
0000
0000
0000
0010
0000
0000
,
0200
0000
0000
0000
0000
0000
0000
0000
0301
0000
0000
0000
0000
0000
0000
0000
1000
0000
0000
0000
0000
0000
0000
0000
0001
0000
0000
0000
0000
0000
0000
0000
0010
0000
0000
0000
0000
0000
0000
0000
0100
0000
0000
0000
0000
0000
0000
0000
1000
0000
0000
0000
0000
0000
0000
0000
0001
0000
0000
0000
0000
1000
0000
0000
,
0020
0000
0000
0000
0000
0000
0000
0000
0130
0000
0000
0000
0000
0000
0000
0000
0001
0000
0000
0000
0000
0000
0000
0000
1000
0000
0000
0000
0000
0000
0000
0000
0001
0000
0000
0000
0000
0000
0000
0000
0010
0000
0000
0000
0000
0000
0000
0000
0100
0000
0000
0000
0000
0000
0000
0000
1000
0000
0000
0000
0000
0001
0000
0000
,
0200
0310
1000
0001
0100
0010
0100
0001
,
1000
0000
0000
1000
0000
0000
0100
0000
0010
0000
0000
0010
0000
0000
0000
0000
,
0001
0000
0000
0001
0000
0000
1000
0000
0010
0000
0000
0010
0000
0000
0000
0000
,
0100
0001
0100
0001
1000
0100
1000
0100
,
0010
0010
0001
0001
1000
1000
0010
0010
,
0400
0000
0000
0000
0000
0000
0000
0000
0000
0000
0000
0000
0301
0000
0000
0000
1000
0000
0000
0000
0001
0000
0000
0000
0000
0000
0000
0000
0000
0010
0000
0000
0000
0000
0000
0000
0000
0001
0000
0000
0000
0000
0000
0000
0000
1000
0000
0000
0000
0000
0000
0000
0000
0020
0000
0000
0000
0000
0000
0000
0000
0030
0000
0000
,
0100
0000
0000
0000
0000
0000
0000
0000
0001
0000
0000
0000
0000
1000
0000
0000
0000
0000
0000
0000
0000
0001
0000
0000
0020
0000
0000
0000
0000
0000
0000
0000
0130
0000
0000
0000
1000
0000
0000
0000
0000
0000
0000
0000
0001
0000
0000
0000
0000
0000
0000
0000
0000
0000
0000
0000
0100
0000
0000
0000
0000
0000
0000
0000
,
0000
0000
0000
0000
0000
0010
0000
0000
0000
0000
0000
0000
0000
1000
0000
0000
0200
0000
0000
0000
0000
0000
0000
0000
0300
0000
0000
0000
0000
0000
0000
0000
1000
0000
0000
0000
0000
0001
0000
0000
0000
0000
0000
0000
0000
0010
0000
0000
0000
0000
0000
0000
0000
0001
0000
0000
0000
0000
0000
0000
0000
1000
0000
0000
,
0010
0000
0000
0000
0000
0000
0000
0000
0100
0000
0000
0000
0000
0001
0000
0000
0000
0000
0000
0000
0000
0000
1000
0000
0000
0000
0000
0000
0100
0000
0000
0000
1000
0000
0000
0000
0000
0000
0000
0000
0001
0000
0000
0000
0000
0000
0100
0000
0000
0000
0000
0000
0001
0000
0000
0000
0000
0000
0100
0000
0000
0000
0000
0000
,
0010
0000
0000
0000
0000
0000
0000
0000
0000
0000
0000
0000
0000
0000
0000
1000
0000
0000
0000
0000
0000
0000
0000
0000
0000
0000
0000
0000
0000
0000
0000
0100
0000
0000
0000
0000
0000
0000
0000
0000
0000
0000
0000
0000
0000
0000
0000
0000
0020
0000
0000
0000
0000
0000
0000
0000
0000
0000
0000
0000
0000
0000
0000
0000
0000
0000
0000
0000
0000
0000
0000
0000
0030
0000
0000
0000
0000
0000
0000
0000
0000
0000
0000
0000
0000
0000
0000
0000
0000
0000
0000
0000
0000
0000
0000
0000
0100
0000
0000
0000
0000
0000
0000
0000
0000
0000
0000
0000
0000
0000
0000
1000
0000
0000
0000
0000
0000
0000
0000
0000
0000
0000
0000
0000
0000
0000
0000
0000
0000
0000
0000
0000
0000
0000
0000
0001
0000
0000
0000
0000
0000
0000
0000
0000
0000
0000
0000
0000
0000
0000
0000
0000
0000
0000
0000
0000
0000
0000
0000
0200
0000
0000
0000
0000
0000
0000
0000
0000
0000
0000
0000
0000
0000
0000
0000
0000
0000
0000
0000
0000
0000
0000
0000
0300
0000
0000
0000
0000
0000
0000
0000
0000
,
0010
0000
0000
0000
0000
0000
0000
0000
1000
0000
0000
0000
0000
0001
0000
0000
0000
0000
0000
0000
0000
1000
0000
0000
0200
0000
0000
0000
0000
0000
0000
0000
0310
0000
0000
0000
0001
0000
0000
0000
0000
0000
0000
0000
1000
0000
0000
0000
0000
0000
0000
0000
0000
0000
0000
0000
0010
0000
0000
0000
0000
0000
0000
0000
,
0000
0000
0000
0000
0000
0100
0000
0000
0000
0000
0000
0000
0000
0001
0000
0000
0020
0000
0000
0000
0000
0000
0000
0000
0030
0000
0000
0000
0000
0000
0000
0000
0100
0000
0000
0000
0000
0010
0000
0000
0000
0000
0000
0000
0000
0001
0000
0000
0000
0000
0000
0000
0000
2000
0000
0000
0000
0000
0000
0000
0000
3000
0000
0000
,
0010
0000
0000
0000
0000
0000
0000
0000
0000
0000
0000
0000
0000
0000
0000
0000
0000
0000
0000
0000
0000
0000
0000
0000
0100
0000
0000
0000
0000
0000
0000
0000
0000
0000
0000
0000
0000
0000
0000
0001
0000
0000
0000
0000
0000
0000
0000
0000
0000
0000
0000
0000
0000
0000
0000
0000
0000
0000
0000
0000
0000
0100
0000
0000
0000
0000
0000
0000
0000
0000
0000
0000
0020
0000
0000
0000
0000
0000
0000
0000
0000
0000
0000
0000
0000
0000
0000
0000
0000
0000
0000
0000
0000
0000
0000
0000
1030
0000
0000
0000
0000
0000
0000
0000
0000
0000
0000
0000
0001
0000
0000
0000
0000
0000
0000
0000
0000
0000
0000
0000
0000
0000
0000
0000
0000
0000
0000
0000
0000
0000
0000
0000
0010
0000
0000
0000
0000
0000
0000
0000
0000
0000
0000
0000
0000
0000
0000
0000
0000
0000
0000
0000
0000
0000
0000
0000
0000
0000
0000
0000
0000
0000
0000
0000
0000
0000
0000
0000
0100
0000
0000
0000
0000
0000
0000
0000
0000
0000
0000
0000
0000
0000
0000
0000
0000
0000
0000
0000
0000
0000
0000
0000
,
0000
0000
0000
0000
0000
1000
0000
0000
0000
0000
0000
0000
0000
0001
0000
0000
0200
0000
0000
0000
0000
0000
0000
0000
0310
0000
0000
0000
0000
0000
0000
0000
0100
0000
0000
0000
0000
0001
0000
0000
0000
0000
0000
0000
0000
1000
0000
0000
0000
0000
0000
0000
0000
0000
0001
0000
0000
0000
0000
0000
0010
0000
0000
0000
,
0100
0000
0000
0000
0000
0000
0000
0000
1000
0000
0000
0000
0000
0000
0000
0000
0002
0000
0000
0000
0000
0000
0000
0000
0000
0000
0000
0000
0003
0000
0000
0000
1000
0000
0000
0000
0000
0001
0000
0000
0000
0000
0000
0000
0000
0010
0000
0000
0000
0000
0000
0000
0000
0000
0001
0000
0000
0000
0000
0000
1000
0000
0000
0000
,
0100
0000
0000
0000
0000
0000
0000
0000
0010
0000
0000
0000
0000
0000
0000
0000
0002
0000
0000
0000
0000
0000
0000
0000
0000
0000
0000
0000
0003
0000
0000
0000
1000
0000
0000
0000
0010
0000
0000
0000
0000
0000
0000
0000
0000
0100
0000
0000
0000
0000
0000
0000
0000
0000
0010
0000
0000
0000
0000
0000
1000
0000
0000
0000
,
0001
0000
0010
0000
0200
0000
0000
0300
2000
0000
3000
0000
2000
0000
3000
0000
,
0001
0000
0000
0000
0000
0000
0000
0000
1000
0000
0000
0000
0000
0010
0000
0000
0000
0000
0000
0000
0000
0100
0000
0000
0001
0000
0000
0000
0000
0000
0000
0000
0020
0000
0000
0000
0000
0000
0000
0000
0130
0000
0000
0000
0000
1000
0000
0000
0000
0000
0000
0000
0000
0001
0000
0000
0100
0000
0000
0000
0000
0000
0000
0000
,
0010
0000
0000
0000
0000
0000
0000
0000
4000
0000
0000
0000
0000
0000
0000
0000
3001
0000
0000
0000
0000
0100
0000
0000
0000
0000
0000
0000
0000
0010
0000
0000
0000
0000
0000
0000
0000
1000
0000
0000
0000
0000
0000
0000
0000
0001
0000
0000
0000
0000
0000
0000
0000
0010
0000
0000
0100
0000
0000
0000
0000
0000
0000
0000
,
0010
0000
0000
0000
0000
0000
0000
0000
0001
0000
0000
0000
0000
1000
0000
0000
0000
0000
0000
0000
0000
0001
0000
0000
0100
0000
0000
0000
0000
0000
0000
0000
0020
0000
0000
0000
0000
0000
0000
0000
0130
0000
0000
0000
0000
0001
0000
0000
0000
0000
0000
0000
0000
1000
0000
0000
0001
0000
0000
0000
0000
0000
0000
0000
,
0010
0000
0000
0000
0000
0000
0000
0000
0400
0000
0000
0000
0000
0000
0000
0000
1300
0000
0000
0000
0000
0001
0000
0000
0100
0000
0000
0000
0000
0000
0000
0000
0210
0000
0000
0000
0000
0000
0000
0000
0300
0000
0000
0000
0000
0000
0000
0000
0210
0000
0000
0000
0000
0000
0000
0000
0300
0000
0000
0000
0000
0000
0000
0000
,
0001
0000
0000
0000
0000
0000
0000
0000
1000
0000
0000
0000
0000
0001
0000
0000
0000
0000
0000
0000
0000
0010
0000
0000
0100
0000
0000
0000
0000
0000
0000
0000
2000
0000
0000
0000
0000
0000
0000
0000
3001
0000
0000
0000
0000
0100
0000
0000
0000
0000
0000
0000
0000
0010
0000
0000
0000
0000
0000
0000
0000
1000
0000
0000
,
0001
0000
0000
0000
0000
0000
0000
0000
0040
0000
0000
0000
0000
0000
0000
0000
0130
0000
0000
0000
0000
1000
0000
0000
0000
0000
0000
0000
0000
0001
0000
0000
0000
0000
0000
0000
0000
0100
0000
0000
0000
0000
0000
0000
0000
0010
0000
0000
0000
0000
0000
0000
0000
1000
0000
0000
0001
0000
0000
0000
0000
0000
0000
0000
,
0100
0000
0000
0000
0000
0000
0000
0000
0010
0000
0000
0000
0000
1000
0000
0000
0000
0000
0000
0000
0000
0001
0000
0000
0010
0000
0000
0000
0000
0000
0000
0000
0200
0000
0000
0000
0000
0000
0000
0000
1300
0000
0000
0000
0000
0001
0000
0000
0000
0000
0000
0000
0000
0100
0000
0000
0000
0000
0000
0000
0000
0010
0000
0000
,
1000
0000
0000
0000
0000
0000
0000
0000
0004
0000
0000
0000
0000
0000
0000
0000
1003
0000
0000
0000
0000
0100
0000
0000
0000
0000
0000
0000
0000
0010
0000
0000
0000
0000
0000
0000
0000
0100
0000
0000
0000
0000
0000
0000
0000
1000
0000
0000
0000
0000
0000
0000
0000
0000
00M0
0000
0000
0000
0000
0000
0000
0000
0000
0000
,
0000
00M0
0000
0000
0000
0000
0000
00M0
0000
0000
0000
0000
0000
00M0
0000
0000
0101
0000
0000
0000
0100
0000
0000
0000
0001
0000
1000
0000
0000
0000
0000
0000
,
0001
0000
0001
0000
0200
0000
0301
0000
0010
0000
0010
0000
0100
1000
0000
0000
,
0100
0000
0100
0000
0010
0000
0100
0000
1000
0000
1000
0000
0001
0100
0000
0000
,
0010
0000
0010
0000
2000
0000
3010
0000
0100
0000
0100
0000
0001
1000
0000
0000
,
0001
0000
0001
0000
2000
0000
3001
0000
0010
0000
0010
0000
0001
1000
0000
0000
,
0001
0000
0001
0000
0020
0000
0031
0000
0100
0000
0100
0000
0010
1000
0000
0000
,
0010
0000
0010
0000
0100
0000
0010
0000
1000
0000
1000
0000
0001
1000
0000
0000
,
0100
0000
0100
0000
2000
0000
3100
0000
0010
0000
0010
0000
0001
1000
0000
0000
,
0001
0000
0001
0000
0200
0000
0300
0000
0010
0100
0000
0001
1000
0100
0000
0000
,
0010
0000
0010
0000
0002
0000
1003
0000
0010
0000
0010
0000
0100
0001
0000
0000
,
1000
0000
1000
0000
0010
0000
1000
0000
0001
0000
0001
0000
1000
0100
0000
0000
,
0010
0000
0010
0000
0100
0000
0010
0000
0001
0000
0001
0000
1000
0001
0000
0000
,
0100
0000
0100
0000
0020
0000
0030
0000
1001
0000
1000
0000
0100
0010
0000
0000
,
0100
0000
0100
0000
2000
0000
3001
0000
0100
0000
0100
0000
0010
1000
0000
0000
,
0001
0000
0001
0000
2000
0000
3001
0000
0010
0000
0010
0000
0100
0010
0000
0000
,
0001
0000
0001
0000
2000
0000
3010
0000
0100
0000
0100
0000
0001
1000
0000
0000
,
0001
0001
0020
0030
0100
1000
0010
0200
,
0000
0000
0000
0000
0000
0000
0000
0000
0301
0000
0000
0000
0000
0000
0000
0000
1000
0000
0000
0000
0000
0000
0000
0000
0100
0000
0000
0000
0000
0010
0000
0000
0001
0000
0000
0000
0000
0000
0000
0000
1000
0000
0000
0000
0000
0000
0000
0000
0010
0000
0000
0000
0000
0000
0000
0000
0100
0000
0000
0000
0000
0000
0000
0000
,
0001
0010
0001
1000
0100
0010
0001
0200
,
0000
0000
0000
0000
0000
0000
0000
0000
0310
0000
0000
0000
0000
0000
0000
0000
1000
0000
0000
0000
0000
0000
0000
0000
0001
0000
0000
0000
0000
0010
0000
0000
0100
0000
0000
0000
0000
0000
0000
0000
1000
0000
0000
0000
0000
0000
0000
0000
0001
0000
0000
0000
0000
0000
0000
0000
0100
0000
0000
0000
0000
0000
0000
0000
,
0010
0000
0000
0000
0000
0000
0000
0000
1000
0000
0000
0000
0000
0000
0000
0000
0001
0000
0000
0000
0000
0000
0000
0000
0010
0000
0000
0000
0000
0100
0000
0000
1000
0000
0000
0000
0000
0000
0000
0000
0001
0000
0000
0000
0000
0000
0000
0000
0100
0000
0000
0000
0000
0000
0000
0000
0020
0000
0000
0000
0000
0000
0000
0000
,
0000
0000
0000
0000
0000
0000
0000
0000
1030
0000
0000
0000
0000
0000
0000
0000
0001
0000
0000
0000
0000
0000
0000
0000
0010
0000
0000
0000
0000
0001
0000
0000
1000
0000
0000
0000
0000
0000
0000
0000
0010
0000
0000
0000
0000
0000
0000
0000
0100
0000
0000
0000
0000
0000
0000
0000
0001
0000
0000
0000
0000
0000
0000
0000
,
1000
0100
0010
0001
1000
0010
1000
0200
,
0000
0000
0000
0000
0000
0000
0000
0000
0310
0000
0000
0000
0000
0000
0000
0000
0001
0000
0000
0000
0000
0000
0000
0000
0100
0000
0000
0000
0000
0010
0000
0000
1000
0000
0000
0000
0000
0000
0000
0000
0001
0000
0000
0000
0000
0000
0000
0000
1000
0000
0000
0000
0000
0000
0000
0000
0100
0000
0000
0000
0000
0000
0000
0000
,
0010
0000
0001
0000
1000
0000
0010
0000
0100
0000
0010
0000
1000
0001
0000
1000
,
0001
0000
0000
0000
0000
0000
0000
0000
1000
0000
0000
0000
0000
0000
0000
0000
0100
0000
0000
0000
0000
0000
0000
0000
0010
0000
0000
0000
0000
0000
0001
0000
0000
0000
0000
0000
1000
0000
0000
0000
0000
0000
0001
0000
0000
0000
0000
0000
0100
0000
0000
0000
0000
0010
0000
0000
0000
0000
0000
1000
0000
0000
0000
0000
,
0200
0300
0000
0000
0000
0000
0000
0000
;

//---------------dance-single - Benpai----------------
#NOTES:
     dance-single:
     Benpai SN:
     Beginner:
     1:
     0.096507,0.132949,0.008042,0.072380,0.000000,84.000000,83.000000,1.000000,9.000000,0.000000,0.000000,0.096507,0.132949,0.008042,0.072380,0.000000,84.000000,83.000000,1.000000,9.000000,0.000000,0.000000:
0000
0000
0000
0000
,
0000
0000
0000
0000
,
0000
0000
0000
0000
,
0000
0000
0000
0000
,
0000
0000
0000
0000
,
0000
0000
0000
0000
,
0000
0000
0000
0000
,
0000
0000
0000
0000
,
0001
0000
0000
0000
,
0100
0000
0000
0000
,
0010
0000
0000
0000
,
1000
0000
0000
0000
,
0001
0000
0000
0000
,
0010
0000
0000
0000
,
0100
0000
0000
0000
,
1000
0000
0000
0000
,
0001
0000
0000
0000
,
0001
0000
0000
0000
,
0100
0000
0000
0000
,
0100
0000
0100
0000
,
0010
0000
1000
0000
,
1000
0000
0100
0000
,
0000
0000
2000
3000
0000
0000
0000
0000
,
0001
0000
0100
0000
,
0000
1001
0000
0000
,
0001
0000
0001
0000
,
0000
0000
0200
0300
0000
0000
0000
0000
,
0010
0000
1000
0000
,
0000
0000
0200
0300
0000
0000
0000
0000
,
0000
0000
0010
0000
,
0000
0000
0010
0000
,
0000
0000
0000
0000
0002
0003
0002
0003
,
0001
0000
0000
0000
,
0100
0000
0000
0000
,
0001
0000
0000
0000
,
1000
0000
0000
0000
0200
0300
0200
0300
,
0100
0000
0000
0000
,
0010
0000
0000
0000
,
0001
0000
0000
0000
,
1000
0000
0000
0000
,
0010
0000
0100
0000
,
0100
0000
0001
0000
,
0001
0000
0010
0000
,
0010
0000
0100
0000
,
0100
0000
1000
0000
,
1000
0000
0001
0000
,
0001
0000
0100
0000
,
0100
0000
0010
0000
,
0010
0000
0000
0000
,
1000
0000
0100
0000
,
0100
0000
1000
0000
,
1000
0000
0001
0000
,
0001
0000
0100
0000
,
0100
0000
0010
0000
,
0010
0000
1000
0000
,
1000
0000
0001
0000
,
0001
0000
0100
0000
,
0000
0000
0010
0000
,
0000
0000
1000
0000
,
0000
0000
0001
0000
,
0000
0000
0010
0000
,
0000
0000
0100
0000
,
0000
0000
1000
0000
,
0000
0000
0002
0000
,
0000
0000
1003
0000
,
0000
0000
0000
0000
,
0200
0300
0000
0000
0000
0000
0000
0000
;

//---------------dance-single - Benpai----------------
#NOTES:
     dance-single:
     Benpai SE:
     Easy:
     3:
     0.228630,0.292487,0.064338,0.209099,0.000000,199.000000,191.000000,8.000000,26.000000,0.000000,0.000000,0.228630,0.292487,0.064338,0.209099,0.000000,199.000000,191.000000,8.000000,26.000000,0.000000,0.000000:
0000
0000
0000
0000
,
0000
0000
0000
0000
,
0000
0000
0000
0000
,
0000
0000
0000
0000
,
0000
0000
0000
0000
,
0000
0000
0000
0000
,
0000
0000
0000
0000
,
0000
0000
0000
0000
,
0001
0000
0001
1000
,
0100
0000
0100
0010
,
0001
0000
0001
1000
,
0010
0000
0010
0100
,
0001
0000
0001
1000
,
0100
0000
0100
1000
,
0001
0000
0001
0100
,
0010
0000
0010
1000
,
0001
0000
0001
0000
,
1000
0000
1000
0000
,
0100
0100
0100
0100
,
0040
0000
0034
0000
,
1003
0000
0010
0000
,
0100
0001
1000
0000
,
0100
0000
0020
0030
0100
0000
0000
0000
,
1000
0001
0200
0000
,
0310
1010
1000
0000
,
0001
0010
0100
0000
,
1000
0000
0200
0300
1000
0000
0000
0000
,
0001
0100
0010
0000
,
1000
0000
0002
0003
1000
0000
0000
0000
,
0010
0000
1000
0000
,
0001
0000
1000
0000
,
0100
0000
0000
0000
2002
3003
2002
3003
,
0001
0000
0010
0000
0200
0300
0010
0000
,
0001
1000
0010
0100
,
0001
0000
1000
0000
0200
0300
0010
0000
,
0100
0000
1000
0000
2002
3003
2002
3003
,
0001
0000
0100
0000
0020
0030
0100
0000
,
0001
1000
0100
1000
,
0001
0000
0100
0000
0020
0030
1000
0000
,
0001
0010
0100
1000
,
0010
0000
0110
0100
,
0001
1000
0100
1000
,
0001
1000
0010
0100
,
0010
1000
0100
0010
,
0001
0010
0100
1000
,
0001
1000
0010
0100
,
0001
1000
0100
1000
,
0001
1000
0010
0100
,
0010
1000
0000
0001
,
1001
1000
0100
1000
,
0001
0100
0010
1000
,
0010
0100
0001
1000
,
0001
0020
0130
1000
,
0001
1000
0010
0100
,
0001
0100
0010
1000
,
0001
1000
0100
1000
,
0001
0100
0020
0000
,
1030
0001
0020
0000
,
0130
1000
0002
0000
,
0103
0010
2000
0000
,
3001
1000
0200
0000
,
0310
0001
0200
0000
,
0310
1000
0002
0000
,
0013
0100
2000
0000
,
3001
0001
0100
0000
,
0000
0010
0000
1000
,
2001
3000
0000
0000
0000
0000
0000
0000
;

//---------------dance-single - Benpai----------------
#NOTES:
     dance-single:
     Benpai SM:
     Medium:
     7:
     0.376838,0.372257,0.040211,0.265395,0.048254,328.000000,323.000000,5.000000,33.000000,0.000000,0.000000,0.376838,0.372257,0.040211,0.265395,0.048254,328.000000,323.000000,5.000000,33.000000,0.000000,0.000000:
0000
0000
0000
0000
,
0000
0000
0000
0000
,
0000
0000
0000
0000
,
0000
0000
0000
0000
,
0000
0000
0000
0000
,
0000
0000
0000
0000
,
0000
0000
0000
0000
,
0000
0000
0000
0000
,
0001
1000
0100
1000
0000
0001
1000
0000
,
0010
0100
0001
0100
0000
0010
1000
0000
,
0001
0010
0100
0010
0000
0001
1000
0000
,
0001
0100
0010
0100
0000
0001
1000
0000
,
0100
0010
0001
0010
0000
0100
1000
0000
,
0001
1000
0010
1000
0000
0001
0100
0000
,
0010
1000
0001
1000
0000
0100
0010
0000
,
0100
1000
0001
1000
0000
0010
0100
0000
,
0001
0000
0001
1000
0100
0000
0100
0000
,
0010
0000
0010
0001
1000
0000
1000
0000
,
0010
0100
0001
1000
0100
0010
0001
1000
,
0040
0000
0430
0000
,
0300
0000
0001
0000
1000
0001
0100
0000
,
0010
0000
1000
0000
0001
0000
0000
0000
0010
0000
0000
0100
0000
0000
0010
0000
,
0000
0001
0000
0000
2000
0000
3000
0000
0010
0000
0100
0000
0001
0000
0000
0000
,
1000
0000
0100
0000
4000
0000
0000
3000
0001
0000
0200
0000
0000
0302
0000
0000
,
2003
0000
0000
3000
1200
0000
0300
0000
0100
0000
0010
0000
0001
0000
0000
0000
,
1000
0000
0010
0000
0100
0000
0000
0000
0001
0000
0000
0010
0000
0000
0100
0000
,
0000
1000
0000
0000
0002
0000
0003
0000
0100
0000
0010
0000
1000
0000
0000
0000
,
0001
0000
1000
0000
0100
0000
0000
0000
0010
0000
0000
0001
0000
0000
1000
0000
,
0000
0010
0000
0000
0200
0000
0301
0000
1000
0000
0000
0000
0000
0000
0000
0000
,
0100
0010
0100
0000
1000
0000
0000
0000
,
0010
0100
0010
0000
1000
0000
0000
0000
,
0100
0010
0100
0000
2002
3003
2002
3003
,
0001
0000
0100
0010
2000
3001
0010
0000
,
0100
1000
0001
0000
0100
0001
1000
0000
,
0001
0010
0100
0000
0020
0031
1000
0000
,
0010
0100
0001
0000
2002
3003
2002
3003
,
1000
0100
0010
0000
0200
1300
0001
0000
,
0100
0010
1000
0000
0001
0010
0100
0000
,
0010
0001
1000
0000
0002
0103
0010
0000
,
0100
0001
1000
0000
0100
0010
0100
1000
,
0000
1000
0000
0000
1000
0000
0000
1000
0001
0000
0001
0000
0100
0000
0000
0000
,
0010
0010
1000
0000
0100
0100
1000
0000
,
0001
0001
0100
0000
0010
0010
1000
0000
,
0001
0001
1000
0000
0100
0100
0010
0000
,
0001
0001
0100
0010
1000
1000
0001
0000
,
0010
0010
0100
0000
1000
1000
0001
0000
,
0100
0100
0001
0000
0010
0010
0100
0000
,
0010
0010
0001
0000
1000
1000
0010
0000
,
0100
0000
0100
0000
0001
0000
0000
0000
1000
0000
0000
0100
0000
0010
0000
0000
,
0001
0001
1000
0000
0010
0010
0100
0000
,
0001
0001
1000
0000
0100
0100
1000
0000
,
0001
0001
0100
0000
0010
0010
1000
0000
,
0100
0100
0020
0000
0031
1000
0010
0000
,
0100
0100
0001
0000
0010
0010
0100
0000
,
1000
1000
0001
0000
0100
0100
0010
0000
,
1000
1000
0001
0000
0100
0100
0001
0000
,
1000
1000
0100
0000
0020
0000
0031
1000
,
0010
0100
0001
0000
0002
0000
0100
0000
,
1000
0000
0100
0000
2003
0000
3100
0010
,
0001
1000
0010
0000
0020
0000
0100
0000
,
1000
0000
0100
0000
2030
0000
3001
0100
,
0010
1000
0100
0000
0200
0000
0010
0000
,
1000
0000
0010
0000
2300
0000
3001
0100
,
0010
1000
0001
0000
0002
0000
0010
0000
,
1000
0100
1003
0000
,
1000
0000
0000
0000
0200
0000
0000
0320
0000
0000
0032
0000
0000
0000
2003
0000
,
3020
0030
0000
0000
0000
0000
0000
0000
;
