#VERSION:0.83;
#TITLE:Glacier;
#SUBTITLE:;
#ARTIST:Braven;
#TITLETRANSLIT:;
#SUBTITLETRANSLIT:;
#ARTISTTRANSLIT:;
#GENRE:;
#ORIGIN:;
#CREDIT:;
#BANNER:Glacier-bn.png;
#BACKGROUND:Glacier-bg-wide.png;
#PREVIEWVID:;
#JACKET:Glacier-jacket.png;
#CDIMAGE:;
#DISCIMAGE:Glacier-bg.png;
#LYRICSPATH:;
#CDTITLE:benpai-xrgtmx-cdtitle.png;
#MUSIC:Glacier.ogg;
#OFFSET:0.009000;
#SAMPLESTART:22.658001;
#SAMPLELENGTH:21.333000;
#SELECTABLE:YES;
#DISPLAYBPM:180.000000;
#BPMS:0.000=180.000,
102.000=270.000,
102.375=90.000,
102.500=180.000,
130.000=90.000,
130.500=270.000,
132.000=180.000,
268.000=270.000,
268.500=180.000,
268.813=90.000,
269.000=180.000,
302.000=270.000,
302.375=90.000,
302.500=180.000;
#STOPS:;
#DELAYS:;
#WARPS:;
#TIMESIGNATURES:0.000=4=4;
#TICKCOUNTS:0.000=4;
#COMBOS:0.000=1;
#SPEEDS:0.000=1.000=0.000=0;
#SCROLLS:0.000=1.000;
#FAKES:;
#LABELS:0.000=Song Start;
#BGCHANGES:;
#KEYSOUNDS:;
#ATTACKS:
;

//---------------dance-single - Benpai & xRGTMx----------------
#NOTEDATA:;
#CHARTNAME:Benpai & xRGTMx SX;
#STEPSTYPE:dance-single;
#DESCRIPTION:Benpai & xRGTMx;
#CHARTSTYLE:;
#DIFFICULTY:Challenge;
#METER:10;
#RADARVALUES:0.737498,0.809265,0.142935,0.319502,0.273259,614.000000,597.000000,17.000000,38.000000,16.000000,0.000000,5.000000,0.000000,0.000000,0.737498,0.809265,0.142935,0.319502,0.273259,614.000000,597.000000,17.000000,38.000000,16.000000,0.000000,5.000000,0.000000,0.000000;
#CREDIT:Benpai & xRGTMx;
#DISPLAYBPM:180.000000;
#NOTES:
// measure 0
0000
0000
0000
0000
,  // measure 1
0000
0000
0000
0000
,  // measure 2
0000
0000
0000
0000
,  // measure 3
0000
0000
0000
0000
,  // measure 4
0000
0000
0000
0000
,  // measure 5
0000
0000
0000
0000
,  // measure 6
0000
0000
0000
0000
,  // measure 7
0000
0000
0000
0000
,  // measure 8
0000
0000
0000
0000
,  // measure 9
1000
0000
0010
0010
0100
0000
0001
0000
,  // measure 10
1000
0100
0010
0001
1000
0100
0010
0001
,  // measure 11
1000
0000
0010
0100
0010
0000
1000
0000
0001
0000
0000
0000
0010
0000
0000
0000
,  // measure 12
0100
0000
1000
0000
0010
0000
0100
0001
0100
0000
0010
0000
0010
0000
1000
0000
,  // measure 13
0001
0000
0010
0010
0100
0000
1000
0000
,  // measure 14
0001
0100
0010
1000
0001
0100
0010
1000
,  // measure 15
0001
0000
0010
0100
0010
0000
0001
0000
1000
0000
0000
0000
0010
0000
0000
0000
,  // measure 16
0200
0000
0000
0301
0010
0100
1000
0001
0100
0000
0000
0010
0000
0000
1000
0000
,  // measure 17
1001
0000
0001
0000
1000
0000
0001
0000
0010
0000
0100
0010
0100
0000
0100
0000
,  // measure 18
2000
0000
3001
1000
0002
0000
0103
0000
0010
0000
0000
0000
0100
0000
0001
0000
,  // measure 19
0101
0000
0100
0000
0010
0000
0000
0000
1000
0000
0001
1000
0100
0000
0100
0000
,  // measure 20
0020
0000
0130
0010
0200
0000
1300
0000
0001
0000
0100
0000
0100
0000
0100
0000
,  // measure 21
0110
0000
0010
0000
1000
0000
0000
0000
0001
0000
1000
0001
0010
0000
0010
0000
,  // measure 22
0200
0000
0310
0100
0020
0000
0031
0000
2000
0000
0000
0000
3001
0000
1000
0000
,  // measure 23
1001
0000
0001
0000
0100
0000
0000
0000
0010
0000
0100
0010
1000
0000
1000
0000
,  // measure 24
0002
0000
1003
0001
2000
0000
3100
0000
0010
0000
0001
0000
0001
0000
0001
0000
,  // measure 25
0100
0000
0001
0010
0100
0000
1000
0000
0004
0000
0000
0103
0010
0000
0100
0000
,  // measure 26
0001
0000
0010
0100
1000
0000
0100
0000
1100
0000
1000
0000
0001
0000
0100
0000
,  // measure 27
0101
0000
0001
1000
0001
0000
0010
0000
0100
0000
0010
0001
1000
0000
0001
0000
,  // measure 28
0100
0000
0010
0100
0001
0000
0010
0000
0100
0000
1000
0000
1000
0000
1000
0000
,  // measure 29
1001
0000
0001
0000
0010
0000
0000
0000
0001
0000
0100
0010
1000
0000
1000
0000
,  // measure 30
0020
0000
0130
0010
0200
0000
0301
0000
1000
0000
0100
0000
0010
0000
0100
0000
,  // measure 31
1100
0000
1000
0000
0001
0100
0001
0000
0010
0000
0100
1000
0001
0000
0100
0000
,  // measure 32
0010
0000
0100
0001
0010
0000
0100
0000
2000
0000
0000
0000
0000
0000
0000
0000
,  // measure 33
3000
0000
0000
0000
,  // measure 34
00M0
00M0
00M0
00M0
00M0
00M0
00M0
00M0
,  // measure 35
2000
3000
0010
0010
0000
0000
0000
0000
,  // measure 36
0100
0001
1000
0100
0M01
1000
0100
0M01
,  // measure 37
0010
0000
0001
1000
0001
0000
0020
0000
0030
0000
0000
0000
0000
0000
0000
0000
,  // measure 38
0100
0000
1000
0000
0010
0000
0100
0001
0100
0000
0010
0000
0010
0000
0010
0000
,  // measure 39
2000
3000
0001
0001
0000
0000
0000
0000
,  // measure 40
0010
0001
1000
0010
00M1
1000
0010
00M1
,  // measure 41
0100
0000
0001
1000
0001
0000
0020
0000
0030
0000
0000
0000
0000
0000
0000
0000
,  // measure 42
0100
0000
1000
0000
0010
0000
1000
0010
0200
0000
0000
0000
0000
0000
0000
0000
,  // measure 43
0301
1000
0100
0001
0100
0010
0001
0100
,  // measure 44
0001
1000
0100
0001
0100
0010
0001
0010
,  // measure 45
0100
1000
0010
0001
0010
0100
0001
1000
,  // measure 46
0100
1000
0010
0001
0010
0100
0001
1000
,  // measure 47
0001
0010
0100
0001
0100
1000
0010
0100
,  // measure 48
0001
0010
0100
0001
0100
1000
0001
0100
,  // measure 49
0001
1000
0010
0001
0010
0100
0001
1000
,  // measure 50
0100
1000
0010
0001
0010
0100
0001
0010
,  // measure 51
0011
0001
1000
0010
0100
0001
1000
0100
,  // measure 52
0010
0100
1000
0010
00M1
1000
0100
0M01
,  // measure 53
1000
0000
0001
1000
0001
0000
0100
0000
0010
0000
0100
0000
0001
0000
1000
0000
,  // measure 54
0100
0000
0010
0000
0100
0000
1000
0010
0100
0000
0001
0000
0001
0000
0001
0000
,  // measure 55
1000
0000
0100
0010
0001
0000
1000
0000
,  // measure 56
0010
1000
0010
1000
,  // measure 57
0002
0100
0100
0100
,  // measure 58
0103
0000
0000
0000
0010
0100
0010
0100
0001
0000
0000
0010
0000
0000
0100
0000
,  // measure 59
1000
0000
0000
0000
0000
0000
0000
0000
0000
0000
0000
0000
1000
0000
0000
0000
0001
0000
0000
0000
1000
0000
0000
0000
0400
0000
0000
0000
0000
0000
0000
0000
0000
0300
0000
0000
0010
0000
0000
0000
0000
0000
0001
0000
0000
0000
0000
0000
,  // measure 60
0400
0000
0310
1000
0010
0000
0100
0000
0001
0000
0010
0000
0100
1000
0100
1000
,  // measure 61
0001
0000
0100
0000
0010
0000
0100
0000
0001
0000
1000
0100
0010
0000
0010
0000
,  // measure 62
0001
0000
1000
0010
1000
0000
0001
0000
0100
0000
0020
0000
0032
0000
0023
0000
,  // measure 63
0130
0000
0010
0000
0010
0000
1000
0000
0001
0000
1000
0100
1000
0000
0020
0000
,  // measure 64
0030
0000
0100
0001
0020
0000
0130
0000
0040
0000
0000
0000
0000
0000
0000
0030
,  // measure 65
0100
0000
0100
0000
1000
0000
0001
0000
0100
0000
0010
0100
0001
0000
0020
0000
,  // measure 66
0130
0000
1000
0001
1000
0000
0100
0000
0020
0000
0100
0000
0100
0000
0130
0000
,  // measure 67
0022
0000
0000
0033
1000
0000
1000
0000
0010
0000
0100
0001
1000
0000
0001
0000
,  // measure 68
0010
0000
0100
1000
0001
0000
1000
0000
0010
0000
0100
0000
0001
0000
1000
0000
,  // measure 69
1010
0000
0010
0000
0100
0000
0000
0000
0001
0000
1000
0001
0010
0000
0010
0000
,  // measure 70
0200
0000
0310
0100
0020
0000
0031
0000
1000
0000
0010
0000
0010
0000
0010
0000
,  // measure 71
0110
0000
0100
0000
0001
0000
0000
0000
1000
0000
0001
1000
0100
0000
0100
0000
,  // measure 72
0020
0000
0130
0010
0200
0000
1300
0000
0002
0000
0000
0000
1003
0000
0001
0000
,  // measure 73
1001
0000
1000
0000
0010
0000
0000
0000
0100
0000
0010
0100
0001
0000
0001
0000
,  // measure 74
2000
0000
3001
1000
0002
0000
0013
0000
0100
0000
1000
0000
1000
0000
1000
0000
,  // measure 75
0010
0000
1000
0100
0010
0000
0001
0000
4000
0000
0000
3010
0100
0000
0010
0000
,  // measure 76
1000
0000
0100
0010
0001
0000
0010
0000
0011
0000
0001
0000
1000
0000
0010
0000
,  // measure 77
1010
0000
1000
0001
1000
0000
0100
0000
0010
0000
0100
1000
0001
0000
1000
0000
,  // measure 78
0010
0000
0100
0010
1000
0000
0100
0000
0010
0000
0001
0000
0001
0000
0001
0000
,  // measure 79
1001
0000
1000
0000
0010
0000
0000
0000
1000
0000
0100
0010
0001
0000
0001
0000
,  // measure 80
0200
0000
0310
0100
0020
0000
1030
0000
0001
0000
0010
0000
0100
0000
0010
0000
,  // measure 81
0011
0000
0001
0000
1000
0010
1000
0000
0100
0000
0010
0001
1000
0000
0010
0000
,  // measure 82
0100
0000
0010
1000
0100
0000
1000
0000
0002
0000
0000
0000
0000
0000
0000
0000
,  // measure 83
0103
0001
1000
0010
1000
0001
1000
0100
,  // measure 84
0010
0100
1000
0010
0100
0001
1000
0001
,  // measure 85
0010
0100
1000
0010
1000
0001
1000
0100
,  // measure 86
0010
0100
1000
0001
0100
0001
1000
0000
,  // measure 87
0000
00M0
0000
0000
00M0
0000
0000
0000
;

//---------------dance-single - Benpai----------------
#NOTEDATA:;
#CHARTNAME:Benpai SH;
#STEPSTYPE:dance-single;
#DESCRIPTION:Benpai;
#CHARTSTYLE:;
#DIFFICULTY:Hard;
#METER:8;
#RADARVALUES:0.583752,0.625342,0.033632,0.437214,0.016816,486.000000,482.000000,4.000000,52.000000,10.000000,0.000000,4.000000,0.000000,0.000000,0.583752,0.625342,0.033632,0.437214,0.016816,486.000000,482.000000,4.000000,52.000000,10.000000,0.000000,4.000000,0.000000,0.000000;
#CREDIT:Benpai;
#DISPLAYBPM:180.000000;
#NOTES:
0000
0000
0000
0000
,
0000
0000
0000
0000
,
0000
0000
0000
0000
,
0000
0000
0000
0000
,
0000
0000
0000
0000
,
0000
0000
0000
0000
,
0000
0000
0000
0000
,
0000
0000
0000
0000
,
0000
0000
0000
0000
,
1000
0000
0010
0010
0100
0000
0100
0000
,
0020
0000
0130
0001
0020
0000
0130
1000
,
0010
1000
0001
0010
0100
0000
1000
0000
,
0200
0000
0310
0001
1000
0010
1000
0010
,
0100
0000
0010
0010
1000
0000
1000
0000
,
0200
0000
0310
0001
0200
0000
0310
1000
,
0001
0100
0001
0010
0100
0000
1000
0000
,
0002
0000
0000
0000
0103
0000
0010
0000
1000
0000
0000
0001
0000
0000
0010
0000
,
0200
0000
1300
0001
0100
0010
0000
0100
,
0020
1030
0002
0013
0100
0000
1000
0010
,
0100
0100
0001
0000
0100
0010
1000
1000
,
0002
1003
0002
0013
0100
0040
0000
0000
,
0031
1000
0010
0000
0100
0010
0000
1000
,
0200
0310
0200
1300
0002
0000
0000
0000
,
0103
0010
0100
0000
0001
1000
0100
0200
,
0000
0310
0001
0000
1000
0010
1000
0010
,
0200
0000
0301
0010
0200
0000
1300
0001
,
0100
0001
1000
0100
0010
0000
0100
1000
,
0001
1000
0010
0000
1000
0010
0100
0100
,
0001
0010
0100
1000
0001
0100
0001
0100
,
0020
0000
2030
0000
3001
0010
0000
0100
,
0020
0031
2000
3010
0100
0000
0001
1000
,
0100
0010
0001
0000
1000
0001
0100
0100
,
0010
1000
0100
0010
0002
0000
0000
0000
,
0003
0000
0000
0000
,
00M0
00M0
00M0
00M0
00M0
00M0
00M0
00M0
,
2000
3000
0010
0010
0000
0000
0000
0000
,
1000
0100
0010
0001
1000
0100
0010
0001
,
1000
0010
0010
0200
0300
0000
0000
0000
,
0010
1000
0100
0010
0001
0000
0000
0000
,
2000
3000
0100
0100
0000
0000
0000
0000
,
1000
0010
0100
0001
1000
0010
0100
0001
,
1000
0100
0100
0020
0030
0000
0000
0000
,
0100
1000
0010
0100
0001
0000
0000
0000
,
0100
0010
1000
0100
0010
0001
1000
0001
,
0100
0010
1000
0100
0010
0001
1000
0001
,
0100
0010
1000
0100
1000
0010
0100
0001
,
0100
0010
1000
0100
1000
0001
0100
0010
,
1000
0100
1000
0010
0100
0001
0010
0001
,
1000
0100
1000
0010
0100
0001
0010
0001
,
1000
0001
0100
0010
1000
0001
0010
0001
,
1000
0001
0100
0010
1000
0001
0010
0001
,
1000
0010
0100
0001
0010
0100
1000
0001
,
1000
0010
0100
0001
0010
0100
0010
0001
,
1000
0010
0100
0001
0010
0100
1000
0001
,
1000
0010
0100
0001
0010
0100
0010
0001
,
0100
0000
0010
0010
1000
0000
0001
0000
,
0010
0001
0010
0001
,
2000
0000
0000
0000
,
3000
0000
0000
0000
0010
0000
0000
0000
0100
0000
0000
0001
0000
0000
1000
0000
,
0100
0000
0000
0000
0000
0000
0010
0000
0100
0000
0010
0000
0002
0000
0000
0000
0000
0000
0000
0000
0000
1003
0000
0000
,
0400
0310
0100
1000
0001
0100
0040
0030
,
0110
0200
0000
0301
1000
0100
1000
0001
,
1000
0100
0100
0100
0010
0002
0203
0320
,
0130
0001
1000
0000
0100
1000
0000
0020
,
0030
0100
0020
1030
0002
0000
0000
0000
,
0013
0100
0010
0000
0001
0010
0100
1000
,
0000
0001
1000
0010
0100
0001
0100
0001
,
0020
0000
0130
0100
2000
0000
0000
3001
,
0010
0000
0100
0000
1000
0000
0001
0000
0100
0000
0010
0000
2000
0000
0000
3000
,
1001
0001
0010
0000
0100
0010
0001
0001
,
0200
0000
0310
0000
0200
0000
0301
0000
2000
0000
0000
0000
0000
0000
0000
3000
,
1100
0100
0010
0000
0001
0010
0000
0100
,
2000
0000
3001
0000
0200
0000
0310
0000
2000
0000
0000
0000
0000
0000
0000
3000
,
1001
0001
0010
0000
0100
0010
0000
0001
,
2000
3010
0200
0301
1000
0400
0000
0000
,
0310
0000
0001
1000
0200
0000
1300
0001
,
0010
0001
1000
0010
0100
0000
0010
1000
,
0001
1000
0100
0000
1000
0100
0010
0010
,
0001
0100
0010
1000
0001
0010
0001
0010
,
0200
0000
2300
0000
3001
0010
0000
0100
,
0020
0031
2000
3010
0100
0010
1000
0001
,
1000
0100
0010
0000
0001
0010
0100
0100
,
1000
0010
0100
0001
2000
0000
0000
0000
,
3010
1000
0001
0100
0001
1000
0001
0010
,
0100
0010
0001
0100
0010
1000
0001
1000
,
0100
0010
0001
0100
0001
1000
0001
0010
,
0100
0010
0001
1000
0010
1000
0001
0000
,
0000
00M0
0000
0000
00M0
0000
0000
0000
;

//---------------dance-single - Benpai----------------
#NOTEDATA:;
#CHARTNAME:Benpai SN;
#STEPSTYPE:dance-single;
#DESCRIPTION:Benpai;
#CHARTSTYLE:;
#DIFFICULTY:Beginner;
#METER:2;
#RADARVALUES:0.092487,0.144617,0.025224,0.000000,0.000000,77.000000,74.000000,3.000000,0.000000,0.000000,0.000000,0.000000,0.000000,0.000000,0.092487,0.144617,0.025224,0.000000,0.000000,77.000000,74.000000,3.000000,0.000000,0.000000,0.000000,0.000000,0.000000,0.000000;
#CREDIT:Benpai;
#DISPLAYBPM:180.000000;
#NOTES:
0000
0000
0000
0000
,
0000
0000
0000
0000
,
0000
0000
0000
0000
,
0000
0000
0000
0000
,
0000
0000
0000
0000
,
0000
0000
0000
0000
,
0000
0000
0000
0000
,
0000
0000
0000
0000
,
0000
0000
0000
0000
,
1000
0000
0000
0000
,
0001
0000
0001
0000
,
1000
0000
0000
0000
,
0100
0000
0000
0000
,
1000
0000
0000
0000
,
0010
0000
0010
0000
,
1000
0000
0000
0000
,
0100
0000
0000
0000
,
0110
0000
0000
0000
,
0100
0000
0000
0000
,
1000
0000
0000
0000
,
0001
0000
0000
0000
,
0100
0000
0000
0000
,
0001
0000
0000
0000
,
0010
0000
0000
0000
,
0100
0000
0000
0000
,
1000
0000
0000
0000
,
0001
0000
0000
0000
,
0101
0000
0000
0000
,
0100
0000
0000
0000
,
0010
0000
0000
0000
,
1000
0000
0000
0000
,
0001
0000
0000
0000
,
0100
0000
0000
0000
,
0000
0000
0000
0000
,
0000
0000
0000
0000
,
0010
0000
0000
0000
,
0000
0000
0000
0000
,
0100
0000
0000
0000
,
0000
0000
0000
0000
,
0001
0000
0000
0000
,
0000
0000
0000
0000
,
1000
0000
0000
0000
,
0000
0000
0000
0000
,
0100
0000
0000
0000
,
0100
0000
0000
0000
,
1000
0000
0000
0000
,
1000
0000
0000
0000
,
0001
0000
0000
0000
,
0001
0000
0000
0000
,
0010
0000
0000
0000
,
0010
0000
0000
0000
,
0100
0000
0000
0000
,
1000
0000
1000
0000
,
0001
0000
0000
0000
,
0100
0000
0000
0000
,
0010
0000
0000
0000
,
0100
0000
0100
0000
,
0001
0000
0000
0000
,
0000
0000
0000
0000
,
0001
0000
0000
0000
,
0000
0000
0000
0000
,
0101
0000
0000
0000
,
1000
0000
0000
0000
,
0010
0000
0000
0000
,
0100
0000
0000
0000
,
0001
0000
0000
0000
,
0100
0000
0000
0000
,
0010
0000
0000
0000
,
1000
0000
0000
0000
,
0001
0000
0000
0000
,
0010
0000
0000
0000
,
0100
0000
0000
0000
,
0010
0000
0000
0000
,
0001
0000
0000
0000
,
1000
0000
0000
0000
,
0010
0000
0000
0000
,
0100
0000
0000
0000
,
0001
0000
0000
0000
,
1000
0000
0000
0000
,
1000
0000
0000
0000
,
0100
0000
0000
0000
,
0010
0000
0000
0000
,
0001
0000
0000
0000
,
1000
0000
0000
0000
,
1000
0000
0000
0000
,
1000
0000
0000
0000
,
1000
0000
0000
0000
;

//---------------dance-single - Benpai----------------
#NOTEDATA:;
#CHARTNAME:Benpai SE;
#STEPSTYPE:dance-single;
#DESCRIPTION:Benpai;
#CHARTSTYLE:;
#DIFFICULTY:Easy;
#METER:4;
#RADARVALUES:0.181372,0.255287,0.033632,0.084080,0.000000,151.000000,147.000000,4.000000,10.000000,0.000000,0.000000,0.000000,0.000000,0.000000,0.181372,0.255287,0.033632,0.084080,0.000000,151.000000,147.000000,4.000000,10.000000,0.000000,0.000000,0.000000,0.000000,0.000000;
#CREDIT:Benpai;
#DISPLAYBPM:180.000000;
#NOTES:
0000
0000
0000
0000
,
0000
0000
0000
0000
,
0000
0000
0000
0000
,
0000
0000
0000
0000
,
0000
0000
0000
0000
,
0000
0000
0000
0000
,
0000
0000
0000
0000
,
0000
0000
0000
0000
,
0000
0000
0000
0000
,
1000
0000
1000
0000
,
0001
0000
0001
0000
,
1000
0000
1000
0000
,
0010
0000
0100
0000
,
0001
0000
0001
0000
,
0010
0000
0010
0000
,
0001
0000
0001
0000
,
0100
0000
0010
0000
,
1010
0000
1000
0000
,
0100
0100
0100
0000
,
0010
0000
0001
0000
,
1000
1000
1000
0000
,
0010
0000
0100
0000
,
0001
0001
0100
0000
,
0010
0000
1000
0000
,
0100
0100
0010
0000
,
0002
0000
0000
0003
,
1000
0000
0001
0000
,
1001
0000
1000
0000
,
0010
0000
0100
0000
,
0010
0000
1000
0000
,
0001
0000
0010
0000
,
0100
0000
1000
0000
,
0001
0000
0200
0300
,
0000
0000
0000
0000
,
0000
0000
0000
0000
,
0010
0000
0000
0000
,
0100
0000
0100
0000
,
0001
0000
0000
0000
,
1000
0000
0100
0000
,
0010
0000
0000
0000
,
0001
0000
0001
0000
,
1000
0000
0000
0000
,
0100
0000
1000
0000
,
0001
0000
0100
0000
,
0001
0000
0100
0000
,
0010
0000
1000
0000
,
0010
0000
1000
0000
,
0001
0000
0010
0000
,
0001
0000
0010
0000
,
0100
0000
1000
0000
,
0100
0000
1000
0000
,
0010
0000
0100
0000
,
0001
0000
1000
0000
,
0100
0000
1000
0000
,
0010
0000
0100
0000
,
0001
0000
0001
0000
,
1000
0000
1000
0000
,
0010
0000
0010
0000
,
0200
0000
0300
0000
,
0001
0000
0000
0000
,
1000
1000
1000
0000
,
1100
0000
0100
0000
,
0010
0000
0001
0001
,
0100
0000
0000
0000
0010
0000
0000
1000
,
0000
1000
2000
0000
,
3100
0000
1000
0000
,
0001
0000
0100
0000
,
0020
0030
0100
0000
,
0001
0000
0001
0000
,
0010
0000
0100
0000
,
1000
0000
0001
0000
,
0100
0000
0010
0000
,
1000
0000
1000
0000
,
0001
0000
0010
0000
,
0100
0000
1000
0000
,
0002
0000
0000
0003
,
0100
0000
0010
0000
,
0110
0000
1000
0000
,
0001
0000
0100
0000
,
0010
0000
1000
0000
,
0010
0000
0100
0000
,
0001
0000
1000
0000
,
0100
0000
1000
0000
,
0002
0000
0000
0000
,
0203
0000
0000
0000
,
0320
0000
0000
0000
,
2030
0000
0000
3000
;

//---------------dance-single - Benpai----------------
#NOTEDATA:;
#CHARTNAME:Benpai SM;
#STEPSTYPE:dance-single;
#DESCRIPTION:Benpai;
#CHARTSTYLE:;
#DIFFICULTY:Medium;
#METER:6;
#RADARVALUES:0.399978,0.474104,0.025224,0.168159,0.008408,333.000000,330.000000,3.000000,20.000000,0.000000,0.000000,0.000000,0.000000,0.000000,0.399978,0.474104,0.025224,0.168159,0.008408,333.000000,330.000000,3.000000,20.000000,0.000000,0.000000,0.000000,0.000000,0.000000;
#CREDIT:Benpai;
#DISPLAYBPM:180.000000;
#NOTES:
0000
0000
0000
0000
,
0000
0000
0000
0000
,
0000
0000
0000
0000
,
0000
0000
0000
0000
,
0000
0000
0000
0000
,
0000
0000
0000
0000
,
0000
0000
0000
0000
,
0000
0000
0000
0000
,
0000
0000
0000
0000
,
1000
0100
1000
0001
,
0010
0000
0001
1000
0010
0000
1000
0001
,
0010
0010
0100
1000
,
0001
0100
0010
0100
,
0001
1000
0100
0010
,
0100
0000
1000
0001
0100
0000
0001
1000
,
0100
0100
0010
0001
,
0100
0000
0000
0000
0001
0000
0000
0000
1000
0000
0000
0100
0000
0000
0010
0000
,
0001
1000
0010
0000
,
0100
0000
0100
0000
0001
0000
1000
0100
,
0010
0010
0001
0000
,
0100
0000
0100
0000
0010
1000
0010
1000
,
0100
0100
0010
0000
,
0001
0001
2000
0000
,
3010
0000
0010
0000
0100
0000
0001
1000
,
0100
0000
0100
0000
0010
0001
0010
0001
,
2000
0000
3010
0100
0002
0000
1003
0000
,
0100
0000
0010
0001
1000
0000
0001
0100
,
0010
0000
0100
0000
0001
0000
1000
0001
,
0010
0000
0100
0000
0010
0001
0010
0001
,
1000
0010
0100
0001
,
1000
0000
0100
0010
0001
0000
0100
0010
,
1000
0000
0010
0000
0100
0000
0001
1000
,
0001
0010
0200
0000
,
0300
0000
0000
0000
,
0000
0000
0000
0000
,
1000
0000
0001
1000
0000
0000
0000
0000
,
0020
0000
0230
0000
,
0301
0000
1000
0100
0000
0000
0000
0000
,
1000
0010
0200
0000
,
0301
0000
1000
0001
0000
0000
0000
0000
,
0020
0000
0230
0000
,
1300
0000
0001
0010
0000
0000
0000
0000
,
0100
0010
0001
0000
,
1000
0010
0100
0001
,
1000
0100
0010
0001
,
1000
0010
0100
0010
,
1000
0001
1000
0100
,
0010
0001
1000
0010
,
0100
0001
0010
0001
,
0100
0010
1000
0001
,
0010
0100
1000
0000
,
1001
0001
0100
0010
,
1000
0100
1000
0001
,
0100
0010
1000
0001
,
0010
0100
1000
0001
,
0100
0100
0010
1000
,
0001
0001
1000
1000
,
0200
0000
0320
0000
,
0030
0000
0000
0000
0001
0000
0000
0000
0100
0000
0000
0010
0000
0000
1000
0000
,
0002
0000
0103
0000
0200
0000
0000
0310
,
1000
0001
1000
0100
0020
0000
0000
0030
,
0011
0000
0001
0000
1000
0000
0010
0100
,
0000
0010
1000
0000
0001
0010
0100
0010
,
0001
0000
0001
0000
1000
0000
0010
0100
,
0000
0010
1000
0100
0020
0000
0000
0000
,
0031
0000
0001
0000
1000
0000
0010
0100
,
0000
0001
1000
0100
0020
0000
0000
0000
,
0032
0000
1003
1000
0100
0000
0010
0000
,
0001
0000
1000
0010
0100
0000
0001
1000
,
0100
0100
0010
0001
,
1000
0000
0010
0100
0001
1000
0001
1000
,
0100
0000
0100
0000
0010
0000
0001
1000
,
0010
0000
0100
0001
1000
0000
0100
0010
,
0001
0001
1000
0010
,
0100
0010
1000
0000
0001
1000
0001
1000
,
0200
0000
0310
0001
2000
0000
3010
0000
,
0100
0001
0010
0100
,
1100
0000
1000
0000
0001
0000
0100
0010
,
1000
0000
0100
0000
1000
0001
1000
0001
,
0010
0100
1000
0001
,
0100
0010
1000
0000
0001
0010
0100
0000
,
0010
0000
0001
0000
1000
0000
0001
0100
,
0010
0100
0002
0000
,
1003
0010
0100
0001
,
1000
0100
0010
0001
,
1000
0010
0100
0001
,
1000
0100
1000
0001
;
