#VERSION:0.83;
#TITLE:Ghost;
#SUBTITLE:(Tommie Sunshine & SLATIN Remix);
#ARTIST:Secret Weapons;
#TITLETRANSLIT:;
#SUBTITLETRANSLIT:;
#ARTISTTRANSLIT:;
#GENRE:Indie;
#ORIGIN:;
#CREDIT:Feraligatr;
#BANNER:ghost-bn.png;
#BACKGROUND:ghost-bg-wide.png;
#PREVIEWVID:;
#JACKET:ghost-jacket.png;
#CDIMAGE:FeraligatrV4-cd.png;
#DISCIMAGE:ghost-bg.png;
#LYRICSPATH:;
#CDTITLE:FeraligatrV4-cd.png;
#MUSIC:Secret Weapons - Ghost (Tommie Sunshine & SLATIN Remix).ogg;
#OFFSET:0.009000;
#SAMPLESTART:53.324001;
#SAMPLELENGTH:17.778000;
#SELECTABLE:YES;
#DISPLAYBPM:108.000000;
#BPMS:0.000=108.000;
#STOPS:;
#DELAYS:;
#WARPS:;
#TIMESIGNATURES:0.000=4=4;
#TICKCOUNTS:0.000=4;
#COMBOS:0.000=1;
#SPEEDS:0.000=1.000=0.000=0;
#SCROLLS:0.000=1.000;
#FAKES:;
#LABELS:0.000=Song Start;
#BGCHANGES:;
#KEYSOUNDS:;
#ATTACKS:
;

//---------------dance-single - Feraligatr----------------
#NOTEDATA:;
#CHARTNAME:Feraligatr;
#STEPSTYPE:dance-single;
#DESCRIPTION:Feraligatr;
#CHARTSTYLE:;
#DIFFICULTY:Challenge;
#METER:10;
#RADARVALUES:0.653061,0.756652,0.535714,0.342857,1.057143,640.000000,562.000000,75.000000,48.000000,0.000000,8.000000,0.000000,0.000000,0.000000,0.653061,0.756652,0.535714,0.342857,1.057143,640.000000,562.000000,75.000000,48.000000,0.000000,8.000000,0.000000,0.000000,0.000000;
#CREDIT:Feraligatr;
#DISPLAYBPM:108.000000;
#NOTES:
// measure 0
0000
0000
0000
0000
,  // measure 1
0000
0000
0000
0000
,  // measure 2
0000
0000
0000
0000
,  // measure 3
0000
0000
0000
0000
0000
0000
0000
0000
0000
0000
0000
0000
0000
0000
0000
1000
,  // measure 4
0000
0100
0000
0020
0001
0000
0000
0000
0001
0000
0000
0000
0031
0000
0000
1000
,  // measure 5
0000
0001
0000
0100
0000
0010
0000
0100
0000
0001
0000
1000
0000
0100
0000
0001
,  // measure 6
0000
0100
0000
2000
0001
0000
0000
0000
0001
0000
0000
3000
0001
0000
0000
0100
,  // measure 7
0000
0010
0000
1000
0000
0100
0000
0001
0000
0100
0000
0010
0000
0001
0000
0100
,  // measure 8
0000
0010
0000
2000
0001
0000
0000
0000
0001
0000
0000
3000
0001
0000
1000
0200
,  // measure 9
0000
0000
0310
0001
0000
1000
0000
0010
0000
0100
0000
0001
0010
0100
0000
1000
,  // measure 10
0000
0010
0000
0200
0001
0300
0100
0020
1000
0000
0030
0000
1000
0001
0100
0001
,  // measure 11
0010
0000
0001
0000
1000
0000
0010
0200
0001
0000
0010
0000
0301
0000
0100
0101
,  // measure 12
0000
0001
0100
0100
1000
0100
0000
1100
0000
1000
0100
0100
0001
0100
0000
0101
,  // measure 13
0000
0001
0100
0100
1000
0100
0010
0100
1000
0001
0100
0101
0000
1001
0000
0011
,  // measure 14
0000
0001
0010
0010
1000
0010
0000
1010
0000
1000
0010
0010
0001
0010
0000
0011
,  // measure 15
0000
0001
0010
0010
2000
0000
3100
0110
0000
0110
0000
1001
0000
1001
0000
0101
,  // measure 16
0000
0001
0100
0100
1000
0100
0000
1100
0000
1000
0100
0100
0001
0100
0000
0101
,  // measure 17
0000
0001
0100
0100
1000
0100
0010
0100
1000
0001
0100
0110
0000
1010
0000
1002
,  // measure 18
0000
0000
0013
0000
0001
0000
0100
0000
2000
0000
0000
3100
0020
0100
0000
1130
,  // measure 19
0002
0000
0000
0000
2003
0000
0000
0000
3200
0000
0000
0000
0320
0000
0002
0030
,  // measure 20
1003
0100
1000
0001
0100
0000
0000
0001
0100
0000
0000
0001
1000
0100
0010
0101
,  // measure 21
1000
0001
1000
0010
0100
0000
0000
0010
0100
0000
0000
0010
1000
0001
0010
0101
,  // measure 22
0000
0101
1000
0000
1101
0000
0000
0001
1000
0000
0000
0001
1000
0010
0100
0010
,  // measure 23
2010
0000
0000
3000
2100
0000
0000
3101
1010
0001
1000
0011
1100
0010
1100
0011
,  // measure 24
1002
0000
0000
0000
0013
0000
0000
0000
0010
0000
0000
0100
1000
0001
0100
0011
,  // measure 25
1000
0010
0100
0001
1000
0000
0000
0001
1000
0000
0000
0001
0010
0100
1000
0101
,  // measure 26
0000
0101
0010
0000
0111
0000
0000
0010
0001
0000
0000
1000
0001
0100
0001
1000
,  // measure 27
2100
0000
0000
3000
2010
0000
0000
3011
1100
0001
1000
0101
1010
0100
1010
0101
,  // measure 28
1000
0001
1000
0000
0010
0000
1000
0000
0010
0100
0001
1000
0000
0100
0000
0001
,  // measure 29
0100
1000
0001
0000
0100
0000
0001
0000
0100
0010
1000
0001
0000
0010
0000
1000
,  // measure 30
0010
0001
1000
0000
0010
0000
1000
0000
0010
0100
0001
1000
0000
0100
0000
0001
,  // measure 31
0100
1000
0010
0000
1000
0001
0100
0000
0010
0100
0001
1000
0100
0010
0000
0010
,  // measure 32
0002
0000
0000
0000
0000
0000
0000
0000
1003
0000
0000
0000
0010
0000
0100
0000
0001
0000
0000
0000
0001
0000
0000
0000
0010
0000
0000
0000
0100
0000
1000
0001
,  // measure 33
1000
0000
0000
0000
0010
0000
0000
0000
0100
0000
0000
0000
0001
0000
1000
0000
0100
0000
0000
0000
0100
0000
0000
0000
0010
0000
0000
0000
0100
0000
1000
0001
,  // measure 34
1000
0000
0010
0000
0100
0000
0001
1000
0100
0000
0100
0000
1000
0000
0010
0000
,  // measure 35
2000
0000
0100
0000
3200
0000
0010
0000
0320
0000
0000
0000
0002
0000
0030
1000
,  // measure 36
0003
0001
0000
0200
0010
0000
0000
0000
0010
0000
0000
0000
0310
0000
0000
1000
,  // measure 37
0000
0100
0000
0010
0000
0001
0000
1000
0000
0010
0000
1000
0000
0100
0000
0001
,  // measure 38
0000
0100
1000
0000
0002
0000
0000
0000
0100
0000
0000
0000
0103
0000
0000
0001
,  // measure 39
0000
1000
0000
0100
0000
1000
0000
0010
0000
0100
0000
0001
0000
1000
0000
0100
,  // measure 40
0000
0010
0000
0000
0002
0000
0000
0000
1000
0000
0000
0000
1003
0000
0000
0001
,  // measure 41
0000
0100
0000
0010
0000
1000
0000
0100
0000
0010
0000
0001
0000
0100
0000
1000
,  // measure 42
0000
0100
0000
0002
1000
0003
0001
0200
0010
0000
0300
0000
0010
1000
0001
0010
,  // measure 43
0100
0000
0000
0000
0000
0000
1000
0000
0000
0000
0000
0000
0001
0000
0000
0000
0000
0000
0100
0000
0000
0020
0000
0000
1000
0000
0000
0000
0000
0000
0001
0000
0000
0000
0000
0000
0130
0000
0000
0000
0001
0000
1000
0000
0000
1100
0000
0000
,  // measure 44
0000
1000
0100
0100
0001
0100
0000
0101
0000
0001
0100
0100
1000
0100
0000
1100
,  // measure 45
0000
1000
0100
0100
0001
0100
0010
0100
0001
1000
0100
1100
0000
1001
0000
1010
,  // measure 46
0000
1000
0010
0010
0001
0010
0000
0011
0000
0001
0010
0010
1000
0010
0000
1010
,  // measure 47
0000
1000
0010
0010
0002
0000
0103
0110
0000
0110
0000
1001
0000
0011
0000
1100
,  // measure 48
0000
1000
0100
0100
0001
0100
0000
0101
0000
0001
0100
0100
1000
0100
0000
1100
,  // measure 49
0000
1000
0100
0100
0001
0100
0010
0100
0001
1000
0100
1100
0000
1001
0000
0201
,  // measure 50
0000
0000
0310
0000
1000
0000
0100
0000
0002
0000
0000
0103
0020
0100
0000
0131
,  // measure 51
2000
0000
0000
0000
3002
0000
0000
0000
0203
0000
0000
0000
0320
0000
2000
0030
,  // measure 52
3001
1000
0001
0010
0100
0000
0000
1000
0100
0000
0000
1000
0001
0100
0010
1100
,  // measure 53
0001
1000
0100
1000
0001
0000
0000
1000
0001
0000
0000
1000
0010
0100
0001
1100
,  // measure 54
0000
1100
0010
0000
1110
0000
0000
0001
1000
0000
0000
0001
0100
0010
1000
0001
,  // measure 55
0012
0000
0000
0003
0102
0000
0000
1103
0011
1000
0001
1010
0101
0010
0101
1010
,  // measure 56
0001
1000
0001
0000
0100
0000
0001
0000
0100
0010
1000
0001
0000
0010
0000
1000
,  // measure 57
0010
0001
1000
0000
0010
0000
1000
0000
0010
0100
0001
1000
0000
0100
0000
0001
,  // measure 58
0100
1000
0001
0000
0100
0000
0001
0000
0100
0010
1000
0001
0000
0010
0000
1000
,  // measure 59
0010
0001
0100
0000
0001
1000
0010
0000
0100
0010
1000
0001
0010
0100
0000
0100
,  // measure 60
2000
0000
0000
0000
3000
0000
0000
0000
0000
0000
0000
0000
0000
2000
0000
3020
,  // measure 61
0000
0000
0000
0030
0000
0000
0000
0000
0000
0000
0000
0000
0000
0200
0000
0302
,  // measure 62
0000
0000
0000
0000
0000
0003
0000
0000
0000
0000
0000
0000
0000
0000
0000
0000
;

//---------------dance-single - Feraligatr----------------
#NOTEDATA:;
#CHARTNAME:Feraligatr SH;
#STEPSTYPE:dance-single;
#DESCRIPTION:Feraligatr;
#CHARTSTYLE:Pad;
#DIFFICULTY:Hard;
#METER:9;
#RADARVALUES:0.556122,0.689888,0.235714,0.371429,1.010714,545.000000,512.000000,33.000000,52.000000,0.000000,0.000000,6.000000,0.000000,0.000000,0.556122,0.689888,0.235714,0.371429,1.010714,545.000000,512.000000,33.000000,52.000000,0.000000,0.000000,6.000000,0.000000,0.000000;
#CREDIT:Feraligatr;
#DISPLAYBPM:108.000000;
#NOTES:
// measure 0
0000
0000
0000
0000
,  // measure 1
0000
0000
0000
0000
,  // measure 2
0000
0000
0000
0000
,  // measure 3
0000
0000
0000
0000
0000
0000
0000
0000
0000
0000
0000
0000
0000
0000
0000
0001
,  // measure 4
0000
0100
0000
0040
0000
0000
0000
0000
0000
0000
0000
0000
0030
0000
0000
1000
,  // measure 5
0000
0001
0000
0010
0000
0100
0000
1000
0000
0001
0000
0100
0000
0001
0000
0010
,  // measure 6
0000
0100
0000
4000
0000
0000
0000
0000
0000
0000
0000
0000
3000
0000
0000
0001
,  // measure 7
0000
0100
0000
0010
0000
1000
0000
0100
0000
0010
0000
0100
0000
1000
0000
0001
,  // measure 8
0000
0100
0000
0040
0000
0000
0000
0000
0000
0000
0000
0000
0030
0000
1000
0002
,  // measure 9
0000
0000
0013
0100
0000
1000
0000
0001
0000
0100
0000
0010
0000
1000
0000
0100
,  // measure 10
0000
0010
0000
0002
0000
0000
1003
0200
0000
0000
0300
0000
1000
0100
1000
0002
,  // measure 11
0000
0000
0103
0000
0010
0000
1000
0002
0000
0000
0000
0000
0013
0000
0000
0110
,  // measure 12
0000
0100
1000
0001
0100
0010
0000
0110
0000
0100
0001
1000
0100
0010
0000
0110
,  // measure 13
0000
0100
1000
0001
0100
0010
0100
0001
1000
0100
1000
0010
0000
0101
0000
0110
,  // measure 14
0000
0100
0001
1000
0100
0010
0000
0110
0000
0100
1000
0001
0100
0010
0000
0110
,  // measure 15
0000
0100
0001
1000
0200
0000
1300
0010
0000
0110
0000
0101
0000
0101
0000
0011
,  // measure 16
0000
0010
0100
1000
0001
0100
0000
0101
0000
0100
0010
1000
0001
0010
0000
0011
,  // measure 17
0000
0010
0100
1000
0001
0100
0010
1000
0001
0100
0001
0010
0000
1100
0000
0210
,  // measure 18
0000
0000
0310
0000
0001
0000
0100
0000
2000
0000
0000
0000
3200
0000
0000
0301
,  // measure 19
0020
0000
0000
0000
0230
0000
0000
0000
2300
0000
0000
0000
3020
0000
0200
0030
,  // measure 20
0301
1000
0001
1000
0100
0000
0010
0001
0000
1000
0000
0001
0100
0010
1000
0100
,  // measure 21
0010
0001
0010
0001
1000
0000
0010
1000
0000
0001
0000
1000
0010
0100
0001
0010
,  // measure 22
0000
0010
0100
0000
0110
0000
0000
0010
0001
0000
0000
0010
0001
1000
0001
1000
,  // measure 23
0020
0000
1000
0000
0230
0000
0000
0301
0020
0000
0000
0031
0200
0000
0310
1000
,  // measure 24
0200
0000
0000
0000
0310
0000
0001
1000
0000
0100
0000
1000
0010
0100
0001
0010
,  // measure 25
0100
1000
0100
1000
0001
0000
0100
0010
0000
1000
0000
0001
0010
0100
1000
0010
,  // measure 26
0000
0010
0100
0000
0110
0000
0000
0010
1000
0000
0000
0010
1000
0001
0010
0100
,  // measure 27
2000
0000
0000
0000
3020
0000
0000
1030
0100
0010
0001
0100
0010
0100
0001
0010
,  // measure 28
0100
0000
1000
0000
0001
0000
1000
0000
0001
0100
0010
1000
0000
0100
0000
0001
,  // measure 29
0000
0100
1000
0000
0001
0000
1000
0000
0001
0100
0010
1000
0000
0100
0000
0001
,  // measure 30
0000
0100
1000
0000
0001
0000
1000
0000
0001
0100
0010
1000
0000
0100
0000
0001
,  // measure 31
0100
0010
0001
0000
1000
0001
0100
0000
0001
1000
0100
1000
0002
0000
0000
0000
,  // measure 32
0203
0000
0000
0000
0310
0000
0000
0000
1000
0000
1000
0000
0001
0020
0000
0000
,  // measure 33
0130
0000
1000
0000
0001
0000
0100
0000
0010
0000
0010
0000
1000
0002
0000
0000
,  // measure 34
0013
0100
0010
0001
1000
1000
0010
0100
,  // measure 35
0002
0000
0000
0000
0023
0000
0000
0000
0230
0000
0000
0000
2300
0000
0000
3001
,  // measure 36
0000
0100
0000
0040
0000
0000
0000
0000
0000
0000
0000
0000
0030
0000
0000
1000
,  // measure 37
0000
0001
0000
0010
0000
0001
0000
0100
0000
0010
0000
1000
0000
0100
0000
0001
,  // measure 38
0000
0100
1000
0000
0004
0000
0000
0000
0000
0000
0000
0000
0003
0000
0000
1000
,  // measure 39
0000
0010
0000
0100
0000
0001
0000
0010
0000
0100
0000
0010
0000
0001
0000
0100
,  // measure 40
0000
0010
0000
0000
4000
0000
0000
0000
0000
0000
0000
0000
3000
0000
0000
0001
,  // measure 41
0000
0010
0000
0100
0000
1000
0000
0010
0000
0100
0000
0010
0000
1000
0000
0100
,  // measure 42
0000
0010
0000
0002
0000
0000
0103
0020
0000
0000
0030
0000
1000
0100
1000
0002
,  // measure 43
0000
0000
0103
0000
0010
0000
1000
0002
0000
0000
0010
0000
0103
0000
0000
0110
,  // measure 44
0000
0010
1000
0001
0010
0100
0000
0110
0000
0010
0001
1000
0010
0100
0000
0110
,  // measure 45
0000
0010
1000
0001
0010
0100
0010
0001
1000
0010
1000
0100
0000
0011
0000
0110
,  // measure 46
0000
0010
0001
1000
0010
0100
0000
0110
0000
0010
1000
0001
0010
0100
0000
0110
,  // measure 47
0000
0010
0001
1000
0020
0000
1030
0100
0000
0110
0000
1001
0000
0101
0000
1010
,  // measure 48
0000
0010
0100
0001
1000
0100
0000
1100
0000
0100
0010
0001
1000
0010
0000
1010
,  // measure 49
0000
0010
0100
0001
1000
0100
0010
0001
1000
0100
1000
0010
0000
0101
0000
0210
,  // measure 50
0000
0000
0310
0000
1000
0000
0100
0000
0002
0000
0000
0000
0203
0000
0000
1300
,  // measure 51
0020
0000
0000
0000
0230
0000
0000
0000
0302
0000
0000
0000
0023
0000
0200
0030
,  // measure 52
1300
0001
1000
0001
0100
0000
0010
1000
0000
0001
0000
1000
0100
0010
0001
0100
,  // measure 53
0010
1000
0010
1000
0001
0000
0010
0001
0000
1000
0000
0001
0010
0100
1000
0010
,  // measure 54
0000
0010
0100
0000
0110
0000
0000
0010
1000
0000
0000
0010
1000
0001
1000
0001
,  // measure 55
0020
0000
0001
0000
0230
0000
0000
1300
0020
0000
0000
1030
0200
0000
1300
0010
,  // measure 56
0100
0000
0001
0000
1000
0000
0001
0000
1000
0100
0010
0001
0000
0100
0000
1000
,  // measure 57
0000
0100
0001
0000
1000
0000
0001
0000
1000
0100
0010
0001
0000
0100
0000
1000
,  // measure 58
0000
0100
0001
0000
1000
0000
0001
0000
1000
0100
0010
0001
0000
0100
0000
1000
,  // measure 59
0100
0010
1000
0000
0001
1000
0100
0000
0010
0100
1000
0001
0200
0000
0000
0000
,  // measure 60
0320
0000
0000
0000
0030
0000
0000
0000
0000
0000
0000
0000
0000
2000
0000
3200
,  // measure 61
0000
0000
0000
0300
0000
0000
0000
0000
0000
0000
0000
0000
0000
0020
0000
0032
,  // measure 62
0000
0000
0000
0000
0000
0003
0000
0000
0000
0000
0000
0000
0000
0000
0000
0000
;

//---------------dance-single - Feraligatr----------------
#NOTEDATA:;
#CHARTNAME:Feraligatr SM;
#STEPSTYPE:dance-single;
#DESCRIPTION:Feraligatr;
#CHARTSTYLE:Pad;
#DIFFICULTY:Medium;
#METER:6;
#RADARVALUES:0.378571,0.420290,0.064286,0.300000,0.292857,371.000000,362.000000,9.000000,42.000000,4.000000,0.000000,1.000000,0.000000,0.000000,0.378571,0.420290,0.064286,0.300000,0.292857,371.000000,362.000000,9.000000,42.000000,4.000000,0.000000,1.000000,0.000000,0.000000;
#CREDIT:Feraligatr;
#DISPLAYBPM:108.000000;
#NOTES:
// measure 0
0000
0000
0000
0000
,  // measure 1
0000
0000
0000
0000
,  // measure 2
0000
0000
0000
0000
,  // measure 3
0000
0000
0000
0000
,  // measure 4
1000
0001
0100
0000
0010
0000
0100
0000
,  // measure 5
0001
1000
0100
0000
0010
0100
1000
0000
,  // measure 6
0001
0100
0010
0000
0100
0000
0001
0000
,  // measure 7
1000
0100
0010
0000
0100
1000
0001
0000
,  // measure 8
0100
0010
1000
0000
0001
0000
1000
0000
,  // measure 9
0100
0010
0001
0000
1000
0010
0100
0000
,  // measure 10
0001
0000
1000
0000
0100
0000
0010
0001
1000
0000
0000
0000
0001
1000
0010
0000
,  // measure 11
0100
0000
0000
0000
0010
0000
1000
0000
0100
0000
0010
0000
0100
0000
0010
0001
,  // measure 12
0000
0000
1000
0000
0010
0000
0100
0001
0000
0000
1000
0000
0100
0000
0010
0001
,  // measure 13
0000
0000
1000
0000
0010
0000
0100
0000
0001
0000
1000
0100
0000
0010
0000
0011
,  // measure 14
0000
0000
0001
0000
0100
0000
0010
1000
0000
0000
0001
0000
0010
0000
0100
1000
,  // measure 15
0000
0000
0001
0000
0100
0000
0010
1000
0000
1000
0000
0001
0000
0001
0000
0011
,  // measure 16
0000
0000
0001
0000
0100
0000
0010
1000
0000
0000
0001
0000
0010
0000
0100
1000
,  // measure 17
0000
0000
0001
0000
0100
0000
0010
0000
1000
0000
0001
0010
0000
0100
0000
2100
,  // measure 18
0000
0000
0000
0000
0000
0000
0000
0000
0000
0000
0000
0001
0000
3001
0000
1000
,  // measure 19
0020
0230
0302
0023
,  // measure 20
0130
0000
1000
0000
0001
0000
0100
0010
0000
0100
0000
0002
0000
0000
0000
1003
,  // measure 21
0001
0000
0010
0000
0100
0000
1000
0001
0000
0100
0000
0020
0000
0000
0000
1030
,  // measure 22
0000
1000
0001
0000
0011
0000
0000
0000
0010
0000
0000
0000
0010
0000
0100
0000
,  // measure 23
2000
3020
0230
0302
,  // measure 24
0043
0000
0000
0000
0130
0000
1000
0001
0000
0100
0000
0020
0000
0000
0000
1030
,  // measure 25
0001
0000
0010
0000
0001
0000
1000
0010
0000
0100
0000
0002
0000
0000
0000
1003
,  // measure 26
0000
1000
0100
0000
0110
0000
0000
0000
0010
0000
0000
0000
0010
0000
0001
0000
,  // measure 27
2000
3020
0230
0302
,  // measure 28
0013
0000
0100
0000
1000
0000
0100
0000
1000
0000
0001
0000
0100
0000
0000
1000
,  // measure 29
0000
0000
0100
0000
0001
0000
0100
0000
0001
0000
1000
0000
0100
0000
0000
0001
,  // measure 30
0000
0000
0100
0000
1000
0000
0100
0000
1000
0000
0001
0000
0100
0000
0000
1000
,  // measure 31
0200
0320
2030
3002
,  // measure 32
0023
0000
0130
0000
1000
1000
0010
0000
,  // measure 33
0100
0000
0001
0000
1000
1000
0100
0000
,  // measure 34
0010
0100
1000
0001
0100
0100
0010
1000
,  // measure 35
0200
0320
0032
0203
,  // measure 36
0310
1000
0001
0000
0010
0000
0100
0000
,  // measure 37
1000
0001
0100
0000
0010
1000
0001
0000
,  // measure 38
0010
0100
1000
0000
0001
0000
0100
0000
,  // measure 39
0010
1000
0001
0000
0010
0100
1000
0000
,  // measure 40
0001
0100
0001
0000
1000
0000
0100
0000
,  // measure 41
0010
0100
1000
0000
0001
0100
0010
0000
,  // measure 42
1000
0000
0001
0000
0010
0000
0001
1000
0010
0000
0000
0000
0100
0001
1000
0000
,  // measure 43
0100
0000
0000
0000
0010
0000
0001
0000
0100
0000
0010
0000
0100
0000
0010
1000
,  // measure 44
0000
0000
0001
0000
0010
0000
0100
1000
0000
0000
0001
0000
0100
0000
0010
1000
,  // measure 45
0000
0000
0001
0000
0010
0000
0100
0000
1000
0000
0001
0100
0000
0010
0000
1010
,  // measure 46
0000
0000
1000
0000
0100
0000
0010
0001
0000
0000
1000
0000
0010
0000
0100
0001
,  // measure 47
0000
0000
1000
0000
0100
0000
0010
0001
0000
0001
0000
1000
0000
0010
0000
0110
,  // measure 48
0000
0000
0001
0000
0100
0000
0010
1000
0000
0000
0001
0000
0010
0000
0100
1000
,  // measure 49
0000
0000
0001
0000
0100
0000
0010
0000
1000
0000
0001
0010
0000
0100
0000
2100
,  // measure 50
0000
0000
0000
0000
0000
0000
0000
0000
0000
0000
0000
0001
0000
3001
0000
1000
,  // measure 51
0020
0230
0302
0023
,  // measure 52
0130
0000
1000
0000
0001
0000
1000
0010
0000
0100
0000
0002
0000
0000
0000
1003
,  // measure 53
0100
0000
0010
0000
0001
0000
1000
0001
0000
0010
0000
0200
0000
0000
0000
1300
,  // measure 54
0000
1000
0001
0000
0101
0000
0000
0000
0100
0000
0000
0000
0100
0000
0010
0000
,  // measure 55
2000
3200
0320
0032
,  // measure 56
0103
0000
0010
0000
1000
0000
0010
0000
1000
0000
0001
0000
0010
0000
0000
1000
,  // measure 57
0000
0000
0010
0000
0001
0000
0010
0000
0001
0000
1000
0000
0010
0000
0000
0001
,  // measure 58
0000
0000
0010
0000
1000
0000
0010
0000
1000
0000
0001
0000
0010
0000
0000
1000
,  // measure 59
0020
0230
2300
3002
,  // measure 60
0203
0000
0000
0000
0300
0000
0000
0000
0000
0000
0000
0000
0000
M000
0000
0000
,  // measure 61
00M0
0000
0000
0000
0000
0000
0000
0000
0000
0000
0000
0000
0000
M000
0000
00M0
;

//---------------dance-single - Feraligatr----------------
#NOTEDATA:;
#CHARTNAME:Feraligatr SE;
#STEPSTYPE:dance-single;
#DESCRIPTION:Feraligatr;
#CHARTSTYLE:Pad;
#DIFFICULTY:Easy;
#METER:4;
#RADARVALUES:0.244898,0.258214,0.021429,0.250000,0.067857,240.000000,237.000000,3.000000,35.000000,0.000000,0.000000,0.000000,0.000000,0.000000,0.244898,0.258214,0.021429,0.250000,0.067857,240.000000,237.000000,3.000000,35.000000,0.000000,0.000000,0.000000,0.000000,0.000000;
#CREDIT:Feraligatr;
#DISPLAYBPM:108.000000;
#NOTES:
// measure 0
0000
0000
0000
0000
,  // measure 1
0000
0000
0000
0000
,  // measure 2
0000
0000
0000
0000
,  // measure 3
0000
0000
0000
0000
,  // measure 4
1000
1000
1000
1000
,  // measure 5
0001
0000
0001
0000
0001
0000
0001
0100
,  // measure 6
0010
0010
0010
0010
,  // measure 7
1000
0000
1000
0000
1000
0000
1000
0001
,  // measure 8
0010
0010
0010
0010
,  // measure 9
0100
0000
0100
0000
0100
0000
0100
1000
,  // measure 10
0001
0001
0001
0001
,  // measure 11
0100
0000
0010
1000
0001
1000
0001
1000
,  // measure 12
0100
0010
0001
0100
,  // measure 13
0010
0000
0000
0000
1000
0000
0000
0000
0100
0000
0000
0010
0000
0010
0000
0001
,  // measure 14
0000
0100
0010
1000
,  // measure 15
0100
0000
0000
0000
0010
0000
0000
0001
0000
0001
0000
1000
0000
1000
0000
0010
,  // measure 16
0000
0100
0001
0010
,  // measure 17
0100
0000
0000
0000
1000
0000
0000
0000
0010
0000
0000
0100
0000
0100
0000
0001
,  // measure 18
0000
0000
0000
0000
,  // measure 19
2000
3200
0320
0032
,  // measure 20
1003
1000
0001
0100
,  // measure 21
0001
1000
0100
0010
,  // measure 22
0100
1100
1000
1000
,  // measure 23
0002
0203
0320
2030
,  // measure 24
3200
0310
0010
0001
,  // measure 25
1000
0010
0100
0001
,  // measure 26
1000
1001
0001
0001
,  // measure 27
0200
0320
2030
3200
,  // measure 28
0310
0001
1000
0001
,  // measure 29
0100
0010
0100
0001
,  // measure 30
1000
0100
1000
0001
,  // measure 31
0200
0320
2030
3002
,  // measure 32
0023
0030
0100
1000
,  // measure 33
0001
0100
0010
1000
,  // measure 34
0001
0010
0100
0010
,  // measure 35
0002
0203
0320
2030
,  // measure 36
3100
0100
0100
0100
,  // measure 37
0010
0000
0010
0000
0010
0000
0010
0001
,  // measure 38
1000
1000
1000
1000
,  // measure 39
0001
0000
0001
0000
0001
0000
0001
0100
,  // measure 40
0010
0010
0010
0010
,  // measure 41
1000
0000
1000
0000
1000
0000
1000
0001
,  // measure 42
0010
0010
0010
0010
,  // measure 43
0100
0000
1000
0001
0100
0001
0100
0001
,  // measure 44
1000
0100
0010
0001
,  // measure 45
0100
0000
0000
0000
0010
0000
0000
0000
1000
0000
0000
0100
0000
0100
0000
0010
,  // measure 46
0000
0001
0100
0010
,  // measure 47
1000
0000
0000
0000
0100
0000
0000
0010
0000
0010
0000
0001
0000
0001
0000
1000
,  // measure 48
0000
0010
0100
0001
,  // measure 49
0010
0100
1000
0010
,  // measure 50
0100
0000
0000
0000
,  // measure 51
0002
0023
0230
2300
,  // measure 52
3001
0001
0100
0010
,  // measure 53
1000
0001
0010
0100
,  // measure 54
1000
1100
0001
0001
,  // measure 55
2000
3020
0230
0302
,  // measure 56
0013
0001
1000
0001
,  // measure 57
0100
0010
0100
0001
,  // measure 58
1000
0100
0010
0001
,  // measure 59
2000
3020
0230
0302
,  // measure 60
0023
0030
0000
0000
;

//---------------dance-single - Feraligatr----------------
#NOTEDATA:;
#CHARTNAME:Feraligatr SN;
#STEPSTYPE:dance-single;
#DESCRIPTION:Feraligatr;
#CHARTSTYLE:Pad;
#DIFFICULTY:Beginner;
#METER:2;
#RADARVALUES:0.110204,0.171429,0.150000,0.007143,0.064286,108.000000,87.000000,21.000000,1.000000,0.000000,0.000000,0.000000,0.000000,0.000000,0.110204,0.171429,0.150000,0.007143,0.064286,108.000000,87.000000,21.000000,1.000000,0.000000,0.000000,0.000000,0.000000,0.000000;
#CREDIT:Feraligatr;
#DISPLAYBPM:108.000000;
#NOTES:
// measure 0
0000
0000
0000
0000
,  // measure 1
0000
0000
0000
0000
,  // measure 2
0000
0000
0000
0000
,  // measure 3
0000
0000
0000
0000
,  // measure 4
1000
0000
0000
0000
,  // measure 5
0001
0000
0000
0000
,  // measure 6
0100
0000
0000
0000
,  // measure 7
0010
0000
0000
0000
,  // measure 8
0100
0000
0000
0000
,  // measure 9
0001
0000
0000
0000
,  // measure 10
1000
0000
0000
0000
,  // measure 11
0100
0000
0000
0000
0000
0000
0000
0000
0000
0000
0000
0000
0000
0000
0000
0110
,  // measure 12
0000
0000
0000
0000
0000
0000
0000
0110
0000
0000
0000
0000
0000
0000
0000
0110
,  // measure 13
0000
0000
0000
0000
0000
0000
0000
0000
0000
0000
0000
0000
0000
0000
0000
1001
,  // measure 14
0000
0000
0000
0000
0000
0000
0000
1001
0000
0000
0000
0000
0000
0000
0000
1001
,  // measure 15
0000
0000
0000
0000
0000
0000
0000
0000
0000
0000
0000
0000
0000
0000
0000
0110
,  // measure 16
0000
0000
0000
0000
0000
0000
0000
0110
0000
0000
0000
0000
0000
0000
0000
0110
,  // measure 17
0000
0000
0000
0000
,  // measure 18
1000
0000
0000
0000
,  // measure 19
0001
0100
0010
1000
,  // measure 20
0001
0000
0000
0000
,  // measure 21
1000
0000
0000
0000
,  // measure 22
0001
1001
0000
0000
,  // measure 23
1000
0000
0000
0000
,  // measure 24
0020
0030
0000
0000
,  // measure 25
0100
0000
0000
0000
,  // measure 26
0010
0110
0000
0000
,  // measure 27
1000
0100
0010
0001
,  // measure 28
1000
0000
0010
0000
,  // measure 29
0100
0000
0001
0000
,  // measure 30
1000
0000
0100
0000
,  // measure 31
0010
0000
0001
0000
,  // measure 32
1000
0000
0000
0000
,  // measure 33
0001
0000
0000
0000
,  // measure 34
0100
0000
0000
0000
,  // measure 35
0010
0000
1000
0000
,  // measure 36
0001
0000
0000
0000
,  // measure 37
0010
0000
0000
0000
,  // measure 38
0100
0000
0000
0000
,  // measure 39
1000
0000
0000
0000
,  // measure 40
0001
0000
0000
0000
,  // measure 41
0100
0000
0000
0000
,  // measure 42
0010
0000
0000
0000
,  // measure 43
1000
0000
0000
0000
0000
0000
0000
0000
0000
0000
0000
0000
0000
0000
0000
1001
,  // measure 44
0000
0000
0000
0000
0000
0000
0000
1001
0000
0000
0000
0000
0000
0000
0000
1001
,  // measure 45
0000
0000
0000
0000
0000
0000
0000
0000
0000
0000
0000
0000
0000
0000
0000
0110
,  // measure 46
0000
0000
0000
0000
0000
0000
0000
0110
0000
0000
0000
0000
0000
0000
0000
0110
,  // measure 47
0000
0000
0000
0000
0000
0000
0000
0000
0000
0000
0000
0000
0000
0000
0000
1001
,  // measure 48
0000
0000
0000
0000
0000
0000
0000
1001
0000
0000
0000
0000
0000
0000
0000
1001
,  // measure 49
0000
0000
0000
0000
,  // measure 50
0001
0000
0000
0000
,  // measure 51
1000
0010
0100
0001
,  // measure 52
0010
0000
0000
0000
,  // measure 53
1000
0000
0000
0000
,  // measure 54
0001
1001
0000
0000
,  // measure 55
1000
0010
0100
0001
,  // measure 56
1000
0000
0100
0000
,  // measure 57
1000
0000
0001
0000
,  // measure 58
0100
0000
0010
0000
,  // measure 59
1000
0000
0001
0000
,  // measure 60
0010
0000
0000
0000
;
