#TITLE:Gang-Plank Galleon;
#SUBTITLE:;
#ARTIST:ACE;
#TITLETRANSLIT:;
#SUBTITLETRANSLIT:;
#ARTISTTRANSLIT:;
#GENRE:VGM;
#CREDIT:Feraligatr;
#BANNER:GG-bn.png;
#BACKGROUND:GG-bg.png;
#LYRICSPATH:;
#CDTITLE:FeraligatrV4-cd.png;
#MUSIC:ganggangplanklmao.ogg;
#OFFSET:-0.661000;
#SAMPLESTART:64.541000;
#SAMPLELENGTH:19.290001;
#SELECTABLE:YES;
#DISPLAYBPM:135.000000:149.000000;
#BPMS:0.000000=135.000000
,12.000000=136.000000
,13.000000=135.500000
,15.000000=135.250000
,24.000000=135.500000
,27.000000=135.000000
,28.000000=135.250000
,29.000000=135.500000
,31.000000=135.000000
,32.000000=135.250000
,33.000000=135.500000
,34.000000=135.000000
,35.000000=135.500000
,36.000000=135.000000
,37.000000=135.500000
,38.000000=135.250000
,40.000000=135.500000
,41.000000=135.250000
,42.000000=136.000000
,43.000000=137.250000
,44.000000=138.500000
,45.000000=139.500000
,46.000000=141.000000
,47.000000=142.000000
,48.000000=143.000000
,49.000000=144.000000
,49.500000=145.000000
,50.000000=146.000000
,52.000000=147.500000
,53.000000=149.000000
,58.000000=149.300003
;
#STOPS:
;
#BGCHANGES:;
#KEYSOUNDS:;
#ATTACKS:;

//---------------dance-single - Feraligatr----------------
#NOTES:
     dance-single:
     Feraligatr:
     Challenge:
     11:
     0.911330,0.964828,0.448276,0.344828,0.965517,925.000000,860.000000,65.000000,50.000000,6.000000,0.000000,0.911330,0.964828,0.448276,0.344828,0.965517,925.000000,860.000000,65.000000,50.000000,6.000000,0.000000:
// measure 0
0000
0000
0000
0000
,  // measure 1
0000
0000
0000
0MM0
,  // measure 2
1100
0000
0100
0010
0100
0000
0100
0010
0100
1000
0001
0100
2000
0000
3100
0000
,  // measure 3
0110
0000
0001
0100
0001
0000
0001
0100
0001
1000
0100
0010
2000
0000
3010
0000
,  // measure 4
0011
0000
0010
0100
0010
0000
0010
0100
0010
0001
1000
0010
0001
0010
0100
0001
,  // measure 5
1000
0100
0010
0100
1000
0001
0100
0010
1010
0000
0011
0000
1010
0000
0000
0000
,  // measure 6
0002
0000
0000
0000
0000
0000
0000
0003
0101
0000
0001
1000
0001
0000
0001
1000
,  // measure 7
0001
0100
0010
1000
0200
0000
0310
0000
0110
0000
0100
1000
0001
0100
0001
1000
,  // measure 8
0100
0000
0010
1000
0010
0100
1000
0001
1000
0000
1000
0010
1000
0000
1000
0010
,  // measure 9
1000
0001
0100
0001
0020
0000
0130
0000
1000
0001
0100
0001
0020
0000
0130
0000
,  // measure 10
1000
0100
0010
0100
1000
0010
0100
0001
1000
0000
1000
0010
1000
0000
1000
0010
,  // measure 11
1000
0001
0100
0001
0020
0000
0130
0000
0110
0000
1000
0100
1000
0000
1000
0100
,  // measure 12
1000
0001
0100
0001
0020
0000
0130
0000
1100
0000
0000
0000
1001
0000
0001
0000
,  // measure 13
0101
0000
0100
0000
0010
0000
1000
0000
0001
1000
0100
1000
0001
0100
0010
0100
,  // measure 14
0001
1000
0100
0010
0001
1000
0100
1000
0010
0000
1000
0001
0010
0000
0001
1000
,  // measure 15
0010
0000
1000
0001
0010
0001
1000
0010
0100
0000
0001
1000
0100
0000
1000
0001
,  // measure 16
0100
0000
0001
1000
0100
0010
0001
1000
0010
0000
1000
0001
0010
0000
0001
1000
,  // measure 17
0010
0000
1000
0001
0010
0100
1000
0001
0100
0000
0001
1000
0100
0000
1000
0001
,  // measure 18
0100
0010
1000
0001
1000
0010
0100
0001
0010
0000
0001
1000
0010
0000
1000
0001
,  // measure 19
0010
0000
0100
0000
1000
0001
0010
0001
0100
0000
0001
0000
1000
0100
0000
0100
,  // measure 20
1000
0000
0001
0000
0100
0000
0001
0000
0010
0000
0100
1000
0001
0000
1000
0010
,  // measure 21
0100
0000
0001
1000
0100
0000
0010
0001
0100
0000
0010
0000
1000
0000
0001
0010
,  // measure 22
0100
0000
1000
0001
1000
0100
0010
0001
0100
0000
0010
1000
0001
0000
0010
0001
,  // measure 23
1000
0000
0010
1000
0100
0000
0010
0001
0100
0001
1000
0000
0010
0000
1000
0001
,  // measure 24
0010
0000
0100
1000
0010
0000
0100
0001
0010
0100
0010
0000
0001
1000
0000
1000
,  // measure 25
0001
0000
0100
0000
0010
0000
1000
0000
0100
0000
0010
0001
1000
0000
0001
0100
,  // measure 26
0010
1000
0001
1000
0100
0010
0100
1000
0010
0000
0100
0001
1000
0000
0100
1000
,  // measure 27
0001
0000
0100
0001
0010
0100
0010
0001
0100
0000
0010
1000
0001
0000
0010
0001
,  // measure 28
1000
0000
0010
0000
1000
0001
0100
0001
0010
0100
0000
0100
1000
0000
0001
1000
,  // measure 29
0010
0000
0100
0000
0001
1000
0100
1000
0040
0000
0000
0000
0000
0000
0000
0000
,  // measure 30
0000
0000
0000
0000
0000
0000
0000
0030
0100
0001
0100
0001
1000
0000
0100
0000
,  // measure 31
1100
0000
0000
1000
0100
0000
0000
0000
1000
0001
1000
0001
0100
0000
0010
0000
,  // measure 32
0110
0000
0000
0100
0010
0000
1000
0000
0001
0010
0001
0010
0100
0000
1000
0000
,  // measure 33
1100
0000
0000
0100
1000
0000
0000
0000
0001
0100
0001
0100
0010
0000
1000
0001
,  // measure 34
1000
0000
0001
1000
0001
0200
0010
0000
0301
1000
0001
1000
0100
0000
0010
0000
,  // measure 35
0011
0000
0000
0001
0010
0000
0000
0000
0100
1000
0100
1000
0001
0000
0100
0000
,  // measure 36
0101
0000
0000
0001
0100
0000
0010
0000
1000
0001
1000
0001
0010
0000
0100
0000
,  // measure 37
0110
0000
0000
0010
0100
0000
0000
0000
0044
0000
0000
0000
0000
0000
0000
0000
,  // measure 38
0000
0000
0000
0000
0000
0000
0033
0000
1001
0000
0001
0100
0001
0000
0001
0100
,  // measure 39
0001
1000
0010
1000
0100
0002
00M0
0003
0011
0000
0010
0100
0010
0000
0010
0100
,  // measure 40
0010
0001
1000
0010
0100
2000
00M0
3000
1010
0000
0010
0100
0010
0000
0010
0100
,  // measure 41
0010
1000
0001
0010
0200
0300
0210
0300
0210
0000
0310
0000
0001
0000
1000
0000
,  // measure 42
0010
0100
0001
0000
1000
0000
0100
0010
0001
0000
0001
0010
0001
0000
0001
0010
,  // measure 43
0001
1000
0100
1000
0010
0002
0M00
0003
0101
0000
0100
0010
0100
0000
0100
0010
,  // measure 44
0100
0001
1000
0100
0010
2000
0M00
3000
1100
0000
0100
0010
0100
0000
0100
0010
,  // measure 45
0100
1000
0001
0100
0020
0030
0120
0030
0120
0000
1030
0001
0010
0100
0010
0001
,  // measure 46
1000
0010
1000
0001
0010
0100
0010
0001
0100
0000
0010
0000
1000
0000
0001
1000
,  // measure 47
0100
0000
1000
0000
1001
0000
0001
0000
0101
0000
0100
0000
0010
0000
1000
0001
,  // measure 48
0010
0000
0100
0000
1100
0000
1000
0000
1001
0000
0001
0000
0100
0000
0010
1000
,  // measure 49
0001
0010
0110
0100
1100
2000
3200
0302
,  // measure 50
2003
0000
3010
0100
1000
0001
0100
0001
0010
0000
0100
0000
1000
0000
0001
1000
,  // measure 51
0010
0000
0100
0000
0101
0000
0001
0000
1001
0000
1000
0000
0100
0000
0010
0001
,  // measure 52
1000
0000
0010
0000
0110
0000
0100
0000
0101
0000
0001
0000
1000
0000
0100
1000
,  // measure 53
0001
0100
0101
0001
0044
0000
0000
0000
,  // measure 54
0000
0000
0000
0033
4001
0000
0000
0000
,  // measure 55
0000
0000
0000
0000
0000
0000
0000
0000
0000
0000
0000
3000
0001
0000
1000
0000
,  // measure 56
0100
1000
0000
0010
0000
0100
0000
0001
2000
0000
3100
0010
0000
0100
0000
1000
,  // measure 57
0002
0000
0103
0010
0200
0000
0301
1000
0100
0000
0010
0001
0010
0001
1000
0010
,  // measure 58
0200
0000
0301
1000
0200
0000
0310
0000
0011
0000
0001
0000
1000
0100
0000
1000
,  // measure 59
0000
0010
0000
0100
0001
1000
0100
1000
0001
0100
0001
0010
0100
1000
0100
1000
,  // measure 60
0001
0100
0001
0010
0100
1000
0001
0100
2000
0000
0000
0000
0000
0000
3100
0010
,  // measure 61
0200
0000
0000
0000
0000
0000
0302
0000
2003
0000
3100
1000
0001
0100
0010
0100
,  // measure 62
0001
1000
0100
0010
0100
1000
0010
0100
0001
1000
0100
1000
0001
0100
0010
1000
,  // measure 63
0100
0000
0101
0000
1100
0000
1000
0001
0100
0010
0100
0001
1000
0100
0010
0001
,  // measure 64
0100
0000
1100
0000
0101
0000
0001
1000
0001
0100
0010
1000
0100
0010
0100
1000
,  // measure 65
0010
0000
0011
0000
1010
0000
1000
0001
0100
0001
0010
0100
1000
0010
0100
0010
,  // measure 66
1000
0000
1100
0000
4010
0000
0000
0000
0000
0000
0000
3000
0001
0000
0010
0000
,  // measure 67
0100
0001
0000
1000
0000
0001
0000
0100
0020
0000
0000
0000
0032
0000
0000
1003
,  // measure 68
0020
0000
0000
0000
0230
0000
0001
0000
0302
0000
0000
0000
1000
0000
0013
0100
,  // measure 69
2000
0000
0000
0000
0001
0000
0000
3100
0002
0000
0103
0010
0001
1000
0010
1000
,  // measure 70
0100
0010
0001
1000
0010
0100
0001
1000
0200
0000
0000
0000
1300
0000
0100
0000
,  // measure 71
0210
0000
1300
0100
1000
0100
1000
0100
,  // measure 72
1000
0000
0020
0000
0000
0000
0000
0030
0201
0000
0000
0000
0301
0000
0100
0000
,  // measure 73
0210
0000
0301
0100
0001
0100
0001
0100
,  // measure 74
0001
0000
0020
0000
0000
0000
0000
0030
0210
0000
0000
0000
0310
0000
0100
0000
,  // measure 75
1200
0000
0310
0100
0010
0100
0010
0100
,  // measure 76
2100
0000
0001
3000
2000
0000
0000
3000
2001
0000
0000
0000
0000
0000
0100
0000
,  // measure 77
0010
0000
3100
1000
0000
0001
0100
0000
,  // measure 78
0001
0100
0010
0000
1000
0100
0010
0001
0100
0000
0010
0000
1000
0000
0001
0010
,  // measure 79
0100
0000
1000
0000
1001
0000
0001
0100
0010
0000
1000
0000
0001
0000
0010
0001
,  // measure 80
1000
0000
0010
0000
0110
0000
0100
0001
1000
0000
0100
0000
0010
0000
0001
1000
,  // measure 81
0100
1000
1001
0001
0401
0000
0000
0000
,  // measure 82
0000
0000
0000
0000
0301
1000
0010
1000
0100
0000
0010
0000
0100
0000
1000
0001
,  // measure 83
0010
0000
0001
0000
0101
0000
0100
0010
1000
0000
0001
0000
0010
0000
0100
1000
,  // measure 84
0001
0000
0100
0000
0110
0000
0010
1000
0001
0000
0010
0000
0100
0000
1000
0001
,  // measure 85
0010
0001
0101
0100
4040
0000
0000
0000
,  // measure 86
0000
0000
0000
0000
0000
0000
3030
0000
1000
0001
0100
0001
1000
0100
0010
0100
,  // measure 87
1000
0001
0100
0001
1000
0100
0010
0001
0000
0000
0000
0000
0000
0000
0000
0000
;

//---------------dance-single - Feraligatr----------------
#NOTES:
     dance-single:
     Feraligatr SH:
     Hard:
     10:
     0.699507,0.874375,0.179310,0.462069,0.562069,710.000000,684.000000,26.000000,67.000000,0.000000,0.000000,0.699507,0.874375,0.179310,0.462069,0.562069,710.000000,684.000000,26.000000,67.000000,0.000000,0.000000:
0000
0000
0000
0000
,
0000
0000
0000
0000
,
1001
0000
0001
0100
0001
0000
1000
0010
1000
0001
0010
0100
2000
0000
3001
0000
,
1000
0000
0001
0010
0001
0000
1000
0100
1000
0001
0100
0010
2000
0000
3001
0000
,
1000
0000
0001
0100
0001
0000
1000
0010
1000
0001
0010
0001
1000
0010
1000
0001
,
0010
0100
1000
0001
1000
0100
0010
0001
0100
0000
0010
0000
0100
0000
0000
0000
,
0002
0000
0000
0000
0000
0000
0000
0003
1001
0000
1000
0100
1000
0000
0001
0010
,
0001
1000
0010
0100
0002
0000
1003
0000
0001
0000
1000
0100
1000
0001
0100
0010
,
1000
0000
0001
0010
0100
1000
0001
0100
0001
0000
1000
0010
1000
0000
0001
0100
,
0001
1000
0100
0010
0002
0000
1003
0000
0001
0010
0100
1000
0002
0000
1003
0000
,
0001
0100
0010
1000
0001
0010
0100
1000
0001
0000
1000
0100
1000
0000
0001
0010
,
0001
1000
0010
0100
0002
0000
1003
0000
0001
0000
1000
0010
1000
0000
0001
0100
,
0001
1000
0100
0010
0002
0000
1003
0000
0001
0000
0000
0000
0100
0000
0010
0000
,
0020
0000
0000
0000
1030
0000
0000
0000
0001
0010
0001
0010
0100
1000
0100
1000
,
0001
0100
0001
0100
0010
1000
0010
1000
0001
0000
0010
0000
0100
0000
1000
0000
,
0001
0000
0100
0000
0010
1000
0001
1000
0100
0000
0010
0000
0100
0000
1000
0000
,
0001
0000
0100
0000
0001
1000
0100
1000
0001
0000
0100
0000
0010
0000
1000
0000
,
0001
0000
0010
0000
0100
1000
0001
1000
0010
0000
0100
0000
0001
0000
1000
0100
,
0000
1000
0001
0010
0001
0100
0010
1000
0200
0000
0000
0000
1000
0000
0000
0000
,
0010
0000
1300
0001
0200
0000
0010
0000
,
0001
0000
0310
0010
2000
0000
0001
0000
,
0010
0000
3001
0010
0200
0000
1000
0000
,
0010
0000
0000
0000
1300
0100
0010
0001
0200
0000
0000
0000
1000
0000
0000
0000
,
0010
0000
0301
1000
0200
0000
0001
0000
,
0010
0000
1300
0001
0200
0000
1000
0000
,
0010
0000
0301
1000
0020
0000
0001
0000
,
1030
0001
1000
0100
0010
0100
1000
0001
0200
0000
0000
0000
1000
0000
0000
0000
,
0010
0000
0301
1000
0200
0000
0001
0000
,
0010
0000
1300
0001
0200
0000
1000
0000
,
0010
0000
0301
1000
0040
0000
0000
0000
,
0000
0000
0000
0000
0000
0000
0000
0030
1000
0001
1000
0001
0100
0000
0000
0000
,
0010
0000
0000
1000
0001
0000
0000
0000
1000
0100
1000
0100
0010
0000
0000
0000
,
0001
0000
0000
1000
0001
0000
0000
0000
1000
0010
1000
0010
0100
0000
0000
0000
,
0010
0000
0000
0100
0001
0000
0000
0000
1001
0000
0000
0000
1001
0000
0000
0000
,
1001
0000
1000
0100
0010
0002
0000
0000
1003
0010
1000
0010
0100
0000
0000
0000
,
0001
0000
0000
1000
0001
0000
0000
0000
1000
0100
1000
0100
0010
0000
0000
0000
,
0100
0000
0000
1000
0001
0000
0000
0000
1000
0010
1000
0010
0100
0000
0000
0000
,
0001
0000
0000
1000
0001
0000
0000
0000
0040
0000
0000
0000
0000
0000
0000
0000
,
0000
0000
0000
0000
0000
0000
0030
0000
0110
0000
1000
0100
1000
0000
1000
0100
,
1000
0100
1000
0100
1000
0020
0000
0000
0130
0000
0001
0100
0001
0000
0001
0100
,
0001
0100
0001
0100
0001
0020
0000
0000
0031
0000
1000
0001
1000
0000
1000
0001
,
1000
0001
1000
0001
0010
0000
0010
0000
0020
0000
0000
0000
0100
0000
0000
0000
,
0001
0000
0000
0000
0130
0000
1000
0000
1001
0000
0001
0100
0001
0000
0001
0100
,
0001
0100
0001
0100
0001
0020
0000
0000
0130
0000
1000
0100
1000
0000
1000
0100
,
1000
0100
1000
0100
1000
0020
0000
0000
1030
0000
0001
1000
0001
0000
0001
1000
,
0001
1000
0001
1000
0010
0000
0010
0000
0020
0000
0400
0000
0000
0000
0000
0000
,
0000
0000
0000
0000
0000
0000
0330
0000
0102
0000
0000
0000
1000
0000
0000
1003
,
0100
0000
0010
0000
0002
0000
0003
0000
0200
0000
0000
0000
0001
0000
0000
0310
,
1000
0000
0001
0000
0020
0000
0030
0000
0200
0000
0000
0000
1000
0000
0000
0310
,
0100
1000
0002
0003
0100
0002
2003
3200
,
0302
0000
0203
0000
2300
0000
3002
0000
0203
0000
0000
0000
0010
0000
0000
0301
,
1000
0000
0001
0000
0020
0000
0030
0000
0200
0000
0000
0000
1000
0000
0000
0310
,
0001
0000
1000
0000
0020
0000
0030
0000
0200
0000
0000
0000
0010
0000
0000
0301
,
1000
0100
2000
3000
0040
0000
0000
0000
,
0000
0000
0000
0030
1000
0001
1000
0001
,
0010
0000
0100
1000
0001
0100
0001
1000
,
0001
0010
0001
0100
0000
0001
1000
0100
,
0010
0001
0002
0000
1003
0010
0100
0002
,
0000
0000
1003
0100
0010
0000
0001
0000
1000
0000
0010
0000
0100
0000
0010
0000
,
1000
0001
1000
0001
0100
0010
1000
0200
,
0000
0310
0001
1000
0010
0100
0010
1000
,
0010
0000
1000
0000
0001
0000
0010
0000
0001
0000
1000
0100
1000
0100
0010
0001
,
0010
0001
1000
0010
1000
0010
0100
0001
1000
0100
1000
0000
0001
0100
0001
0000
,
1000
0000
0100
0020
0000
0000
0031
0000
1000
0000
0010
0000
1000
0000
0001
0000
,
0010
0000
0100
2000
0000
0000
3001
0000
1000
0000
0010
0000
0100
0000
0001
0000
,
0010
0000
0100
0000
1000
0000
0010
0000
0210
0000
0000
0300
0102
0000
0000
0003
,
2001
0000
0000
3000
1200
0000
0000
0000
1300
0000
0001
0000
0100
0000
0001
0000
,
1000
0100
1000
0100
0010
0001
1000
0020
,
0000
0130
0001
1000
0100
0010
0100
1000
,
0001
0000
0100
0000
0010
0000
0100
0000
0001
0000
1000
0100
1000
0100
0010
0001
,
0010
0001
1000
0010
1000
0010
0100
0001
2000
0000
0000
0000
3100
0000
1000
0000
,
0200
0000
1300
0100
1000
0100
1000
0100
,
1000
0000
0020
0000
0000
0000
0000
0030
0102
0000
0000
0000
0103
0000
0001
0000
,
0200
0000
0301
0100
0001
0100
0001
0100
,
0001
0000
0020
0000
0000
0000
0000
0030
0210
0000
0000
0000
0310
0000
0100
0000
,
0020
0000
0130
0010
0100
0010
0100
0010
,
0002
0000
0000
0003
0002
0000
0000
0003
0002
0000
0000
0000
0000
0000
0000
0000
,
0000
0000
0000
0000
,
1003
0010
0100
0000
0001
0010
0100
1000
0001
0000
0100
0000
0010
0000
1000
0001
,
1000
0000
0100
0000
0110
0000
0000
0000
0011
0000
0001
0000
1000
0000
0010
0100
,
0010
0000
1000
0000
1001
0000
0000
0000
0101
0000
0100
0000
0010
0000
1000
0001
,
1000
0100
0110
0000
0014
0000
0000
0000
,
0000
0000
0000
0000
1003
0010
0100
0001
1000
0000
0100
0000
0010
0000
0001
1000
,
0010
0000
0100
0000
0110
0000
0010
0000
1010
0000
1000
0000
0001
0000
0010
0100
,
0010
0000
0001
0000
1001
0000
1000
0000
1100
0000
0100
0000
0010
0000
0001
1000
,
0001
0100
0110
0010
4040
0000
0000
0000
,
0000
0000
0000
0000
0000
0000
3030
0000
0001
0010
0001
0010
0100
1000
0100
1000
,
0001
0100
0001
0100
0010
1000
0010
1000
0000
0000
0000
0000
0000
0000
0000
0000
;

//---------------dance-single - Feraligatr----------------
#NOTES:
     dance-single:
     Feraligatr SM:
     Medium:
     8:
     0.484729,0.663319,0.503448,0.427586,0.048276,492.000000,419.000000,73.000000,62.000000,0.000000,0.000000,0.484729,0.663319,0.503448,0.427586,0.048276,492.000000,419.000000,73.000000,62.000000,0.000000,0.000000:
0000
0000
0000
0000
,
0000
0000
0000
0000
,
1010
0000
1010
0000
1000
0010
0100
0001
,
0011
0000
0011
0000
0001
0010
0100
1000
,
1010
0000
1010
0000
1000
0010
0100
0001
,
1001
1000
1010
0010
1001
0110
1001
0000
,
2000
0000
0000
0000
0000
0000
0000
3000
0101
0000
0000
0000
0101
0000
0000
0000
,
0001
0100
0010
1000
1100
0000
1100
0000
,
1000
0100
0010
0001
0101
0000
0101
0000
,
0001
0100
0010
1000
1100
0100
0010
0001
,
1001
1000
1010
0010
0110
0000
0110
0000
,
0100
0001
1000
0100
0110
0000
0110
0000
,
0010
0001
1000
0010
0100
0000
0100
0001
,
0002
1003
0004
0043
,
0430
0000
4300
0000
3001
0100
0010
0100
,
0001
1000
0010
1000
0100
0010
0100
1000
,
0001
1000
0100
0010
0001
0100
0010
0100
,
0001
1000
0010
0100
0001
0010
0100
0010
,
0001
1000
0040
0000
0230
0000
0000
0000
,
0000
0000
0302
0003
2000
0000
0000
0000
,
0000
0000
3002
0003
0020
0000
0000
0000
,
0000
0000
0230
0300
2000
0000
0000
0000
,
0000
3040
0230
1000
,
0000
0000
0302
0003
0020
0000
1000
0000
,
0000
0000
0032
0003
0200
0000
1000
0000
,
0000
0000
0320
0030
2000
0000
0000
0000
,
0000
0000
3200
0001
,
0000
0000
2300
3000
0020
0000
0001
0000
,
0000
0000
2030
3000
0200
0000
0001
0000
,
0000
0000
2300
3000
0040
0000
0000
0000
,
0000
0000
0000
0000
0000
0000
0000
0030
1010
0000
0000
0000
1000
0000
0001
0000
,
0011
0000
0000
0010
0100
0000
0000
0000
1100
0000
0000
0000
1000
0000
0001
0000
,
0101
0000
0000
0100
0010
0000
0000
0000
0110
0000
0000
0000
0100
0000
0001
0000
,
1001
0000
0000
1000
0100
0000
0000
0000
0110
0000
0000
0000
0110
0000
0000
0000
,
0110
0000
0000
0100
0010
0000
0001
0000
1001
0000
0000
0000
1000
0000
0010
0000
,
0110
0000
0000
0100
0001
0000
0000
0000
1001
0000
0000
0000
1000
0000
0100
0000
,
0110
0000
0000
0010
0001
0000
0000
0000
1001
0000
0000
0000
1000
0000
0010
0000
,
0110
0000
0000
0100
0001
0000
0000
0000
0040
0000
0000
0000
0000
0000
0000
0000
,
0000
0000
0000
0030
1001
0000
1001
0000
,
1000
0000
0100
0000
1000
0010
0000
0000
0110
0000
0000
0000
0110
0000
0000
0000
,
0100
0000
0001
0000
1000
0100
0000
0000
0110
0000
0000
0000
0110
0000
0000
0000
,
0100
1000
0011
0011
0022
0000
0000
0000
,
0000
0000
0000
0033
1001
0000
1001
0000
,
0001
0000
0100
0000
0001
0010
0000
0000
0110
0000
0000
0000
0110
0000
0000
0000
,
0100
0000
1000
0000
0001
0100
0000
0000
0110
0000
0000
0000
0110
0000
0000
0000
,
0100
0001
1010
1010
2020
0000
0000
0000
,
0000
0000
0000
3030
1002
0000
0000
0000
,
0000
0000
0023
0030
0210
0000
0000
0000
,
0000
0000
2300
3000
1002
0000
0000
0000
,
0000
0000
0203
0300
0101
0001
1000
0100
,
0001
0100
1000
0000
2001
0000
0000
0000
,
0000
0000
3020
0030
0210
0000
0000
0000
,
0000
0000
0302
0003
2001
0000
0000
0000
,
0000
0000
3200
0300
0014
0000
0000
0000
,
0000
0000
0000
0003
1000
0100
0010
0001
,
1000
0100
0010
0001
1000
0010
0100
0001
,
1000
0100
0010
0001
0000
1000
0010
0100
,
0010
1000
0001
0000
1000
0100
0010
0001
,
0000
1000
0000
0000
0000
0001
0100
0010
,
1000
0001
1000
0001
0010
0100
1000
0001
,
0000
0100
0010
0100
0001
1000
0100
0010
,
0100
1000
0001
0100
0010
1000
0001
0010
,
0000
0000
0000
0100
1000
0001
0100
0010
,
0100
0000
0000
0001
0000
0000
1000
0000
0100
0000
0010
0000
0001
0000
1000
0000
,
0010
0000
0000
0100
0000
0000
0001
0000
1000
0000
0100
0000
1000
0000
0001
0000
,
0100
0010
0100
0001
1000
0000
0010
0000
,
0100
0000
0001
0000
0000
1000
0100
0010
,
0001
1000
0001
1000
0010
0100
0001
1000
,
0000
0100
0010
0100
1000
0001
0100
0010
,
0100
0001
1000
0100
0010
0001
1000
0010
,
0000
0000
0100
0000
0001
0000
1000
0000
0200
0000
0000
0300
0100
0000
1000
0000
,
0200
0000
0000
0300
0100
0000
1000
0000
0100
0000
1000
0000
0100
0000
1000
0000
,
0100
0000
0020
0000
0000
0000
0000
0030
0201
0000
0000
0300
0100
0000
0001
0000
,
0200
0000
0000
0300
0100
0000
0001
0000
0100
0000
0001
0000
0100
0000
0001
0000
,
0100
0000
0020
0000
0000
0000
0000
0030
2001
0000
0000
3000
1000
0000
0001
0000
,
2000
0000
0000
3000
1000
0000
0001
0000
1000
0000
0001
0000
1000
0000
0001
0000
,
0020
0000
0000
0030
0020
0000
0000
0030
0020
0000
0000
0000
0000
0000
0000
0000
,
0000
0000
0000
0000
,
0031
1000
0001
0000
0400
0000
0000
0000
0320
0000
0000
0000
1000
0000
0000
0000
,
0100
0000
2030
3000
1200
0000
1000
0000
,
0010
0000
2300
3000
1002
0000
0100
0000
,
1000
0000
0203
0300
0120
0000
1000
0000
,
0100
4030
3002
0010
,
1000
0000
0023
0030
2100
0000
0100
0000
,
0001
3010
0201
0010
,
0001
0000
0320
0030
2001
0000
0100
0000
,
0001
0010
3004
0043
,
0430
0000
0000
0000
4300
0000
0000
3000
0000
0000
0000
0000
0000
0000
0000
0000
;

//---------------dance-single - Feraligatr----------------
#NOTES:
     dance-single:
     Feraligatr SE:
     Easy:
     5:
     0.271921,0.482414,0.137931,0.427586,0.000000,276.000000,256.000000,20.000000,62.000000,0.000000,0.000000,0.271921,0.482414,0.137931,0.427586,0.000000,276.000000,256.000000,20.000000,62.000000,0.000000,0.000000:
0000
0000
0000
0000
,
0000
0000
0000
0000
,
1000
0000
1000
0000
1000
0010
0100
0000
,
0001
0000
0001
0000
0001
0010
0100
0000
,
1000
0000
1000
0000
1000
0010
0100
0000
,
0001
0000
0001
0000
1000
0001
1000
0000
,
0000
0000
0001
0001
,
0001
0100
0010
0000
1000
0000
1000
0000
,
1000
0100
0010
0000
0001
0000
0001
0000
,
0001
0100
0010
0000
1000
0100
0010
0000
,
0001
0100
0010
0000
1000
0000
1000
0000
,
1000
0010
0100
0000
0001
0000
0001
0000
,
0001
0010
0100
0000
1000
0000
1000
0000
,
0001
0001
2000
3020
,
0230
0302
1003
1000
,
1000
0000
0100
0100
,
0100
0000
0010
0010
,
0010
0000
0001
0001
,
0001
2000
3020
0000
,
0000
0130
0002
0000
,
0000
1003
0200
0000
,
0000
0310
0002
0000
,
0000
2003
3020
0000
,
0000
0130
0002
0000
,
0000
1003
0200
0000
,
0000
1300
0020
0000
,
0000
0000
0230
0000
,
0000
0301
2000
0000
,
0000
3100
0020
0000
,
0000
0031
0200
0000
,
0000
0000
0000
0300
0001
0000
0001
0000
,
0000
0000
1000
1000
,
0000
0000
0100
0100
,
0000
0000
0010
0010
,
0010
0010
0001
0001
,
0000
0000
1000
1000
,
0000
0000
0010
0010
,
0000
0000
0200
0000
,
0000
0000
0000
0300
1001
0000
1001
0000
,
1001
0100
0110
0110
,
0110
0010
1001
1001
,
1001
0000
0100
0010
0200
0000
0000
0000
,
0000
0000
0000
0300
1001
0000
1001
0000
,
1001
0100
0110
0110
,
0110
0010
1001
1001
,
1001
0000
0010
0100
0020
0000
0000
0000
,
0000
0000
0000
0030
2001
0000
0000
0000
,
0000
3100
0020
0000
,
0000
0031
2000
0000
,
0000
3010
0200
0000
,
0000
0301
2000
0000
,
0000
3100
0020
0000
,
0000
0031
2000
0000
,
0000
3100
0020
0000
,
0000
0000
0000
0030
0001
0000
0100
0000
,
0001
1000
0100
0010
,
0100
1000
0001
0100
,
0010
0100
0001
1000
,
0100
0010
0001
1000
,
0010
0100
0010
1000
,
0001
0010
0100
1000
,
0001
1000
0010
0100
,
0001
0010
0100
0010
,
0001
1000
0001
0000
0100
0000
0010
0000
,
1000
0001
1000
0000
0100
0000
0010
0000
,
0001
1000
0001
0000
0100
0000
0010
0000
,
1000
0001
0020
0000
0000
0000
0130
0000
,
1000
0001
0200
0320
,
2030
3002
2003
0000
,
3200
0000
0320
0000
,
0000
0030
2001
0000
,
3002
0000
1003
1000
,
1000
0020
0000
0000
0230
0000
0000
0000
,
0302
0000
0103
0100
,
0100
0020
0000
0000
2030
0000
0000
0000
,
3002
0000
1003
1000
,
0020
0000
0000
0030
0020
0000
0000
0030
0020
0000
0000
0000
0000
0000
0000
0000
,
0000
0000
0000
0000
,
1030
0002
0023
0000
,
0000
0130
2000
0000
,
0000
3001
0200
0000
,
0000
0310
2000
0000
,
0000
3002
0023
0000
,
0000
0130
2000
0000
,
0000
3001
0200
0000
,
0000
0301
0020
0000
,
0000
0030
0002
0203
,
0320
0000
0000
0000
2030
0000
0000
3000
0000
0000
0000
0000
0000
0000
0000
0000
;

//---------------dance-single - Feraligatr----------------
#NOTES:
     dance-single:
     Feraligatr SN:
     Beginner:
     2:
     0.125123,0.150754,0.006897,0.075862,0.000000,127.000000,126.000000,1.000000,11.000000,0.000000,0.000000,0.125123,0.150754,0.006897,0.075862,0.000000,127.000000,126.000000,1.000000,11.000000,0.000000,0.000000:
0000
0000
0000
0000
,
0000
0000
0000
0000
,
1000
0000
0000
0000
,
0001
0000
0000
0000
,
0100
0000
0000
0000
,
0010
0000
1000
1000
,
0000
0000
0001
0000
,
0000
0000
0010
0000
,
0000
0000
0100
0000
,
0000
0000
1000
0000
,
0001
0000
1000
0000
,
0000
0000
0010
0000
,
0000
0000
0100
0000
,
0000
0000
0002
0000
,
0000
0000
0000
0000
0000
0000
0000
0003
1001
0000
0000
0000
0000
0000
0000
0000
,
0000
0000
1000
0000
,
0000
0000
0100
0000
,
0000
0000
0010
0000
,
0000
0001
1000
0000
,
0000
0010
0100
0000
,
0000
0001
1000
0000
,
0000
0100
0010
0000
,
0000
0001
1000
0000
,
0000
0010
0100
0000
,
0000
0001
1000
0000
,
0000
0100
0010
0000
,
0000
0100
1000
0000
,
0000
0001
0100
0000
,
0000
0010
1000
0000
,
0000
0001
0020
0000
,
0000
0000
0000
0030
0200
0000
0300
0000
,
0000
0000
2000
3000
,
0000
0000
0002
0003
,
0000
0000
0100
0100
,
0100
0000
0002
0003
,
0000
0000
2000
3000
,
0000
0000
0002
0003
,
0000
0000
0020
0000
,
0000
0000
0130
0000
,
0100
0000
1000
0000
,
1000
0000
0001
0000
,
0001
0000
0100
0000
,
0100
0000
0010
0000
,
0010
0000
1000
0000
,
1000
0000
0001
0000
,
0001
0000
0010
0000
,
0000
0000
0001
0000
,
0000
0100
0010
0000
,
0000
1000
0001
0000
,
0000
0010
0100
0000
,
0000
0010
0001
0000
,
0000
1000
0010
0000
,
0000
0100
0001
0000
,
0000
1000
0020
0000
,
0000
0000
0000
0030
1000
0000
0000
0000
,
0000
0000
0001
0000
,
0000
0000
0010
0000
,
0000
0000
0100
0000
,
0000
0000
0010
0000
,
0000
0000
0001
0000
,
0000
0000
1000
0000
,
0000
0000
0010
0000
,
0000
0000
0100
0000
,
0000
0000
0001
0000
,
0000
0000
1000
0000
,
0000
0000
0100
0000
,
0000
0000
1000
0000
,
0000
0000
0001
0000
,
0000
0000
0100
0000
,
0000
0000
0010
0000
,
0000
0000
1000
0000
,
0001
0000
0000
0000
,
0001
0000
0010
0000
,
0100
0000
0000
0000
,
0100
0000
1000
0000
,
0001
0000
0000
0000
,
0001
0001
0001
0000
,
0000
0000
0000
0000
,
0000
0000
1000
0000
,
0000
0010
0100
0000
,
0000
0001
1000
0000
,
0000
0100
0010
0000
,
0000
0001
1000
0000
,
0000
0010
0100
0000
,
0000
0001
1000
0000
,
0000
0100
0010
0000
,
0000
0000
0002
0000
,
0000
0000
0000
0000
0000
0000
0000
0003
0000
0000
0000
0000
0000
0000
0000
0000
;
