#VERSION:0.83;
#TITLE:G41 Theme;
#SUBTITLE:;
#ARTIST:Einarx;
#TITLETRANSLIT:;
#SUBTITLETRANSLIT:;
#ARTISTTRANSLIT:;
#GENRE:;
#ORIGIN:;
#CREDIT:T. Li;
#BANNER:G41 Theme-bn.png;
#BACKGROUND:G41 Theme-bg-wide.png;
#PREVIEWVID:;
#JACKET:G41 Theme-jacket.png;
#CDIMAGE:;
#DISCIMAGE:;
#LYRICSPATH:;
#CDTITLE:loodeecdtitle.png;
#MUSIC:G41 Theme.ogg;
#OFFSET:-0.527000;
#SAMPLESTART:36.631001;
#SAMPLELENGTH:23.903000;
#SELECTABLE:YES;
#DISPLAYBPM:128.000000;
#BPMS:0.000=128.000,
138.500=256.000,
138.750=128.000,
138.875=64.000,
139.000=256.000,
139.500=128.000,
139.750=64.000,
140.000=128.000;
#STOPS:76.000=0.469,
92.000=0.234,
108.000=0.234,
264.000=0.469,
280.000=0.234,
296.000=0.234,
312.000=0.351,
328.000=0.352;
#DELAYS:;
#WARPS:76.000=16.000,
92.000=16.000,
108.000=30.000,
264.000=16.000,
280.000=16.000,
296.000=16.000,
312.000=16.000,
328.000=15.500;
#TIMESIGNATURES:0.000=4=4;
#TICKCOUNTS:0.000=4;
#COMBOS:0.000=1;
#SPEEDS:0.000=1.000=0.000=0;
#SCROLLS:0.000=1.000;
#FAKES:;
#LABELS:0.000=Song Start;
#BGCHANGES:;
#KEYSOUNDS:;
#ATTACKS:
;

//---------------dance-single - Loodee----------------
#NOTEDATA:;
#CHARTNAME:Loodee;
#STEPSTYPE:dance-single;
#DESCRIPTION:Loodee;
#CHARTSTYLE:;
#DIFFICULTY:Challenge;
#METER:12;
#RADARVALUES:0.762904,1.429038,0.453073,0.601622,0.958139,719.000000,658.000000,61.000000,81.000000,8.000000,0.000000,2.000000,0.000000,43.000000,0.762904,1.429038,0.453073,0.601622,0.958139,719.000000,658.000000,61.000000,81.000000,8.000000,0.000000,2.000000,0.000000,43.000000;
#CREDIT:Loodee;
#DISPLAYBPM:128.000000;
#NOTES:
// measure 0
0000
0000
0000
0000
,  // measure 1
0000
0000
0000
0000
,  // measure 2
0000
0000
0000
0000
,  // measure 3
1001
0000
0000
0000
,  // measure 4
1002
0000
0000
0013
0000
0100
0000
1000
0000
0001
1000
0000
0201
0000
0000
0000
,  // measure 5
0320
0000
0000
1030
0000
0001
0000
0010
0000
0010
0001
0000
1000
0000
0010
0000
,  // measure 6
0210
0000
0000
0301
0000
1000
0000
0100
0000
0010
0001
0000
1002
0000
0000
0000
,  // measure 7
2003
0000
3010
0100
0000
0010
0000
1000
0000
1000
0100
0000
0010
0000
0001
0000
,  // measure 8
0102
0000
0000
1003
0000
0100
0000
1000
0000
0001
0100
0000
0120
0000
0000
0000
,  // measure 9
0230
0000
0000
0301
0000
1000
0000
0100
0000
0100
0010
0000
0200
0000
0000
0000
,  // measure 10
1300
0001
0100
0001
0000
0010
0100
0000
,  // measure 11
1000
0000
1000
0000
0001
1000
0000
0000
0100
0000
0100
0000
0010
0001
0010
0100
,  // measure 12
1000
0000
0010
0000
1000
0001
0100
0000
0100
0000
0001
1000
0000
0001
0010
0000
,  // measure 13
0100
0000
1000
0001
0000
0001
0100
0000
0010
0000
1000
0001
0000
1000
0100
0000
,  // measure 14
0010
0000
0001
0000
1000
0010
0100
0000
0100
0000
0001
1000
0000
0001
0010
0000
,  // measure 15
0100
0000
0010
0001
0000
0001
1000
0000
0010
0000
0100
0001
0000
1000
0001
0000
,  // measure 16
0010
0000
0100
0000
0000
0100
1000
0000
0001
0000
0100
0000
0000
0100
0000
0000
,  // measure 17
0010
1000
1000
1000
0001
0010
0010
0010
,  // measure 18
0100
0000
1000
0000
0100
0000
0010
0000
0001
0000
1000
0000
0010
0000
0100
0000
0001
1000
0100
1000
0001
0100
0010
1000
0001
0000
0000
0000
0010
0000
0000
0000
,  // measure 19
1001
M00M
0000
M00M
0000
0000
0000
0000
0000
0000
0000
0000
0000
0000
0000
0000
,  // measure 20
0000
0000
0000
0000
,  // measure 21
0000
0000
0000
0000
,  // measure 22
0000
0000
0000
0000
,  // measure 23
0000
0000
M00M
M00M
M00M
M00M
M00M
0000
0000
0000
0000
0000
0000
0000
0000
0000
0000
0000
0000
0000
0000
0000
0000
0000
0000
0000
0000
0000
0000
0000
0000
0000
,  // measure 24
0000
0000
0000
0000
,  // measure 25
0000
0000
0000
0000
,  // measure 26
0000
0000
0000
0000
,  // measure 27
0000
0000
M00M
M00M
0MM0
M00M
M00M
0000
0000
0000
0000
0000
0000
0000
0000
0000
0000
0000
0000
0000
0000
0000
0000
0000
0000
0000
0000
0000
0000
0000
0000
0000
,  // measure 28
0000
0000
0000
0000
,  // measure 29
0000
0000
0000
0000
,  // measure 30
0000
0000
0000
0000
,  // measure 31
0000
0000
0000
0000
,  // measure 32
0000
0000
0000
0000
,  // measure 33
0000
0000
0000
0000
,  // measure 34
0000
0000
0000
0000
0000
000M
M000
0000
,  // measure 35
1020
0000
0000
0000
1000
0000
0000
0000
0130
0001
1000
0100
0010
0001
1000
0010
0200
0000
0000
0000
0310
0000
0000
0000
1010
0000
0000
0000
1000
0000
0000
0000
,  // measure 36
0200
0000
1300
0000
1001
0001
0000
0000
0200
0000
0000
0300
1010
0000
0010
0000
,  // measure 37
0210
0000
0000
0000
0301
0000
0000
0000
0020
0000
0000
0000
0130
1000
0001
1000
0010
0000
0000
0000
0100
0000
0000
0000
0101
0000
0000
0000
0001
0000
0000
0000
,  // measure 38
1000
0100
0010
0001
2000
0000
0000
0000
3010
0000
0100
0000
0002
0000
0000
0000
1003
0000
0000
0000
0100
0000
0000
0000
0020
0000
0000
0000
1030
0000
0000
0000
,  // measure 39
0210
0000
0000
0000
0000
0000
0000
0000
1300
0001
0100
0010
1000
0001
1000
0100
0020
0000
0000
0000
0031
0000
0000
0000
1001
0000
0000
0000
1000
0000
0000
0000
,  // measure 40
0020
0000
0130
0000
1010
1000
0000
0000
0002
0000
0000
0003
0011
0000
0010
0000
,  // measure 41
1100
0000
0000
0000
1000
0000
0000
0000
0020
0000
0000
0000
0130
0001
1000
0100
0010
0000
0000
0000
0100
0000
0000
0000
1100
0000
0000
0000
1000
0000
0000
0000
,  // measure 42
0001
0000
0100
0000
0010
0100
0000
0000
1001
0000
1001
0000
0001
0100
0010
1000
,  // measure 43
0200
0000
0310
0000
0012
0000
0000
1003
0020
0000
0130
0001
0020
0000
0130
0000
,  // measure 44
1000
0000
1000
0000
1100
0000
1000
0001
0100
0000
0010
0000
0100
0001
0000
0001
,  // measure 45
0020
0000
0130
0000
2100
0000
0000
3001
0200
0000
0310
1000
0200
0000
0310
0000
,  // measure 46
0001
0000
0001
0000
0101
0000
0001
1000
0100
0000
0010
0000
0100
1000
0000
0000
,  // measure 47
0020
0000
0130
0000
0102
0000
0000
1003
0200
0000
0310
0001
2000
0000
3001
0000
,  // measure 48
0010
0000
0010
0000
0110
0000
0010
0001
1000
0000
0010
0000
0100
0001
0000
0001
,  // measure 49
2000
0000
3100
0000
0210
0000
0000
1300
0002
0000
0103
0010
2000
0000
3001
0000
,  // measure 50
0010
0000
0000
0001
0000
0000
0010
0000
0000
0100
0000
0000
1000
0000
0000
0001
0000
0000
1000
0000
0000
0010
0000
0000
0100
0000
0000
0001
0000
0000
0100
0000
0000
0010
0000
0000
1000
0000
0100
0000
0010
0000
0001
0000
1000
0000
0010
0000
,  // measure 51
0200
0000
0000
0000
0000
0000
0000
0000
0301
1000
0100
0010
0100
1000
0001
1000
0010
0000
0000
0000
0010
0000
0000
0000
0101
0000
0001
0000
1000
0000
0000
0000
,  // measure 52
1200
0000
0000
0000
0310
0000
0000
0000
1100
0000
0000
0000
0100
0000
0010
0000
1000
0000
0010
0000
0001
0000
0010
0000
0100
1000
0001
1000
0010
0100
0001
1000
,  // measure 53
0002
0000
0013
0000
0110
0000
0010
0002
0000
0000
1003
0000
1020
0000
0230
0000
,  // measure 54
0310
0000
1000
0000
0010
0000
1000
0000
0020
0000
0000
0000
0031
0000
0000
0000
0010
0000
1000
0000
0001
0000
0010
0000
0200
0000
0000
0000
1300
0001
1000
0001
,  // measure 55
2000
0000
0000
0000
3010
0000
0000
0000
1000
0001
1000
0100
0010
0001
1000
0001
0100
0000
0000
0000
0010
0000
0000
0000
1010
0000
1000
0000
0001
0000
0000
0000
,  // measure 56
0210
0000
0000
0000
0310
0000
0000
0000
0101
0000
0000
0000
0100
0000
0010
0000
0001
0000
0010
0000
1000
0000
0001
0000
0010
0001
1000
0001
0010
0100
1000
0001
,  // measure 57
0200
0000
0310
0000
1010
0000
1000
0002
0000
0000
1003
0000
1200
0000
0310
0000
,  // measure 58
0100
1000
0100
1000
0200
0000
0301
0000
0110
0000
0000
0000
0000
0000
0000
0000
,  // measure 59
0001
0000
1000
0000
0010
0100
0001
0000
1000
0000
0001
0010
0000
0010
0100
0000
,  // measure 60
1000
0000
0001
0100
0000
0010
1000
0000
0001
0000
0010
0100
0000
0100
0010
0000
,  // measure 61
0001
0000
1000
0000
0010
0100
0001
0000
1000
0000
0100
0010
0000
0010
0001
0000
,  // measure 62
0100
0000
0010
1000
0000
0001
0100
0000
0010
0000
1000
0001
0000
0001
0010
0000
,  // measure 63
0010
0000
0100
0000
0000
0100
1000
0000
0010
0000
0100
0000
0000
0100
0000
0000
,  // measure 64
0001
1000
1000
1000
0100
0010
0010
0010
,  // measure 65
0001
0000
1000
0000
0010
0000
0100
0000
0001
0000
1000
0000
0100
0000
0010
0000
0100
1000
0001
0100
0010
0100
0001
1000
0001
0000
0000
0000
0010
0000
0000
0000
,  // measure 66
M11M
M00M
0000
0000
0000
0000
0000
0000
0000
0000
0000
0000
0000
0000
0000
0000
,  // measure 67
0000
0000
0000
0000
,  // measure 68
0000
0000
0000
0000
,  // measure 69
0000
0000
0000
0000
0000
0000
0000
0000
0000
0000
0000
0000
0000
0000
0000
0000
0000
0000
0000
0000
0000
0000
0000
0000
0000
0000
0000
0000
0000
0000
0000
M00M
,  // measure 70
0000
M00M
0000
0000
0000
0000
0000
0000
0000
0000
0000
0000
0000
0000
0000
0000
0000
0000
0000
0000
0000
0000
0000
0000
0000
0000
0000
0000
0000
0000
0000
0000
,  // measure 71
0000
0000
0000
0000
,  // measure 72
0000
0000
0000
0000
,  // measure 73
0000
0000
0000
0000
0000
0000
0000
0000
0000
0000
0000
0000
0000
0000
0000
M00M
,  // measure 74
M00M
0000
0000
0000
,  // measure 75
0000
0000
0000
0000
,  // measure 76
0000
0000
0000
0000
,  // measure 77
0000
0000
0000
0000
,  // measure 78
0000
M00M
0000
0000
0000
0000
0000
0000
,  // measure 79
0000
0000
0000
0000
,  // measure 80
0000
0000
0000
0000
,  // measure 81
0000
0000
0000
0000
,  // measure 82
0000
0000
M00M
000M
0M0M
000M
000M
000M
000M
0000
0000
0000
0000
0000
0000
0000
,  // measure 83
0000
0000
0000
0000
,  // measure 84
0000
0000
0000
0000
,  // measure 85
0000
0000
0000
0000
,  // measure 86
1002
0000
0000
0000
0100
0000
0000
0000
0103
0010
1000
0001
1000
0100
0010
0001
0020
0000
0000
0000
0130
0000
0000
0000
0001
0000
0100
0000
0010
0000
0001
0000
,  // measure 87
0400
0000
0000
0000
0310
0000
0000
0000
1020
0000
0000
0000
1030
0000
0001
0000
1000
0100
0010
0001
1000
0010
0100
0001
2000
0000
0000
0000
0000
0000
3000
0000
,  // measure 88
2100
0000
0000
0000
3001
0000
0100
0000
0010
0000
0000
0000
0100
0000
0000
0000
1001
0000
0000
0000
1000
0100
0010
0001
1000
0000
0000
0000
0001
0000
0000
0000
,  // measure 89
0200
0000
0000
0000
0000
0000
0000
0000
0301
1000
0010
1000
0001
0010
0100
0010
0001
0000
0000
0000
0000
0000
0010
0000
0000
0000
0000
0000
0100
0000
0000
0000
,  // measure 90
1100
0000
1000
0000
1001
0000
0001
0000
0101
0000
0100
0000
1000
0100
0010
0100
,  // measure 91
0004
0000
0000
0000
1003
0000
0000
0000
1100
0000
0000
0000
0100
0000
0010
0000
0001
0010
0100
1000
0001
1000
0010
0100
0002
0000
0000
0000
0000
0000
0003
0000
,  // measure 92
0201
0000
0000
0000
0310
0000
0000
0000
1010
0000
1000
0000
0001
0000
0000
0000
1001
0000
0000
0000
0001
0010
0100
1000
0001
0000
0000
0000
0010
0000
0000
0000
,  // measure 93
0002
0000
0000
0000
0000
0000
0000
0000
1003
0010
0100
0001
1000
0001
0010
0100
1000
0000
0000
0000
0000
0000
0010
0000
0000
0000
0000
0000
0100
0000
0000
0000
,  // measure 94
0102
0000
1003
0000
2001
0000
0000
3100
0020
0000
0130
1000
0020
0000
0130
0000
,  // measure 95
0001
0000
0001
0000
1001
0000
0001
0010
0100
0000
1000
0000
0010
0100
0000
0100
,  // measure 96
0002
0000
0103
0000
0120
0000
0000
1030
0002
0000
0013
0100
2000
0000
3010
0000
,  // measure 97
1000
0000
1000
0000
1010
0000
1000
0001
0010
0000
0100
0000
0010
0001
0000
0000
,  // measure 98
0200
0000
0310
0000
2001
0000
0000
3100
0020
0000
0130
1000
0020
0000
0130
0000
,  // measure 99
0001
0000
0001
0000
0101
0000
0001
1000
0100
0000
0010
0000
0100
1000
0000
1000
,  // measure 100
0002
0000
1003
0000
1200
0000
0000
0310
0002
0000
1003
0010
0200
0000
0310
0000
,  // measure 101
1000
0001
1000
0001
0010
0000
0010
0000
2001
0000
0000
0000
3010
0100
0001
1000
,  // measure 102
0200
0000
0000
0000
0000
0000
0000
0000
0000
0000
0000
0300
000M
0000
0000
0000
,  // measure 103
0000
0000
0000
0000
,  // measure 104
0M00
0000
0000
0000
;

//---------------dance-single - 24ths----------------
#NOTEDATA:;
#CHARTNAME:24ths;
#STEPSTYPE:dance-single;
#DESCRIPTION:24ths;
#CHARTSTYLE:;
#DIFFICULTY:Edit;
#METER:11;
#RADARVALUES:0.730011,1.274548,0.453073,0.586767,0.843014,688.000000,627.000000,61.000000,79.000000,8.000000,0.000000,2.000000,0.000000,43.000000,0.730011,1.274548,0.453073,0.586767,0.843014,688.000000,627.000000,61.000000,79.000000,8.000000,0.000000,2.000000,0.000000,43.000000;
#CREDIT:24ths;
#DISPLAYBPM:128.000000;
#NOTES:
0000
0000
0000
0000
,
0000
0000
0000
0000
,
0000
0000
0000
0000
,
1001
0000
0000
0000
,
1002
0000
0000
0013
0000
0100
0000
1000
0000
0001
1000
0000
0201
0000
0000
0000
,
0320
0000
0000
1030
0000
0001
0000
0010
0000
0010
0001
0000
1000
0000
0010
0000
,
0210
0000
0000
0301
0000
1000
0000
0100
0000
0010
0001
0000
1002
0000
0000
0000
,
2003
0000
3010
0100
0000
0010
0000
1000
0000
1000
0100
0000
0010
0000
0001
0000
,
0102
0000
0000
0013
0000
0001
0000
1000
0000
0010
1000
0000
0120
0000
0000
0000
,
0230
0000
0000
0301
0000
1000
0000
0100
0000
0100
0010
0000
0200
0000
0000
0000
,
1300
0001
0100
0001
0000
0010
0100
0000
,
1000
0000
1000
0000
0001
1000
0000
0000
0100
0000
0100
0000
0010
0001
0010
0100
,
1000
0000
0010
0000
1000
0001
0100
0000
0100
0000
0001
1000
0000
0001
0010
0000
,
0100
0000
1000
0001
0000
0001
0100
0000
0010
0000
1000
0001
0000
1000
0100
0000
,
0010
0000
0001
0000
1000
0010
0100
0000
0100
0000
0001
1000
0000
0001
0010
0000
,
0100
0000
0010
0001
0000
0001
1000
0000
0010
0000
0100
0001
0000
1000
0001
0000
,
0010
0000
0100
0000
0000
0100
1000
0000
0001
0000
0100
0000
0000
0100
0000
0000
,
0010
1000
1000
1000
0001
0010
0010
0010
,
0100
0000
0000
1000
0000
0000
0100
0000
0000
0010
0000
0000
0001
0000
0000
1000
0000
0000
0010
0000
0000
0100
0000
0000
0001
0000
1000
0000
0001
0000
0010
0000
0100
0000
1000
0000
0001
0000
0000
0000
0000
0000
0010
0000
0000
0000
0000
0000
,
1001
M00M
0000
M00M
0000
0000
0000
0000
0000
0000
0000
0000
0000
0000
0000
0000
,
0000
0000
0000
0000
,
0000
0000
0000
0000
,
0000
0000
0000
0000
,
0000
0000
M00M
M00M
M00M
M00M
M00M
0000
0000
0000
0000
0000
0000
0000
0000
0000
0000
0000
0000
0000
0000
0000
0000
0000
0000
0000
0000
0000
0000
0000
0000
0000
,
0000
0000
0000
0000
,
0000
0000
0000
0000
,
0000
0000
0000
0000
,
0000
0000
M00M
M00M
0MM0
M00M
M00M
0000
0000
0000
0000
0000
0000
0000
0000
0000
0000
0000
0000
0000
0000
0000
0000
0000
0000
0000
0000
0000
0000
0000
0000
0000
,
0000
0000
0000
0000
,
0000
0000
0000
0000
,
0000
0000
0000
0000
,
0000
0000
0000
0000
,
0000
0000
0000
0000
,
0000
0000
0000
0000
,
0000
0000
0000
0000
0000
000M
M000
0000
,
1020
0000
0000
1000
0000
0000
0130
0001
1000
0100
0010
0100
2000
0000
0000
3001
0000
0000
1001
0000
0000
1000
0000
0000
,
0020
0000
0130
0000
0101
0001
0000
0000
0020
0000
0000
0030
1100
0000
1000
0000
,
2010
0000
0000
3001
0000
0000
0020
0000
0000
0130
1000
0001
0100
0000
0000
0001
0000
0000
0101
0000
0000
0100
0000
0000
,
0010
0000
1000
0000
0001
0000
0200
0000
0000
0000
0000
0000
0310
0000
0000
1000
0000
0000
0002
0000
0000
0000
0000
0000
0013
0000
0000
0000
0000
0000
0100
0000
0000
0000
0000
0000
0020
0000
0000
0000
0000
0000
1030
0000
0000
0000
0000
0000
,
0210
0000
0000
0000
0000
0000
1300
0001
0100
0010
1000
0001
0020
0000
0000
0130
0000
0000
1001
0000
0000
1000
0000
0000
,
0020
0000
0130
0000
1010
1000
0000
0000
0002
0000
0000
0003
0011
0000
0010
0000
,
1100
0000
0000
1000
0000
0000
0020
0000
0000
0130
0001
1000
0100
0000
0000
0010
0000
0000
0110
0000
0000
0100
0000
0000
,
1000
0000
0010
0000
0100
0010
0000
0000
1001
0000
1001
0000
0001
0100
0010
1000
,
0200
0000
0310
0000
0012
0000
0000
1003
0020
0000
0130
0001
0020
0000
0130
0000
,
1000
0000
1000
0000
1100
0000
1000
0001
0100
0000
0010
0000
0100
0001
0000
0001
,
0020
0000
0130
0000
2100
0000
0000
3001
0200
0000
0310
1000
0200
0000
0310
0000
,
0001
0000
0001
0000
0101
0000
0001
1000
0100
0000
0010
0000
0100
1000
0000
0000
,
0020
0000
0130
0000
0102
0000
0000
1003
0200
0000
0310
0001
2000
0000
3001
0000
,
0010
0000
0010
0000
0110
0000
0010
0001
1000
0000
0010
0000
0100
0001
0000
0001
,
2000
0000
3100
0000
0210
0000
0000
1300
0002
0000
0103
0010
2000
0000
3001
0000
,
0010
0000
0000
0001
0000
0000
0010
0000
0000
0100
0000
0000
1000
0000
0000
0001
0000
0000
1000
0000
0000
0010
0000
0000
0100
0000
0000
0001
0000
0000
0100
0000
0000
0010
0000
0000
1000
0000
0100
0000
0010
0000
0001
0000
1000
0000
0010
0000
,
0200
0000
0000
0000
0000
0000
0000
0000
0000
0000
0000
0000
0301
0000
1000
0000
0010
0000
1000
0000
0100
0000
0010
0000
0001
0000
0000
0000
0000
0000
0010
0000
0000
0000
0000
0000
0011
0000
0000
0001
0000
0000
1000
0000
0000
0000
0000
0000
,
1020
0000
0000
0000
0000
0000
0130
0000
0000
0000
0000
0000
1010
0000
0000
0000
0000
0000
1000
0000
0000
0001
0000
0000
1000
0000
0000
0100
0000
0000
0010
0000
0000
0001
0000
0000
0100
0000
0001
0000
1000
0000
0010
0000
0100
0000
0001
0000
,
1000
0000
0100
0000
1100
0000
1000
0002
0000
0000
0103
0000
0120
0000
1030
0000
,
0001
0000
0010
0000
0001
0000
0010
0000
0200
0000
0000
0000
0301
0000
0000
0000
0100
0000
1000
0000
0010
0000
1000
0000
0200
0000
0000
0000
1300
0001
1000
0001
,
2000
0000
0000
0000
0000
0000
3010
0000
0000
0000
0000
0000
0100
0000
0001
0000
0100
0000
0010
0000
1000
0000
0100
0000
0010
0000
0000
0000
0000
0000
0100
0000
0000
0000
0000
0000
0110
0000
0000
0010
0000
0000
0001
0000
0000
0000
0000
0000
,
1002
0000
0000
0000
0000
0000
0013
0000
0000
0000
0000
0000
1001
0000
0000
0000
0000
0000
1000
0000
0000
0010
0000
0000
1000
0000
0000
0001
0000
0000
0010
0000
0000
0100
0000
0000
1000
0000
0100
0000
0010
0000
0001
0000
1000
0000
0010
0000
,
0200
0000
0310
0000
1010
0000
1000
0002
0000
0000
1003
0000
1200
0000
0310
0000
,
0100
1000
0100
1000
0200
0000
0301
0000
0110
0000
0000
0000
0000
0000
0000
0000
,
0001
0000
1000
0000
0010
0100
0001
0000
1000
0000
0001
0010
0000
0010
0100
0000
,
1000
0000
0001
0100
0000
0010
1000
0000
0001
0000
0010
0100
0000
0100
0010
0000
,
0001
0000
1000
0000
0010
0100
0001
0000
1000
0000
0100
0010
0000
0010
0001
0000
,
0100
0000
0010
1000
0000
0001
0100
0000
0010
0000
1000
0001
0000
0001
0010
0000
,
0010
0000
0100
0000
0000
0100
1000
0000
0010
0000
0100
0000
0000
0100
0000
0000
,
0001
1000
1000
1000
0100
0010
0010
0010
,
0001
0000
0000
1000
0000
0000
0010
0000
0000
0100
0000
0000
0001
0000
0000
1000
0000
0000
0100
0000
0000
0010
0000
0000
0001
0000
1000
0000
0100
0000
1000
0000
0001
0000
0100
0000
0010
0000
0000
0000
0000
0000
0100
0000
0000
0000
0000
0000
,
M11M
M00M
0000
0000
0000
0000
0000
0000
0000
0000
0000
0000
0000
0000
0000
0000
,
0000
0000
0000
0000
,
0000
0000
0000
0000
,
0000
0000
0000
0000
0000
0000
0000
0000
0000
0000
0000
0000
0000
0000
0000
0000
0000
0000
0000
0000
0000
0000
0000
0000
0000
0000
0000
0000
0000
0000
0000
M00M
,
0000
M00M
0000
0000
0000
0000
0000
0000
0000
0000
0000
0000
0000
0000
0000
0000
0000
0000
0000
0000
0000
0000
0000
0000
0000
0000
0000
0000
0000
0000
0000
0000
,
0000
0000
0000
0000
,
0000
0000
0000
0000
,
0000
0000
0000
0000
0000
0000
0000
0000
0000
0000
0000
0000
0000
0000
0000
M00M
,
M00M
0000
0000
0000
,
0000
0000
0000
0000
,
0000
0000
0000
0000
,
0000
0000
0000
0000
,
0000
M00M
0000
0000
0000
0000
0000
0000
,
0000
0000
0000
0000
,
0000
0000
0000
0000
,
0000
0000
0000
0000
,
0000
0000
M00M
000M
0M0M
000M
000M
000M
000M
0000
0000
0000
0000
0000
0000
0000
,
0000
0000
0000
0000
,
0000
0000
0000
0000
,
0000
0000
0000
0000
,
1002
0000
0000
0000
0000
0000
0100
0000
0000
0000
0000
0000
1003
0000
0100
0000
0010
0000
0001
0000
1000
0000
0001
0000
0200
0000
0000
0000
0000
0000
0310
0000
0000
0000
0000
0000
0001
0000
0000
0010
0000
0000
0100
0000
0000
0010
0000
0000
,
4000
0000
0000
0000
0000
0000
3100
0000
0000
0000
0000
0000
0120
0000
0000
0000
0000
0000
0130
0000
0000
1000
0000
0000
0001
0000
0100
0000
0010
0000
1000
0000
0001
0000
0010
0000
0200
0000
0000
0000
0000
0000
0000
0000
0000
0300
0000
0000
,
0120
0000
0000
0000
0000
0000
0031
0000
0000
1000
0000
0000
0010
0000
0000
0000
0000
0000
0100
0000
0000
0000
0000
0000
1001
0000
0000
0000
0000
0000
1000
0000
0010
0000
0100
0000
0001
0000
0000
0000
0000
0000
0010
0000
0000
0000
0000
0000
,
0200
0000
0000
0000
0000
0000
0000
0000
0000
0000
0000
0000
0310
0000
0001
0000
0100
0000
0010
0000
1000
0000
0001
0000
1000
0000
0000
0000
0000
0000
0000
0000
0000
0010
0000
0000
0000
0000
0000
0000
0000
0000
0100
0000
0000
0000
0000
0000
,
0101
0000
0001
0000
1001
0000
1000
0000
1100
0000
0100
0000
0001
0100
0010
0001
,
0400
0000
0000
0000
0000
0000
0310
0000
0000
0000
0000
0000
1010
0000
0000
0000
0000
0000
1000
0000
0000
0001
0000
0000
0010
0000
0100
0000
0010
0000
0001
0000
1000
0000
0010
0000
0200
0000
0000
0000
0000
0000
0000
0000
0000
0300
0000
0000
,
0102
0000
0000
0000
0000
0000
1003
0000
0000
0000
0000
0000
1001
0000
0000
1000
0000
0000
0001
0000
0000
0000
0000
0000
0011
0000
0000
0000
0000
0000
0010
0000
0100
0000
1000
0000
0001
0000
0000
0000
0000
0000
0100
0000
0000
0000
0000
0000
,
0020
0000
0000
0000
0000
0000
0000
0000
0000
0000
0000
0000
1030
0000
0001
0000
0010
0000
0100
0000
1000
0000
0010
0000
1000
0000
0000
0000
0000
0000
0000
0000
0000
0001
0000
0000
0000
0000
0000
0000
0000
0000
0010
0000
0000
0000
0000
0000
,
0210
0000
1300
0000
2001
0000
0000
3010
0200
0000
0310
1000
0002
0000
0013
0000
,
0100
0000
0100
0000
1100
0000
1000
0001
0100
0000
0010
0000
1000
0001
0000
0001
,
0020
0000
0130
0000
0012
0000
0000
1003
0020
0000
0130
0001
0020
0000
0130
0000
,
1000
0000
1000
0000
1010
0000
1000
0001
0010
0000
0100
0000
0010
0001
0000
0000
,
0200
0000
0310
0000
2001
0000
0000
3100
0020
0000
0130
1000
0020
0000
0130
0000
,
0001
0000
0001
0000
0101
0000
0001
1000
0100
0000
0010
0000
0100
1000
0000
1000
,
0002
0000
1003
0000
1200
0000
0000
0310
0002
0000
1003
0010
0200
0000
0310
0000
,
1000
0001
1000
0001
0010
0000
0010
0000
2001
0000
0000
0000
3010
0100
0001
1000
,
0200
0000
0000
0000
0000
0000
0000
0000
0000
0000
0000
0300
000M
0000
0000
0000
,
0000
0000
0000
0000
,
0M00
0000
0000
0000
;

//---------------dance-single - Loodee----------------
#NOTEDATA:;
#CHARTNAME:Loodee;
#STEPSTYPE:dance-single;
#DESCRIPTION:Loodee;
#CHARTSTYLE:;
#DIFFICULTY:Hard;
#METER:9;
#RADARVALUES:0.557058,0.833358,0.096557,0.378799,0.538489,525.000000,512.000000,13.000000,51.000000,6.000000,0.000000,7.000000,0.000000,64.000000,0.557058,0.833358,0.096557,0.378799,0.538489,525.000000,512.000000,13.000000,51.000000,6.000000,0.000000,7.000000,0.000000,64.000000;
#CREDIT:Loodee;
#DISPLAYBPM:128.000000;
#NOTES:
0000
0000
0000
0000
,
0000
0000
0000
0000
,
0000
0000
0000
0000
,
1001
0000
0000
0000
,
0002
0000
0000
0103
0000
0010
0000
1000
0000
0100
1000
0000
0020
0000
0000
0030
,
0200
0000
0000
0301
0000
0001
0000
1000
0000
0000
0100
0000
0010
0000
0001
0000
,
0200
0000
0000
0310
0000
1000
0000
0001
0000
0010
0001
0000
0200
0000
0000
0300
,
0020
0000
1030
0001
0000
0100
0000
0001
0000
0000
0001
0000
0010
0000
0100
0000
,
2000
0000
0000
3010
0000
0100
0000
0001
0000
1000
0001
0000
0020
0000
0000
0030
,
0200
0000
0000
0310
0000
0010
0000
0001
0000
0000
1000
0000
0020
0000
0000
0030
,
0100
0001
1000
0100
0000
0010
0001
0000
,
1000
0000
0010
0000
0000
0100
0000
0000
0001
0000
0001
0000
1000
0100
0010
0001
,
1000
0000
0010
0000
0000
0100
0001
0000
0001
0000
1000
0100
0000
0000
0010
0000
,
0100
0000
1000
0001
0000
0001
0100
0000
0010
0000
1000
0010
0000
0000
0100
0000
,
0001
0000
1000
0000
0000
0100
1000
0000
0001
0000
0100
0010
0000
0000
0100
0000
,
0001
0000
0010
0100
0000
0100
1000
0000
0001
0000
1000
0010
0000
0000
0100
0000
,
0010
0000
1000
0000
0000
0001
1000
0000
0100
0000
0010
0000
0000
0001
0000
0000
,
1000
0000
0010
0000
0000
0100
0000
0000
0001
0000
0010
0000
0000
0100
0000
0000
,
1000
0100
0010
0001
1000
0001
0100
0010
0100
0001
0010
0100
1000
0000
0010
0000
,
1000
0M0M
0M0M
0M0M
0000
0000
0000
0000
0000
0000
0000
0000
0000
0000
0000
0000
,
0000
0000
0000
0000
,
0000
0000
0000
0000
,
0000
0000
0000
0000
,
0000
M0M0
M0M0
M0M0
0000
0000
0000
0000
0000
0000
0000
0000
0000
0000
0000
0000
,
0000
0000
0000
0000
,
0000
0000
0000
0000
,
0000
0000
0000
0000
,
0000
0M0M
0M0M
0M0M
0000
0000
0000
0000
0000
0000
0000
0000
0000
0000
0000
0000
,
0000
0000
0000
0000
,
0000
0000
0000
0000
,
0000
0000
0000
0000
,
0000
0000
0000
0000
,
0000
0000
0000
0000
,
0000
0000
0000
0000
,
0000
0000
0000
0000
,
1000
0000
0001
0000
0010
0100
1000
0000
0020
0000
0130
0000
0100
0000
0100
0000
,
0002
0000
0013
0000
0100
0010
0000
0000
0004
0000
0000
0000
1003
0000
1000
0000
,
0010
0000
0100
0000
0002
0000
1003
0100
0010
0000
0010
0000
0100
0000
0100
0000
,
0020
0000
0031
0000
1000
0010
0200
0000
0310
0000
1000
0000
0000
0000
0001
0000
,
0021
0000
0000
0000
0130
1000
0001
0000
0200
0000
0310
0000
0010
0000
0010
0000
,
2000
0000
3001
0000
0010
0001
0000
0000
0400
0000
0000
0000
0310
0000
0010
0000
,
1000
0000
0001
0000
0020
0000
0130
1000
0001
0000
0001
0000
1000
0000
1000
0000
,
0010
0000
0010
0000
0000
0100
0000
0000
0001
0000
0001
0000
1000
0001
0010
0100
,
1000
0000
0010
0000
0200
0000
0300
0001
1000
0000
0100
0010
0002
0000
1003
0000
,
0010
0000
0010
0000
0000
0000
0010
0000
0100
0000
0001
0000
1000
0100
0000
0100
,
1000
0000
0001
0000
0200
0000
0300
0010
1000
0000
0001
1000
0200
0000
0310
0000
,
0001
0000
0001
0000
0000
0000
0001
0000
1000
0000
0010
0000
0100
0001
0000
0000
,
1000
0000
0100
0000
0020
0000
0030
0100
1000
0000
0001
1000
0020
0000
1030
0000
,
0100
0000
0100
0000
0000
0000
0100
0000
0010
0000
0001
0000
1000
0010
0000
0010
,
1000
0000
0001
0000
0020
0000
0030
0001
1000
0000
0010
0100
0002
0000
1003
0000
,
0400
0040
0000
0000
0000
0000
0000
0000
0000
0000
0030
0300
2000
0000
0000
3000
,
1002
0000
0000
0000
1003
0010
0100
0000
0001
0000
0001
0000
1000
0100
1000
0000
,
0020
0000
0130
0000
0100
0000
0001
1000
0001
0010
0100
0010
0002
0000
0000
0000
,
0103
0000
0010
0000
0000
0000
1000
0020
0000
0000
2030
0000
3002
0000
0023
0000
,
0130
1000
0100
1000
0002
0000
1003
0000
0010
0100
0010
0100
0001
0000
0000
0000
,
0021
0000
0000
0000
0130
1000
0001
0000
0100
0000
0100
0000
0001
1000
0001
0000
,
0020
0000
0130
0000
0100
0000
1000
0100
1000
0001
0100
0010
2000
0000
0000
0000
,
3001
0000
0010
0000
0000
0000
0001
2000
0000
0000
3002
0000
0203
0000
0320
0000
,
1030
0001
1000
0001
2000
0000
3100
0000
0010
0000
0000
0000
0000
0000
0000
0000
,
0001
0000
1000
0000
0000
0010
1000
0000
1000
0000
0001
0010
0000
0000
0001
0000
,
0100
0000
0010
1000
0000
1000
0001
0000
0010
0000
0100
1000
0000
0000
0100
0000
,
0010
0000
0001
0000
0000
1000
0010
0000
1000
0000
0010
0100
0000
0000
0010
0000
,
1000
0000
0001
0010
0000
0010
0001
0000
1000
0000
0010
1000
0000
0000
0010
0000
,
0100
0000
0000
0000
0001
0000
0001
0000
1000
0000
0100
0010
0000
0001
0000
0000
,
1000
0010
0010
0010
0100
0001
0001
0001
,
0010
0001
0010
0100
1000
0001
1000
0001
0400
0000
0000
0000
0310
0000
0000
0000
,
1010
M0M0
0000
0000
0000
0000
0000
0000
,
0000
0000
0000
0000
,
0000
0000
0000
0000
,
0000
0000
0000
0000
,
0M00
0MM0
00MM
000M
0000
0000
0000
0000
0000
0000
0000
0000
0000
0000
0000
0000
,
0000
0000
0000
0000
,
0000
0000
0000
0000
,
0000
0000
0000
0000
,
M000
MM00
0MM0
00M0
0000
0000
0000
0000
0000
0000
0000
0000
0000
0000
0000
0000
,
0000
0000
0000
0000
,
0000
0000
0000
0000
,
0000
0000
0000
0000
,
MMMM
MMMM
MMMM
MMMM
MMMM
MMMM
MMMM
MMMM
MMMM
0000
0000
0000
0000
0000
0000
0000
,
0000
0000
0000
0000
,
0000
0000
0000
0000
,
0000
0000
0000
0000
,
0000
000M
00M0
0000
0000
0000
0000
0000
,
0000
0000
0000
0000
,
0000
0000
0000
0000
,
0000
0000
0000
0000
,
0001
0000
0010
0000
0001
1000
0010
0000
0200
0000
0301
0000
1000
0100
1000
0100
,
0010
0000
0001
0000
0100
0000
0001
0000
1000
0010
0100
0001
0020
0000
0000
0000
,
0130
0000
0010
0000
0001
0000
0001
0000
0100
0000
0001
1000
0010
0000
0100
0000
,
0002
0000
0000
0000
4003
0000
0000
0000
3100
0000
0000
0001
0000
0000
0100
0000
,
0010
0000
0001
0000
0100
0000
0001
0000
1000
0000
0010
0000
0100
0010
1000
0010
,
0100
0000
0001
0000
1000
0000
0100
0000
0010
0100
1000
0001
0200
0000
0000
0000
,
0310
0000
1000
0000
0100
0000
1000
0000
0001
0000
0010
0001
1000
0000
0010
0000
,
0200
0000
0000
0000
0304
0000
0000
0000
0103
0000
0000
1000
0000
0000
0100
0000
,
0020
0000
0000
0030
1010
0000
0000
1000
0001
0000
0010
0100
0010
0000
0001
0000
,
1000
0000
1000
0000
0010
0000
0000
0100
0001
0000
1000
0000
1100
0000
0000
0010
,
0100
0000
1000
0000
1001
0000
0000
0001
0100
0000
0010
1000
0010
0000
0100
0000
,
0001
0000
0001
0000
1000
0000
0000
0001
0010
0000
0100
0000
1100
0000
0000
1000
,
0001
0000
0100
0000
0110
0000
0000
0010
1000
0000
0001
0010
0001
0000
1000
0000
,
0010
0000
0010
0000
0100
0000
0000
0001
1000
0000
0100
0000
0110
0000
0000
0010
,
0001
0000
1000
0000
1001
0000
0000
0001
0100
0000
0001
1000
0001
0000
0010
0000
,
0100
1000
0100
1000
0010
0000
0010
0000
0200
0000
0000
0000
0000
0000
0000
0300
,
1001
0000
0000
0000
;

//---------------dance-single - Loodee----------------
#NOTEDATA:;
#CHARTNAME:Loodee;
#STEPSTYPE:dance-single;
#DESCRIPTION:Loodee;
#CHARTSTYLE:;
#DIFFICULTY:Medium;
#METER:7;
#RADARVALUES:0.454135,0.757598,0.193113,0.586767,0.282242,428.000000,402.000000,26.000000,79.000000,8.000000,0.000000,0.000000,0.000000,64.000000,0.454135,0.757598,0.193113,0.586767,0.282242,428.000000,402.000000,26.000000,79.000000,8.000000,0.000000,0.000000,0.000000,64.000000;
#CREDIT:Loodee;
#DISPLAYBPM:128.000000;
#NOTES:
0000
0000
0000
0000
,
0000
0000
0000
0000
,
0000
0000
0000
0000
,
0000
0000
0000
0000
,
0012
0000
0000
1003
0000
0000
2010
0000
0000
3001
0000
0000
0021
0000
0000
0000
,
0230
0000
0000
1300
0000
0001
0000
1000
0000
0000
0100
0000
0010
0000
0001
0000
,
2001
0000
0000
3100
0000
0000
0120
0000
0000
0031
0000
0000
1002
0000
0000
0000
,
0203
0000
0000
0310
0000
1000
0000
0001
0000
0000
0100
0000
0010
0000
1000
0000
,
2010
0000
0000
3001
0000
0000
0201
0000
0000
0310
0000
0000
1020
0000
0000
0000
,
0230
0000
0000
0301
0000
1000
0000
0100
0000
0000
1000
0000
0200
0000
0000
0000
,
0310
0100
1000
0001
0000
0100
0010
0000
,
1000
0000
1000
0000
0000
0001
0000
0000
1000
0000
1000
0000
0001
0100
0001
0100
,
0001
0000
0000
0000
0010
0000
0010
0000
0001
0000
1000
0010
0000
1000
0000
0000
,
0001
0000
0000
0000
0010
0000
0010
0000
0100
0000
0010
0001
0000
1000
0000
0000
,
0010
0000
0000
0000
0100
0000
0100
0000
0001
0000
1000
0001
0000
1000
0000
0000
,
0100
0000
0000
0000
0010
0000
0010
0000
0001
0000
1000
0001
0000
0100
0000
0000
,
0001
0000
0000
0000
1000
0000
1000
0000
0100
0000
0010
0000
0000
0010
0000
0000
,
0001
0100
0100
0100
0010
1000
1000
1000
,
0001
0010
0001
0010
0100
0000
1000
0000
0002
0000
0000
0000
0103
0000
0100
0000
,
0010
MMMM
0000
0000
0000
0000
0000
0000
,
0000
0000
0000
0000
,
0000
0000
0000
0000
,
0000
0000
0000
0000
,
MMMM
MMMM
MMMM
MMMM
MMMM
0000
0000
0000
0000
0000
0000
0000
0000
0000
0000
0000
,
0000
0000
0000
0000
,
0000
0000
0000
0000
,
0000
0000
0000
0000
0000
0000
0000
0000
0000
0000
0000
0000
0000
0000
0000
MMMM
,
MMMM
MMMM
MMMM
MMMM
0000
0000
0000
0000
0000
0000
0000
0000
0000
0000
0000
0000
,
0000
0000
0000
0000
,
0000
0000
0000
0000
,
0000
0000
0000
0000
,
0000
0000
0000
0000
,
0000
0000
0000
0000
,
0000
0000
0000
0000
,
0000
0000
0000
0000
,
1000
0000
0001
0000
1000
0000
0100
0010
0002
0000
1003
0000
1000
0000
1000
0000
,
0010
0000
0100
0000
0010
0100
0000
0000
2002
0000
0000
3003
1001
0000
1001
0000
,
0001
0010
0200
0000
1300
1000
0001
0001
,
0100
0000
0010
0000
1000
0001
2000
0000
3000
0000
0100
0000
0000
0000
0001
0000
,
0200
0000
1300
0001
0200
0310
0010
0010
,
2000
0000
3001
0000
1000
0001
0000
0000
0022
0000
0000
0033
0011
0000
0011
0000
,
0010
0001
2000
0000
3010
0010
0100
0100
,
0001
0000
1000
0000
0000
1000
0000
0000
0001
0000
0001
0000
0010
0100
0010
0000
,
0002
0203
0320
0032
,
0013
0000
0010
0000
1000
0000
0000
0000
1100
0000
0000
0000
1000
0001
0000
0000
,
0020
0230
0320
2030
,
3010
0000
0010
0000
0001
0000
0000
0000
0101
0000
0000
0000
0001
1000
0000
0000
,
0200
0320
0230
0302
,
0103
0000
0100
0000
0010
0000
0000
0000
0011
0000
0000
0000
0001
0100
0000
0000
,
0020
2030
3020
0032
,
0013
0000
1000
0000
0001
0000
0010
0000
0200
0000
0000
0000
2000
0000
0000
3300
,
2100
0000
0000
0000
3002
0000
0000
0000
0103
0000
0100
0000
0010
1000
0010
0000
,
0100
0000
0001
0000
0001
0000
1000
0100
1000
0000
0001
0000
0020
0000
0000
0000
,
0130
0000
0010
0000
0000
0000
0001
2000
0000
0000
3001
0000
0100
0000
0010
0000
,
1000
0001
1000
0001
1000
0000
0100
0000
0010
0000
0000
0000
0011
0000
0000
0000
,
1002
0000
0000
0000
0203
0000
0000
0000
0310
0000
0010
0000
1000
0001
1000
0000
,
0100
0000
0010
0000
0010
0000
0001
1000
0001
0000
0100
0000
0020
0000
0000
0000
,
1030
0000
0001
0000
0000
0000
0010
0200
0000
0000
0310
0000
0001
0000
1000
0000
,
0010
0000
0010
0000
0000
0010
0000
0000
1001
0000
0000
0000
0000
0000
0000
0000
,
1000
0000
0000
0000
0010
0000
0010
0000
0100
0000
0010
1000
0000
1000
0000
0000
,
0001
0000
0000
0000
0010
0000
0010
0000
0001
0000
1000
0100
0000
0100
0000
0000
,
1000
0000
0000
0000
0001
0000
0001
0000
1000
0000
0010
0100
0000
0100
0000
0000
,
0010
0000
0000
0000
1000
0000
1000
0000
0000
0000
0100
0010
0000
0010
0000
0000
,
0001
0000
0000
0000
1000
0000
1000
0000
0001
0000
0100
0000
0000
0100
0000
0000
,
0001
1000
1000
1000
0100
0010
0010
0010
,
0001
1000
0001
1000
0010
0000
0100
0000
0002
0000
0000
0000
1003
0000
1000
0000
,
0100
MMMM
0000
0000
0000
0000
0000
0000
,
0000
0000
0000
0000
,
0000
0000
0000
0000
,
0000
0000
0000
0000
,
0000
0000
0000
MMMM
00MM
0000
0000
0000
0000
0000
0000
0000
0000
0000
0000
0000
,
0000
0000
0000
0000
,
0000
0000
0000
0000
,
0000
0000
0000
0000
,
0000
0000
MMMM
MMMM
0000
0000
0000
0000
0000
0000
0000
0000
0000
0000
0000
0000
,
0000
0000
0000
0000
,
0000
0000
0000
0000
,
0000
0000
0000
0000
,
0000
0000
000M
000M
000M
000M
000M
0000
0000
0000
0000
0000
0000
0000
0000
0000
,
0000
0000
0000
0000
,
0000
0000
0000
0000
,
0000
0000
0000
0000
,
0000
0000
000M
000M
000M
000M
000M
0000
0000
0000
0000
0000
0000
0000
0000
0000
,
0000
0000
0000
0000
,
0000
0000
0000
0000
,
0000
0000
0000
0000
,
0002
0000
0000
0000
0203
0000
0000
0000
0310
0000
1000
0000
0001
0010
0001
0000
,
1000
0010
0110
0000
0200
0000
0302
0000
,
1003
0100
0010
0010
0100
0000
0110
0000
,
0002
0000
0000
0000
2003
0000
0000
0000
3010
0000
0000
0100
0000
0000
0001
0000
,
0010
0000
0100
0000
0010
0000
0001
0000
0100
0000
0010
0000
1000
0001
1000
0000
,
0010
1000
1001
0000
2000
0000
3200
0000
,
0310
0001
1000
1000
0010
0000
0110
0000
,
0200
0000
0000
0000
0302
0000
0000
0000
0013
0000
0000
0100
0000
0000
1000
0000
,
0002
0203
0320
0032
,
0013
0000
1000
0000
0001
0000
1000
0000
0100
0000
0010
0000
0001
0010
0000
0000
,
0200
0320
0230
0302
,
0103
0000
1000
0000
0010
0000
1000
0000
0001
0000
0100
0000
0010
0100
0000
0000
,
0002
2003
3020
0032
,
0013
0000
1000
0000
0001
0000
0010
0000
0100
0000
1000
0000
0100
0010
0000
0000
,
0200
0320
0230
0302
,
0103
0100
1000
1000
0002
0000
0000
0000
,
1003
0000
0000
0000
;

//---------------dance-single - Loodee----------------
#NOTEDATA:;
#CHARTNAME:Loodee;
#STEPSTYPE:dance-single;
#DESCRIPTION:Loodee;
#CHARTSTYLE:;
#DIFFICULTY:Easy;
#METER:5;
#RADARVALUES:0.313013,0.492439,0.096557,0.586767,0.003714,295.000000,282.000000,13.000000,79.000000,0.000000,0.000000,0.000000,0.000000,0.000000,0.313013,0.492439,0.096557,0.586767,0.003714,295.000000,282.000000,13.000000,79.000000,0.000000,0.000000,0.000000,0.000000,0.000000;
#CREDIT:Loodee;
#DISPLAYBPM:128.000000;
#NOTES:
0000
0000
0000
0000
,
0000
0000
0000
0000
,
0000
0000
0000
0000
,
0000
0000
0000
0000
,
2002
3003
0000
2200
3300
0000
0202
0000
,
0000
0000
0000
0303
0000
0001
1000
0001
,
0020
0030
0000
0220
0330
0000
2200
0000
,
0000
0000
0000
3300
0000
1000
0001
1000
,
0020
0030
0000
2020
3030
0000
2002
0000
,
0000
0000
0000
3003
0000
0000
0001
1000
,
0001
0000
0000
0010
0000
0000
0100
0000
,
1000
0000
1000
0000
0000
0001
0000
0000
1000
0000
1000
0000
0010
0000
0000
0000
,
0100
0000
0001
0001
0000
1000
0000
0000
,
0001
0000
0010
0010
0000
0100
0000
0000
,
0001
0000
1000
1000
0000
0010
0000
0000
,
0100
0000
0001
0001
0000
1000
0000
0000
,
0100
0000
0010
0010
0100
1000
0000
0000
,
0001
0100
0100
0000
0001
1000
1000
0000
,
0100
0010
0100
0010
0200
0000
0300
0000
,
1000
0000
0000
0000
,
0000
0000
0000
0000
,
0000
0000
0000
0000
,
0000
0000
0000
0000
,
0000
0000
0000
0000
,
0000
0000
0000
0000
,
0000
0000
0000
0000
,
0000
0000
0000
0000
,
0000
0000
0000
0000
,
0000
0000
0000
0000
,
0000
0000
0000
0000
,
0000
0000
0000
0000
,
0000
0000
0000
0000
,
0000
0000
0000
0000
,
0000
0000
0000
0000
,
0000
0000
0000
0000
,
0002
0000
1003
0000
0100
0010
0001
0010
,
0002
0000
1003
0000
0020
0000
0130
0100
,
0200
0000
0301
0000
1000
0100
1000
0100
,
0010
0000
0002
0000
0003
1000
0000
0010
,
2000
0000
3001
0000
0010
0100
1000
0100
,
2000
0000
3010
0000
0200
0000
0301
0001
,
0002
0000
1003
0000
0100
0010
0100
0010
,
0100
0000
0000
0000
1000
0001
1000
0000
,
0020
0230
0302
0023
,
0130
0100
1000
0000
0001
1000
0010
0000
,
0200
0302
2003
3200
,
0310
0010
0001
0000
1000
0010
0100
0000
,
0002
0203
0320
2030
,
3001
0001
0010
0000
0100
0010
0001
0000
,
2000
3020
0230
0302
,
2003
0000
0000
0000
0200
0000
0000
3300
,
1100
0000
2000
0000
3001
0001
1000
0001
,
0010
0100
0100
0000
0020
0000
0032
0000
,
1003
0000
0010
0000
1000
0100
1000
0001
,
1000
0000
0010
0000
0100
0100
0001
0000
,
0020
0000
0230
0000
0310
0010
0001
0010
,
0001
1000
1000
0000
0020
0000
0230
0000
,
0301
0000
0010
0000
0100
0100
1000
0000
,
0002
0000
0103
0000
,
0010
0000
1000
1000
0000
0001
0000
0000
,
1000
0000
0100
0100
0000
0010
0000
0000
,
0100
0000
1000
1000
0000
0001
0000
0000
,
0100
0000
0010
0010
0000
1000
0000
0000
,
0010
0000
0100
0100
0001
1000
0000
0000
,
0001
1000
1000
0000
0001
0010
0010
0000
,
0100
1000
0100
1000
0002
0000
0003
0000
,
0100
0000
0000
0000
,
0000
0000
0000
0000
,
0000
0000
0000
0000
,
0000
0000
0000
0000
,
0000
0000
0000
0000
,
0000
0000
0000
0000
,
0000
0000
0000
0000
,
0000
0000
0000
0000
,
0000
0000
0000
0000
,
0000
0000
0000
0000
,
0000
0000
0000
0000
,
0000
0000
0000
0000
,
0000
0000
0000
0000
,
0000
0000
0000
0000
,
0000
0000
0000
0000
,
0000
0000
0000
0000
,
0000
0000
0000
0000
,
0000
0000
0000
0000
,
0000
0000
0000
0000
,
0000
0000
0000
0000
,
0000
0001
2000
3001
,
0010
0100
0100
0000
2000
0000
3002
0000
,
0103
0010
0100
0001
1000
0000
1001
0000
,
0002
0013
0100
0000
,
1000
0100
1000
0010
0100
0000
0002
0000
,
0013
0100
0100
0000
2000
0000
3002
0000
,
0103
0000
0010
0010
1000
0000
0110
0000
,
2000
3002
0013
0000
,
0200
2300
3002
0203
,
0310
0010
1000
0000
0001
0000
1001
0000
,
2000
3200
2300
3002
,
0103
0100
0001
0000
0110
0000
0010
0000
,
2000
3002
0203
0320
,
1030
1000
0001
0000
1001
0000
0001
0000
,
0020
0230
0320
0032
,
1003
1000
0010
0010
2000
0000
0000
0000
,
3000
0000
0000
0000
;

//---------------dance-single - Loodee----------------
#NOTEDATA:;
#CHARTNAME:Loodee;
#STEPSTYPE:dance-single;
#DESCRIPTION:Loodee;
#CHARTSTYLE:;
#DIFFICULTY:Beginner;
#METER:1;
#RADARVALUES:0.056236,0.151520,0.000000,0.051992,0.000000,53.000000,53.000000,0.000000,7.000000,0.000000,0.000000,0.000000,0.000000,0.000000,0.056236,0.151520,0.000000,0.051992,0.000000,53.000000,53.000000,0.000000,7.000000,0.000000,0.000000,0.000000,0.000000,0.000000;
#CREDIT:Loodee;
#DISPLAYBPM:128.000000;
#NOTES:
0000
0000
0000
0000
,
0000
0000
0000
0000
,
0000
0000
0000
0000
,
0000
0000
0000
0000
,
0001
0000
0000
0000
,
0000
0000
0000
0000
,
1000
0000
0000
0000
,
0000
0000
0000
0000
,
0001
0000
0000
0000
,
0000
0000
0000
0000
,
0000
0000
0000
0000
,
0000
0000
0000
0000
,
0010
0000
0000
0000
,
0010
0000
0000
0000
,
0001
0000
0000
0000
,
0001
0000
0000
0000
,
1000
0000
0000
0000
,
0001
0000
0000
0000
,
2000
0000
0000
0000
0000
0000
0000
0000
0000
0000
0000
0000
0000
0000
0000
3000
,
0000
0000
0000
0000
,
0000
0000
0000
0000
,
0000
0000
0000
0000
,
0000
0000
0000
0000
,
0000
0000
0000
0000
,
0000
0000
0000
0000
,
0000
0000
0000
0000
,
0000
0000
0000
0000
,
0000
0000
0000
0000
,
0000
0000
0000
0000
,
0000
0000
0000
0000
,
0000
0000
0000
0000
,
0000
0000
0000
0000
,
0000
0000
0000
0000
,
0000
0000
0000
0000
,
0000
0000
0000
0000
,
0000
0000
0000
0000
,
0001
0000
0000
0000
,
0001
0000
0000
0000
,
0100
0000
0000
0000
,
0001
0000
0000
0000
,
0001
0000
0000
0000
,
1000
0000
0000
0000
,
0100
0000
0000
0000
,
1000
0000
0000
0000
,
1000
0000
0000
0000
,
0010
0000
0000
0000
,
0010
0000
0000
0000
,
0100
0000
0000
0000
,
0100
0000
0000
0000
,
0001
0000
0000
0000
,
0000
0000
0000
0000
,
0001
0000
0000
0000
,
1000
0000
1000
0000
,
1000
0000
0000
0000
,
0001
0000
0000
0000
,
1000
0000
0000
0000
,
0001
0000
0001
0000
,
0001
0000
0000
0000
,
0010
0000
0000
0000
,
0001
0000
0000
0000
,
0001
0000
0000
0000
,
0100
0000
0000
0000
,
0100
0000
0000
0000
,
0010
0000
0000
0000
,
0010
0000
0000
0000
,
2000
0000
0000
0000
0000
0000
0000
0000
0000
0000
0000
0000
0000
0000
0000
3000
,
0000
0000
0000
0000
,
0000
0000
0000
0000
,
0000
0000
0000
0000
,
0000
0000
0000
0000
,
0000
0000
0000
0000
,
0000
0000
0000
0000
,
0000
0000
0000
0000
,
0000
0000
0000
0000
,
0000
0000
0000
0000
,
0000
0000
0000
0000
,
0000
0000
0000
0000
,
0000
0000
0000
0000
,
0000
0000
0000
0000
,
0000
0000
0000
0000
,
0000
0000
0000
0000
,
0000
0000
0000
0000
,
0000
0000
0000
0000
,
0000
0000
0000
0000
,
0000
0000
0000
0000
,
0000
0000
0000
0000
,
0000
0000
0000
0000
,
0001
0000
0000
0000
,
0001
0000
0000
0000
,
1000
0000
0000
0000
,
0001
0000
0000
0000
,
0010
0000
0000
0000
,
0001
0000
0000
0000
,
1000
0000
0000
0000
,
0020
0000
0000
0000
,
0030
0000
0000
0000
,
0200
0000
0000
0000
,
0300
0000
0000
0000
,
0002
0000
0000
0000
,
0003
0000
0000
0000
,
2000
0000
0000
0000
,
3002
0000
0000
0000
,
0003
0000
0000
0000
;
