#TITLE:Fuck Gravity;
#SUBTITLE:;
#ARTIST:Virtual Riot;
#TITLETRANSLIT:;
#SUBTITLETRANSLIT:;
#ARTISTTRANSLIT:;
#GENRE:;
#CREDIT:;
#BANNER:Fuck Gravity-bn.png;
#BACKGROUND:Fuck Gravity-bg.png;
#LYRICSPATH:;
#CDTITLE:benpai-loodee-maxx-cdtitle.png;
#MUSIC:Fuck Gravity.ogg;
#OFFSET:-0.018000;
#SAMPLESTART:86.745003;
#SAMPLELENGTH:19.635000;
#SELECTABLE:YES;
#DISPLAYBPM:55.000000:110.000000;
#BPMS:0.000000=110.000000
,46.500000=220.000000
,46.750000=110.000000
,46.875000=55.000000
,47.000000=220.000000
,47.250000=110.000000
,47.375000=55.000000
,47.500000=220.000000
,47.750000=110.000000
,47.875000=55.000000
,48.000000=110.000000
,62.500000=165.000000
,62.750000=82.500000
,63.000000=165.000000
,63.250000=82.500000
,63.500000=110.000000
,158.500000=165.000000
,160.000000=110.000000
,167.000000=165.000000
,167.250000=82.500000
,167.500000=165.000000
,167.750000=82.500000
,168.000000=110.000000
,213.500000=55.000000
,215.000000=110.000000
,258.500000=165.000000
,258.750000=82.500000
,259.000000=165.000000
,259.250000=82.500000
,259.500000=110.000000
,276.000000=55.000000
;
#STOPS:158.500000=0.091000,
159.000000=0.045000,
159.250000=0.046000,
159.500000=0.045000,
159.750000=0.046000,
191.000000=-11.727273
;
#BGCHANGES:;
#KEYSOUNDS:;
#ATTACKS:;

//---------------dance-single - Benpai, Loodee, Maxx----------------
#NOTES:
     dance-single:
     Benpai, Loodee, Maxx SX:
     Challenge:
     10:
     0.689261,0.763017,0.424914,0.548276,0.914935,704.000000,630.000000,62.000000,80.000000,26.000000,12.000000,0.689261,0.763017,0.424914,0.548276,0.914935,704.000000,630.000000,62.000000,80.000000,26.000000,12.000000:
// measure 0
0000
0000
0000
0000
,  // measure 1
0000
0000
0000
0000
,  // measure 2
0000
0000
0000
0000
,  // measure 3
0000
0000
0000
0000
,  // measure 4
0001
0000
1000
0000
0100
0010
0000
0100
1000
0000
0001
0100
0010
0000
0100
0001
,  // measure 5
1000
0000
0100
0000
1000
0001
0000
0100
0010
0000
0100
0001
0010
0000
0100
1000
,  // measure 6
0001
0000
0100
0000
0010
0100
0000
0001
1000
0000
0100
0010
0001
0000
1000
0001
,  // measure 7
0100
0000
0000
0000
0010
0000
0000
0000
0100
0000
0001
0000
0000
0000
1000
0000
0100
0000
0000
0000
0010
0000
0100
0000
1000
0000
0001
0000
0100
0000
0010
1000
,  // measure 8
0001
0000
1000
0000
0100
0010
0000
0100
1000
0000
0001
0100
0010
0000
0100
0001
,  // measure 9
0010
0000
0100
0000
1000
0001
0000
1000
0010
0000
0100
0001
1000
0000
0100
0010
,  // measure 10
0001
1000
0100
1000
0010
0100
0001
1000
0100
0000
0010
0001
1000
0000
0010
0200
,  // measure 11
0000
0000
0000
0000
0301
0000
0000
0000
0020
0000
0000
0000
0130
0000
1000
0000
1001
0000
0000
0000
0004
0003
0000
0000
0040
0030
0000
0000
0040
0030
0000
0000
,  // measure 12
1002
0000
0203
0000
0310
0100
0001
1100
0000
0001
1100
0000
1101
0000
0001
0010
,  // measure 13
0200
0000
2300
0000
3001
0010
0100
1010
0000
0001
1010
0000
1011
0000
0001
0100
,  // measure 14
0020
0000
0000
0000
0130
0001
0010
0101
0000
0010
0101
0000
0111
0000
1000
0001
,  // measure 15
0200
0000
0310
0000
2001
0000
3100
0010
0000
0100
1000
0000
1010
0000
0001
0100
,  // measure 16
0020
0000
0230
0000
0301
0010
0100
1010
0000
0001
1010
0000
1011
0000
0001
0100
,  // measure 17
0020
0000
0230
0000
0301
0100
0010
1100
0000
0001
1100
0000
1101
0000
0001
1000
,  // measure 18
0200
0000
0000
0000
0310
0100
1000
0101
0000
0010
0101
0000
0111
0000
1000
0001
,  // measure 19
0200
0000
0310
0000
1010
0000
1000
0001
1000
0100
0010
0000
0100
0000
1000
0001
,  // measure 20
0200
0000
0000
0000
0000
0000
0000
0300
0000
0000
0000
0000
0100
0000
0010
0000
0000
0000
0020
0000
0000
0000
0030
0000
1001
0000
0000
0000
1000
0000
0100
0000
,  // measure 21
0020
0000
0130
1000
0002
0000
0103
0010
0100
0001
1000
0100
0001
0100
0010
0001
,  // measure 22
2000
0000
0000
0000
3010
0100
0001
0010
0100
1000
0001
0100
0040
0000
0000
0000
,  // measure 23
1030
0000
0001
0010
0200
0000
1300
0100
1000
0001
0100
0000
0110
0000
0010
0000
,  // measure 24
0020
0000
0000
0000
2030
0000
0000
3100
0000
0100
0020
0000
0031
0100
0020
0000
,  // measure 25
1030
0001
0010
0100
0001
0100
1000
0001
0100
0010
1000
0100
0010
0100
1000
0001
,  // measure 26
0200
0000
0000
0000
0000
0000
0000
0000
0320
0000
0000
0000
0000
0000
1030
0000
0000
0000
1000
0000
0001
0000
0010
0000
0100
1000
0001
1000
0010
0100
0001
1000
,  // measure 27
0200
0000
0000
0000
0320
0000
0130
1000
0000
0001
0100
0000
0020
0000
1030
0001
,  // measure 28
0020
0000
0000
0000
0000
0000
0000
0030
,  // measure 29
0M00
0000
0000
0M00
0000
0000
0M00
0000
0000
0000
0M00
0000
0000
0000
0M00
0000
,  // measure 30
M000
0000
0000
M000
0000
0000
M000
0000
0000
0000
M000
0000
0000
0000
M000
0000
,  // measure 31
0M00
0000
0000
0M00
0000
0000
0M00
0000
0002
0000
0000
0000
2003
0000
0000
0000
,  // measure 32
3010
0000
0100
0000
0001
0100
0000
0001
1000
0000
0100
0010
0001
0000
1000
0001
,  // measure 33
0100
0000
0010
0000
1000
0001
0000
0010
0100
0000
1000
0010
0100
0000
0010
1000
,  // measure 34
0001
0000
0010
0000
0100
0010
0000
0001
1000
0000
0100
1000
0010
0000
1000
0001
,  // measure 35
0100
0000
0000
0000
0010
0000
0000
0000
0100
0000
0001
0000
0000
0000
1000
0000
0010
0000
0000
0000
0100
0000
0010
0000
1000
0000
0001
0000
0010
0000
0100
1000
,  // measure 36
0001
0000
0002
0003
0100
0010
0200
0310
1000
0000
1000
0001
0010
0000
0010
0100
,  // measure 37
1000
0000
2000
3000
0001
0100
0002
1003
0010
0000
0010
1000
0100
0000
0100
0010
,  // measure 38
0001
1000
0010
1000
0001
0010
0100
0010
0001
1000
0040
0030
0100
0001
0040
0030
,  // measure 39
0400
0300
1000
0010
0400
0300
0001
0001
2000
0000
3100
0000
0010
0100
1000
0001
,  // measure 40
0201
0000
0000
0000
0000
0000
0000
0000
0320
0000
0000
0000
1030
0000
0100
0000
0000
0000
0100
00M0
0100
0000
0001
0000
2000
0000
0000
0000
3010
0000
0000
0000
,  // measure 41
0110
0000
0100
0001
0010
0100
1000
0010
0M10
0001
0100
0001
1001
0000
1100
0000
,  // measure 42
0012
0000
0000
0000
1003
0000
0100
0000
0010
0000
0001
0000
0100
0000
4000
0000
0000
0000
3100
0000
0010
0M00
0010
0000
0001
0000
0000
0000
2000
0000
0000
0000
,  // measure 43
3010
0000
0100
0000
0001
0000
1000
0000
0100
0000
0010
0000
0001
0000
0200
0000
0000
0000
0301
0000
0100
00M0
0100
0000
1000
0000
0100
0000
0010
0000
0001
0000
,  // measure 44
2000
0000
0000
0000
0000
0000
0000
0000
3010
0000
1000
0000
0100
0000
0002
0000
0000
0000
0103
0000
0010
0000
0001
0000
1000
0000
0000
0000
0100
00M0
0100
0000
,  // measure 45
0012
0000
0000
0000
1003
0100
0010
0102
0000
0013
0100
0000
1100
0000
0001
0100
,  // measure 46
0010
0000
0100
0010
1000
0100
0010
2000
0000
3010
0001
1000
0100
1000
0004
0003
,  // measure 47
0101
0000
0100
0010
1000
0001
0010
0200
0000
0000
0000
0300
0000
0000
0000
0000
,  // measure 48
000M
0000
M000
0000
0M00
0000
M000
000M
0M00
0000
0000
0000
000M
0000
0000
0000
0000
0000
0000
0000
0000
0000
0000
0000
0000
0000
0000
0000
0000
0000
0000
0000
,  // measure 49
0000
0000
0000
0000
,  // measure 50
0000
0000
0000
0000
,  // measure 51
0000
0000
0000
0000
,  // measure 52
0000
0000
0000
0000
,  // measure 53
0000
0000
0000
0000
0000
0000
0000
0000
0000
0000
0000
0000
00M1
0000
1000
0000
0100
0000
1000
0001
0100
0000
0100
0000
001M
0000
1000
0000
0001
0000
0010
0000
,  // measure 54
0102
0000
0000
0000
0000
0000
0000
0000
0013
0000
0100
0000
1000
0000
0001
0100
0001
0000
0200
0000
0000
0000
0310
0000
1000
0000
0100
0000
1000
0000
0001
0000
,  // measure 55
0201
0000
0000
0000
0310
0000
0100
0000
0001
0000
0010
0000
0100
0000
2000
0000
0000
0000
3001
0000
0100
00M0
0100
0000
1000
0000
0000
0000
0001
0000
0000
0000
,  // measure 56
0100
0000
0010
0000
0100
0000
0001
0000
1000
0000
0100
0000
0010
0000
0002
0000
0000
0000
0103
0000
0010
0M00
0010
0000
0001
0000
1000
0000
0100
0000
0010
0000
,  // measure 57
0002
0000
0000
0000
0000
0000
0000
0000
0103
0000
0001
0000
0010
0000
2000
0000
0000
0000
3010
0000
0100
0000
1000
0000
0001
0000
0000
0000
0100
00M0
0100
0000
,  // measure 58
1020
0000
0000
0000
0130
1000
0010
1200
0000
0301
1000
0000
1100
0000
0100
0010
,  // measure 59
0001
1000
0010
0100
0010
1000
0100
0002
0000
0103
0010
0001
0100
0010
1000
0000
,  // measure 60
0202
0000
0303
2200
0000
3300
2002
0000
0000
0000
0000
3003
1000
0001
1000
0100
,  // measure 61
0020
0000
0032
0000
0103
0010
1000
0011
0000
1000
0011
0000
1011
0000
1000
0100
,  // measure 62
0020
0000
0032
0000
1003
0100
0010
0101
0000
1000
0101
0000
1101
0000
1000
0010
,  // measure 63
0200
0000
0000
0000
0310
1000
0100
1010
0000
0100
1010
0000
1110
0000
0001
1000
,  // measure 64
0020
0000
0130
0000
1002
0000
0013
0100
0000
0010
0001
0000
0101
0000
1000
0010
,  // measure 65
0200
0000
0320
0000
1030
0100
0010
0101
0000
1000
0101
0000
1101
0000
1000
0010
,  // measure 66
0200
0000
0320
0000
1030
0010
0100
0011
0000
1000
0011
0000
1011
0000
1000
0001
,  // measure 67
0020
0000
0000
0000
0130
0010
0001
1010
0000
0100
1010
0000
1110
0000
0001
0200
,  // measure 68
0000
0300
0001
0000
0010
0000
0100
2000
0000
3010
0100
0000
0001
0000
1000
0100
,  // measure 69
0010
0000
0000
000M
M000
0000
0000
0M00
0000
0000
0000
0000
;

//---------------dance-single - Benpai----------------
#NOTES:
     dance-single:
     Benpai SH:
     Hard:
     9:
     0.495406,0.567465,0.143922,0.527715,0.531142,506.000000,485.000000,21.000000,77.000000,15.000000,0.000000,0.495406,0.567465,0.143922,0.527715,0.531142,506.000000,485.000000,21.000000,77.000000,15.000000,0.000000:
0000
0000
0000
0000
,
0000
0000
0000
0000
,
0000
0000
0000
0000
,
0000
0000
0000
0000
,
0001
0000
0100
0000
0010
0000
0000
1000
0000
0000
0000
0000
0000
0000
0001
0010
,
0100
0000
1000
0000
0001
0000
0000
0100
0000
0000
0001
0000
0010
0000
0100
1000
,
0001
0000
0000
0001
0000
0000
0001
0000
0000
0000
1000
0000
0010
0000
0000
0100
,
0000
0000
0001
0000
0010
0000
0000
0100
0000
0000
0010
0000
0001
0000
0100
0010
,
1000
0000
0010
0000
0100
0000
0000
0001
0000
0000
0000
0000
0000
0000
1000
0100
,
0010
0000
0100
0000
1000
0000
0000
0001
0000
0000
0100
0000
0010
0000
0100
0001
,
1000
0000
0000
1000
0000
0000
1000
0000
0000
0000
0001
0000
0010
0000
0000
0100
,
0000
0000
1000
0000
0010
0000
0000
0100
0001
0000
0001
0000
0010
0000
0010
0000
,
0120
0000
0032
0000
1003
0000
0010
0100
0000
0100
0001
0000
1001
0000
1000
0100
,
0020
0000
0230
0000
1300
0000
0001
0100
0000
0100
0010
0000
1010
0000
1000
0001
,
0020
0000
0000
0000
0130
0000
0000
1000
0000
0001
1000
0000
1010
0000
0010
0200
,
0000
0000
0301
0000
0010
0000
0100
2000
0000
0000
3010
0000
0100
0000
0001
1000
,
0200
0000
0320
0000
0031
0000
1000
0010
0000
0010
0100
0000
0110
0000
0010
1000
,
0002
0000
0023
0000
0130
0000
1000
0001
0000
0001
0100
0000
0101
0000
0001
1000
,
0200
0000
0000
0000
0310
0000
0000
0001
0000
1000
0001
0000
1001
0000
0000
0000
,
2000
0000
3010
0000
0100
0000
0001
1000
0000
1000
0100
0000
0010
0000
0001
1000
,
0020
0000
0000
0000
0030
0000
0100
0001
0000
0002
0000
0000
1003
0000
0100
0010
,
0200
0000
1300
0000
0002
0000
0103
0010
0000
0010
1000
0001
0010
0000
0100
0000
,
0200
0000
0000
0000
1300
0001
0100
0010
0000
0010
1000
0001
0400
0000
0000
0000
,
0302
0000
1003
0000
0200
0000
0310
0001
0000
0001
1000
0000
0010
0000
0100
0000
,
0002
0000
0000
0000
2003
0000
0000
3100
0000
0100
0020
0000
0031
0100
0020
0000
,
1030
0000
0001
0100
0010
0000
1000
0001
0000
0001
0000
0001
0010
0100
1000
0001
,
0200
0000
0000
0000
0310
0000
0000
1000
0000
1000
0001
0010
0400
0000
0000
0000
,
2300
0000
0000
0000
3002
0000
0000
1003
0000
1000
0100
0000
0020
0000
0031
0000
,
2000
0000
0000
0000
0000
0000
0000
3000
,
00M0
0000
0000
00M0
0000
0000
00M0
0000
0000
0000
00M0
0000
0000
0000
00M0
0000
,
0M00
0000
0000
0M00
0000
0000
0M00
0000
0000
0000
0M00
0000
0000
0000
0M00
0000
,
00M0
0000
0000
00M0
0000
0000
00M0
0000
0002
0000
0000
0000
2003
0000
0000
0000
,
3001
0000
0010
0000
0100
0000
0000
1000
0000
0000
0000
0000
0000
0000
0001
0100
,
0010
0000
1000
0000
0001
0000
0000
0010
0000
0000
0001
0000
0100
0000
0010
1000
,
0001
0000
0000
0001
0000
0000
0001
0000
0000
0000
1000
0000
0100
0000
0000
0010
,
0000
0000
0001
0000
0100
0000
0000
0010
0000
0000
0100
0000
0001
0000
0010
0100
,
1000
0000
0100
0000
1000
0000
0001
0000
0100
0000
0010
0000
1000
0000
0001
1000
,
0001
0000
1000
0000
0100
0000
0010
0000
0100
0000
1000
0000
0001
0000
0100
0010
,
0100
0000
0001
0000
0010
0000
0100
0000
1000
0000
0040
0030
0100
0001
0040
0030
,
0400
0300
1000
0010
0400
0300
0010
1000
0002
0000
0103
0000
0010
0000
0100
0001
,
2000
0000
0000
0000
3200
0000
1300
0001
0000
0100
0010
0100
0002
0000
1003
0000
,
2001
0000
0000
0000
3010
0100
0001
1000
0100
1000
0001
0100
0020
0000
2030
0000
,
3002
0000
0013
0000
0100
1000
0001
0400
0000
0300
0010
1000
0001
0000
2000
0000
,
3100
0010
0001
0000
1000
0010
0100
0002
0000
0000
1003
0001
0010
0000
0100
1000
,
0002
0000
0000
0000
0013
0100
1000
0020
0000
0000
0130
0001
1000
0000
0100
1000
,
0020
0000
0000
0000
0130
0001
1000
0200
0000
0000
0310
0001
0100
0000
0010
0000
,
0100
0000
0001
0000
1000
0000
0100
2000
0000
3010
0100
0000
0001
1000
0100
0000
,
1100
0000
1000
0010
0100
0000
0010
2000
0000
0000
0000
0000
3000
0000
0000
0000
,
000M
M000
0M00
0000
0000
0000
0000
0000
0000
0000
0000
0000
0000
0000
0000
0000
,
0000
0000
0000
0000
,
0000
0000
0000
0000
,
0000
0000
0000
0000
,
0000
0000
0000
0000
,
0000
0000
0000
0000
0000
0000
0000
0000
0000
0000
0000
0000
00M1
0000
1000
0000
0100
0000
0000
0010
0000
0000
0000
0000
M001
0000
0000
0000
0100
0000
0000
0000
,
0120
0000
0000
0000
1030
0000
0000
0001
0010
0100
0000
0100
1000
0000
0010
0000
,
0102
0000
1003
0100
0010
0000
0100
2000
0000
0000
3001
0100
0010
0000
1000
0000
,
0100
0000
0010
0100
1000
0000
0010
0200
0000
0000
0301
0100
0010
0000
1000
0001
,
0020
0000
0000
0000
0130
0000
1000
0020
0000
0130
0010
1000
0001
0000
0100
0001
,
0020
0000
0000
0000
0130
1000
0010
0200
0000
0000
0301
0000
1001
0000
1000
0000
,
0100
0000
0010
0100
0010
0000
0100
2000
0000
3010
0100
0000
0001
1000
0100
0000
,
0220
0000
0330
2200
0000
3300
2002
0000
0000
0000
0000
3003
0001
1000
0001
1000
,
0020
0000
0230
0000
0301
0000
1000
0010
0000
0010
0100
0000
0101
0000
0001
0010
,
0200
0000
0320
0000
0031
0000
1000
0010
0000
0010
0100
0000
0101
0000
0001
1000
,
0200
0000
0000
0000
0310
0000
0000
0001
0000
0001
0100
0000
0101
0000
0100
0020
,
0000
0000
1030
0000
0100
0000
0010
0002
0000
0000
0103
0000
0010
0000
1000
0001
,
0020
0000
0230
0000
1300
0000
0001
0100
0000
0100
0010
0000
0110
0000
0100
0001
,
2000
0000
3200
0000
0310
0000
0100
1000
0000
1000
0001
0000
1001
0000
1000
0001
,
0200
0000
0000
0000
0310
0000
0000
1000
0000
0001
1000
0000
1100
0000
0100
0010
,
0002
0000
1003
0000
0020
0000
1030
0002
0000
0000
0103
0000
0010
0000
1000
0001
,
1000
0000
0000
0000
;

//---------------dance-single - Benpai----------------
#NOTES:
     dance-single:
     Benpai SN:
     Beginner:
     1:
     0.080283,0.141866,0.020560,0.000000,0.000000,82.000000,79.000000,3.000000,0.000000,0.000000,0.000000,0.080283,0.141866,0.020560,0.000000,0.000000,82.000000,79.000000,3.000000,0.000000,0.000000,0.000000:
0000
0000
0000
0000
,
0000
0000
0000
0000
,
0000
0000
0000
0000
,
0000
0000
0000
0000
,
0001
0000
0100
0000
,
0001
0000
1000
0000
,
0100
0000
1000
0000
,
0001
0000
0001
0000
,
0010
0000
0100
0000
,
0010
0000
0001
0000
,
0100
0000
0100
0000
,
0010
0000
1000
0000
,
0001
0000
0000
0000
,
0010
0000
0000
0000
,
0100
0000
0000
0000
,
1000
0000
0000
0000
,
0001
0000
0000
0000
,
0100
0000
0000
0000
,
0010
0000
0000
0000
,
1000
0000
1000
0000
,
0001
0000
0000
1001
,
1000
0000
0000
0000
,
0100
0000
0000
0000
,
0010
0000
0000
0000
,
0100
0000
0000
0000
,
1000
0000
0000
0000
,
0010
0000
0000
0000
,
0100
0000
0000
0000
,
0001
0000
0000
0000
,
0000
0000
0000
0000
,
0000
0000
0000
0000
,
0000
0000
0000
0000
,
1000
0000
0100
0000
,
1000
0000
0001
0000
,
0100
0000
0001
0000
,
1000
0000
1000
0000
,
0100
0000
0100
0000
,
0010
0000
0010
0000
,
0001
0000
0001
0000
,
0001
0001
0001
0000
,
1000
0000
0000
0000
,
0010
0000
0000
0000
,
0100
0000
0000
0000
,
0001
0000
0000
0000
,
1000
0000
0000
0000
,
0010
0000
0000
0000
,
1000
0000
0000
0000
,
0100
0000
0000
0000
,
00M0
0000
0000
0000
,
0000
0000
0000
0000
,
0000
0000
0000
0000
,
0000
0000
0000
0000
,
0000
0000
0000
0000
,
0000
0000
0000
0010
0000
0000
0001
0000
,
0000
1000
0000
0000
,
0010
0000
0000
0000
,
0100
0000
0000
0000
,
0010
0000
0000
0000
,
1000
0000
0000
0000
,
0100
0000
0000
0000
,
0110
0000
0000
0001
,
0001
0000
0000
0000
,
0010
0000
0000
0000
,
0100
0000
0000
0000
,
1000
0000
0000
0000
,
0010
0000
0000
0000
,
0010
0000
0000
0000
,
0100
0000
0000
0000
,
0001
0000
0000
0000
,
1001
0000
0000
0000
;

//---------------dance-single - Benpai----------------
#NOTES:
     dance-single:
     Benpai SE:
     Easy:
     3:
     0.128257,0.212800,0.061681,0.054828,0.000000,131.000000,122.000000,9.000000,8.000000,0.000000,0.000000,0.128257,0.212800,0.061681,0.054828,0.000000,131.000000,122.000000,9.000000,8.000000,0.000000,0.000000:
0000
0000
0000
0000
,
0000
0000
0000
0000
,
0000
0000
0000
0000
,
0000
0000
0000
0000
,
0001
0010
0100
0000
,
1000
0010
0100
0000
,
0001
1000
0100
0000
,
0010
0001
1000
0000
,
0010
0100
0001
0000
,
0010
0100
1000
0000
,
0002
0000
0203
0000
,
0320
0000
1030
1000
,
1001
0000
0000
0000
0000
0000
0000
0001
,
0001
0000
0000
0000
0000
0000
0000
0100
,
0100
0000
0000
0000
,
0010
0000
1000
0000
,
1001
0000
0000
0000
0000
0000
0000
1000
,
1000
0000
0000
0000
0000
0000
0000
0100
,
0100
0000
0000
0000
,
1000
0000
0001
0000
,
0100
0000
0000
0110
,
0010
0000
0100
0000
,
0001
0000
1000
0000
,
0100
0000
1000
0000
,
0010
0000
0100
0000
,
0001
0000
1000
0000
,
0100
0000
0000
0020
,
0130
0000
0000
0000
,
1100
0000
0000
0000
,
0000
0000
0000
0000
,
0000
0000
0000
0000
,
0000
0000
0000
0000
,
1000
0100
0010
0000
,
0001
0100
0010
0000
,
1000
0001
0010
0000
,
0100
1000
0001
0000
,
0100
0100
0010
0010
,
1000
1000
0001
0001
,
0020
0000
0230
0000
,
2300
0000
3001
0000
,
0101
0000
0100
0000
,
0110
0000
0000
0000
0000
0000
2000
3000
,
1000
0000
0001
0000
,
0010
0000
0100
0000
,
1000
0000
0000
0000
,
1010
0000
0001
0000
,
0010
0000
0100
0000
,
1000
0000
0000
0000
,
00M0
0000
0000
0000
,
0000
0000
0000
0000
,
0000
0000
0000
0000
,
0000
0000
0000
0000
,
0000
0000
0000
0000
,
0000
0000
0000
0010
0000
0000
0100
0000
,
0001
0000
0000
0000
,
1000
0000
0100
0000
,
0010
0000
0100
0000
,
1000
0000
0010
0000
,
0100
0000
0001
0000
,
1000
0000
0000
0000
,
1010
0000
0000
0001
,
0001
0000
1000
0000
,
0010
0000
0100
0000
,
0001
0000
1000
0000
,
0100
0000
0000
1000
,
0010
0000
0100
0000
,
0010
0000
1000
0000
,
0001
0000
0001
0000
,
1000
0000
0100
0000
,
0110
0000
0000
0000
;

//---------------dance-single - Benpai----------------
#NOTES:
     dance-single:
     Benpai SM:
     Medium:
     6:
     0.317217,0.379681,0.089095,0.438621,0.195323,324.000000,311.000000,13.000000,64.000000,15.000000,0.000000,0.317217,0.379681,0.089095,0.438621,0.195323,324.000000,311.000000,13.000000,64.000000,15.000000,0.000000:
0000
0000
0000
0000
,
0000
0000
0000
0000
,
0000
0000
0000
0000
,
0000
0000
0000
0000
,
0001
0000
0000
0000
0010
0000
0000
0100
0000
0000
0000
0000
0000
0000
1000
0000
,
0010
0000
0000
0000
0100
0000
0000
0001
0000
0000
0100
0000
0010
0000
0000
0000
,
1000
0000
0000
1000
0000
0000
1000
0000
0000
0000
1000
0000
0010
0000
0000
0000
,
0100
0000
0000
0100
0000
0000
0001
0000
0000
0000
0001
0000
0010
0000
0000
0000
,
0100
0000
0000
0000
1000
0000
0000
0001
0000
0000
0000
0000
0000
0000
0100
0000
,
0010
0000
0000
0000
1000
0000
0000
0001
0000
0000
0100
0000
0010
0000
0000
0000
,
1000
0000
0000
1000
0000
0000
1000
0000
0000
0000
0001
0000
0010
0000
0000
0100
,
0000
0000
1000
0000
0010
0000
0000
0100
0000
0000
0001
0000
1000
0000
0001
0000
,
1002
0000
0003
0000
1000
0000
0000
0010
0000
0000
0010
0000
0100
0000
0001
0000
,
0020
0000
0030
0000
0100
0000
0000
1000
0000
0000
1000
0000
0010
0000
0100
0000
,
0002
0000
0003
0000
1000
0000
0000
0100
0000
0000
0100
0000
0010
0000
0000
0200
,
0000
0000
1300
0000
0010
0000
0000
0200
0000
0000
0301
0000
0010
0000
0001
0000
,
1002
0000
0003
0000
0100
0000
0000
0010
0000
0000
0010
0000
1000
0000
0001
0000
,
0020
0000
0030
0000
0100
0000
0000
1000
0000
0000
1000
0000
0010
0000
1000
0000
,
0002
0000
0003
0000
0010
0000
0000
0100
0000
0000
0100
0000
1000
0000
0000
0000
,
0002
0000
0000
0000
0203
0000
0000
0320
0000
0000
1030
0000
0010
0000
0100
0000
,
0002
0000
0003
0020
0000
0030
0110
0000
,
2000
0000
3000
0000
0001
0000
0000
0100
0000
0000
0100
0000
0010
0000
1000
0000
,
0200
0000
0000
0000
0310
0000
0000
0001
0000
0000
0001
0000
2000
0000
0000
0000
,
3020
0000
0000
0000
0230
0000
0000
0302
0000
0000
1003
0000
0100
0000
0000
0000
,
0020
0000
0000
0000
0100
0000
0000
0031
0000
0000
0100
0000
0010
0000
1000
0000
,
0002
0000
0000
0000
0103
0000
0000
0001
0000
0000
0001
0000
1000
0000
0100
0000
,
0020
0000
0000
0000
0130
0000
0000
1000
0000
0000
1000
0000
0040
0000
0000
0000
,
0230
0000
0000
0000
0302
0000
0000
1003
0000
0000
1000
0000
0020
0000
0130
0000
,
0002
0000
0000
0000
0000
0000
0000
0003
,
00M0
0000
0000
00M0
0000
0000
00M0
0000
0000
0000
00M0
0000
0000
0000
00M0
0000
,
M000
0000
0000
M000
0000
0000
M000
0000
0000
0000
M000
0000
0000
0000
M000
0000
,
00M0
0000
0000
00M0
0000
0000
00M0
0000
0002
0000
0000
0000
2003
0000
0000
0000
,
3001
0000
0000
0000
0100
0000
0000
0010
0000
0000
0000
0000
0000
0000
1000
0000
,
0100
0000
0000
0000
0010
0000
0000
0001
0000
0000
0010
0000
0100
0000
0000
0000
,
1000
0000
0000
1000
0000
0000
1000
0000
0000
0000
1000
0000
0100
0000
0000
0000
,
0010
0000
0000
0010
0000
0000
0001
0000
0000
0000
0001
0000
0100
0000
0000
0000
,
0010
1000
0001
0000
1000
0001
0010
0000
,
0100
1000
0001
0000
0100
0010
1000
0000
,
0001
0000
1000
0000
0001
0000
1000
0000
0100
0000
0040
0030
0001
0000
0040
0030
,
0400
0300
1000
0000
0040
0030
0100
0000
0002
0000
0003
0000
0000
0000
0000
0000
,
2001
0000
0000
0000
3100
0000
0000
0010
0000
0000
0010
0000
0002
0000
0103
0000
,
0020
0000
0130
0001
1000
0001
0020
0230
,
1300
0000
0001
0000
0100
0000
0000
0010
0000
0000
0010
0000
1000
0000
0001
0000
,
0020
0000
0000
0000
0230
0000
0000
1300
0000
0000
0001
0000
0100
0000
0000
0000
,
0210
0000
0000
0000
0301
0000
0000
1000
0000
0000
0100
0000
0010
0000
0000
0000
,
0022
0000
0000
0033
0000
0000
0000
2200
0000
0000
3300
0000
0001
0000
0000
0000
,
0100
0000
0000
0000
0010
0000
0000
1000
0000
0000
0100
0000
1000
0000
0001
0000
,
0001
0000
0100
0000
0010
0000
0000
2000
0000
0000
0000
0000
3000
0000
0000
0000
,
000M
M000
0M00
0000
0000
0000
0000
0000
0000
0000
0000
0000
0000
0000
0000
0000
,
0000
0000
0000
0000
,
0000
0000
0000
0000
,
0000
0000
0000
0000
,
0000
0000
0000
0000
,
0000
0000
0000
0000
0000
0000
0000
0000
0000
0000
0000
0000
00M1
0000
1000
0000
0100
0000
0000
0010
0000
0000
0000
0000
M001
0000
0000
0000
0000
0000
0000
0000
,
0012
0000
1003
0000
0010
0100
0001
1000
,
0100
0000
0000
0000
0010
0000
0000
0100
0000
0000
1000
0000
0001
0000
0000
0000
,
0200
0000
0000
0000
0310
0000
0000
2000
0000
0000
3001
0000
0020
0000
0000
0000
,
0230
0000
0000
0000
0310
0000
0000
0002
0000
0003
1000
0000
0001
0000
0100
0000
,
0020
0000
0000
0000
0130
0000
0000
0001
0000
0000
0001
0000
1000
0000
0100
0000
,
0010
0000
0000
0000
0001
0000
0000
0100
0000
0000
0010
0000
1000
0000
0001
0000
,
0021
0000
0030
0210
0000
0300
2100
0000
0000
0000
0000
3000
0001
0000
0001
0000
,
2001
0000
3000
0000
0001
0000
0000
0100
0000
0000
0100
0000
0010
0000
1000
0000
,
0200
0000
0300
0000
0010
0000
0000
0001
0000
0000
0001
0000
0100
0000
0010
0000
,
2000
0000
3000
0000
0001
0000
0000
0010
0000
0000
0010
0000
0100
0000
0000
0020
,
0000
0000
0031
0000
0100
0000
0000
0020
0000
0000
1030
0000
0100
0000
1000
0000
,
2001
0000
3000
0000
0010
0000
0000
0100
0000
0000
0100
0000
0001
0000
1000
0000
,
0200
0000
0300
0000
0010
0000
0000
0001
0000
0000
0001
0000
0100
0000
0001
0000
,
2000
0000
3000
0000
0100
0000
0000
0010
0000
0000
0010
0000
0001
0000
0000
0000
,
2000
0000
0000
0000
3020
0000
0000
0230
0000
0000
0301
0000
0100
0000
0010
0000
,
2000
3000
0000
0000
;
