#VERSION:0.83;
#TITLE:Earthquake;
#SUBTITLE:;
#ARTIST:Dropgun;
#TITLETRANSLIT:;
#SUBTITLETRANSLIT:;
#ARTISTTRANSLIT:;
#GENRE:Future House;
#ORIGIN:;
#CREDIT:Feraligatr;
#BANNER:tm26-bn.png;
#BACKGROUND:TM26-bg-wide.png;
#PREVIEWVID:;
#JACKET:tm26-jacket.png;
#CDIMAGE:FeraligatrV4-cd.png;
#DISCIMAGE:;
#LYRICSPATH:;
#CDTITLE:FeraligatrV4-cd.png;
#MUSIC:Dropgun - Earthquake.ogg;
#OFFSET:0.009000;
#SAMPLESTART:77.709999;
#SAMPLELENGTH:15.000000;
#SELECTABLE:YES;
#DISPLAYBPM:87.000000:174.000000;
#BPMS:0.000=128.000,
32.000=122.000,
32.250=121.000,
32.500=120.000,
32.750=119.000,
33.000=118.000,
33.250=117.000,
33.500=116.000,
33.750=115.000,
34.000=114.000,
34.250=113.000,
34.500=112.000,
34.750=110.000,
35.000=107.000,
35.500=104.000,
35.750=102.000,
36.000=100.000,
36.250=95.000,
36.500=92.000,
36.750=88.898,
37.000=87.000,
69.000=174.000,
133.000=87.000,
133.500=88.500,
134.000=88.800,
134.500=89.100,
135.000=90.500,
135.250=91.000,
136.000=91.900,
137.000=93.650,
137.500=93.900,
137.750=94.100,
138.000=94.760,
138.500=94.810,
139.000=96.500,
139.500=97.000,
140.000=97.700,
140.500=97.900,
141.000=99.500,
141.500=99.860,
142.000=100.650,
143.000=102.570,
144.000=103.650,
145.000=105.410,
145.500=105.710,
146.000=106.540,
146.500=107.130,
147.000=107.870,
147.500=108.530,
148.000=109.330,
148.500=109.430,
149.000=111.180,
150.000=112.600,
151.000=114.100,
152.000=115.570,
153.000=117.050,
154.000=118.390,
155.000=120.060,
156.000=121.500,
157.000=122.840,
158.000=124.360,
159.000=125.800,
160.000=127.360,
161.000=128.000,
163.000=128.200,
164.000=128.000;
#STOPS:;
#DELAYS:;
#WARPS:;
#TIMESIGNATURES:0.000=4=4;
#TICKCOUNTS:0.000=4;
#COMBOS:0.000=1;
#SPEEDS:0.000=1.000=0.000=0;
#SCROLLS:0.000=1.000;
#FAKES:;
#LABELS:0.000=Song Start;
#BGCHANGES:;
#KEYSOUNDS:;
#ATTACKS:
;

//---------------dance-single - Feraligatr----------------
#NOTEDATA:;
#CHARTNAME:Feraligatr;
#STEPSTYPE:dance-single;
#DESCRIPTION:Feraligatr;
#CHARTSTYLE:Pad;
#DIFFICULTY:Challenge;
#METER:11;
#RADARVALUES:0.781290,0.962611,0.407080,0.539823,0.929204,618.000000,564.000000,46.000000,61.000000,0.000000,18.000000,9.000000,0.000000,0.000000,0.781290,0.962611,0.407080,0.539823,0.929204,618.000000,564.000000,46.000000,61.000000,0.000000,18.000000,9.000000,0.000000,0.000000;
#CREDIT:Feraligatr;
#DISPLAYBPM:87.000000:174.000000;
#NOTES:
0000
0000
0000
0000
,
0000
0000
0000
0000
,
0000
0000
0000
0000
,
0000
0000
0000
0000
,
2001
0000
0000
0000
3001
0000
0000
0100
0000
0010
0000
0100
0001
0000
0010
0000
,
0210
0000
0000
1300
0001
0000
0100
0000
0120
0000
0000
0030
2010
0000
0000
3000
,
1002
0000
0000
0000
1003
0100
0000
0010
0000
0100
0000
1000
0001
0000
0100
0000
,
0020
0000
1030
0001
1000
0100
0010
0000
0001
0100
0001
0000
0020
0000
0000
0030
,
4100
0000
0000
0000
,
0000
0000
0000
3000
1001
0000
0001
0000
0100
0000
0000
0000
0001
0000
0001
0000
,
0100
0010
1000
0001
0010
0000
0010
0000
0100
0000
0000
0000
1000
0000
1000
0000
,
0001
0000
0100
0000
1000
0100
0001
0000
1000
0000
0000
0000
0001
0000
0001
0000
,
0010
0000
0100
0000
1000
0000
0001
0000
0100
0000
0000
0000
0100
0000
0000
0000
0010
0000
1000
0000
0010
0000
0000
0000
0100
0000
0000
0000
0100
0000
0010
1000
,
0001
0000
0010
0000
0100
0000
0100
1000
0001
0000
1000
0000
0010
0100
0001
0100
,
0010
0000
1000
0000
0100
0000
0010
0000
0001
0000
0000
0000
1000
0000
0010
0000
1000
0000
0000
0000
0001
0000
0000
0000
0010
0000
0000
0000
0100
1000
0001
0000
,
0100
0000
0001
1000
0100
0000
0000
0000
0001
0000
0100
0000
1000
0000
0000
0000
0001
0000
0000
0000
1000
0000
0000
0000
0100
0000
0010
0000
0001
0000
0010
0000
,
0100
0000
1000
0000
0010
0000
0100
0000
0001
0000
0000
0000
1000
0000
0000
0000
0100
0000
0010
0000
0100
0000
1000
0000
0010
0000
0000
0000
0100
0000
0010
1000
,
0100
0010
0001
1000
0001
0000
0100
0000
0110
0000
0000
0000
0100
0000
0000
0000
0001
0000
0000
0000
0010
0000
0000
0000
0001
0000
0000
0000
1000
0000
0000
0000
,
0010
1000
0100
0001
0100
0010
0202
1303
,
0010
0000
0100
0001
1000
0000
0001
0010
0100
0000
1000
0001
1000
0000
0010
0000
,
0100
0000
0001
0000
1000
0100
0010
0100
1000
0001
1000
0010
0100
0000
1000
0000
,
0100
0000
0000
0000
0001
1000
0001
0000
0010
0000
0000
0000
0100
0000
1000
0000
0001
0000
0000
0000
0100
0000
0010
0000
1000
0000
0000
0000
0001
0000
0000
0000
,
0010
0001
0100
1000
0100
0010
2200
3301
,
0010
0100
1000
0001
1000
0010
0100
0001
,
0100
0000
0001
0000
0010
0100
1000
0001
0100
0001
1000
0100
0010
0000
1000
0000
,
0010
0100
1100
0100
1000
0010
0100
0001
,
0010
0001
0100
1000
0100
0010
2200
3301
,
0010
0000
0100
1000
0001
0000
1000
0010
0100
0000
0001
1000
0001
0000
0010
0000
,
0100
0000
1000
0000
0001
0100
0010
0100
0001
1000
0001
0010
0100
0000
0001
0000
,
0100
0000
0000
0000
1000
0001
1000
0000
0010
0000
0000
0000
0100
0000
0001
0000
1000
0000
0000
0000
0100
0000
0010
0000
0001
0000
0000
0000
1000
0000
0000
0000
,
0010
1000
0100
0001
0100
0010
0202
1303
,
0010
0100
0001
1000
0001
0010
0100
1000
,
0100
0000
1000
0000
0010
0100
0001
1000
0100
1000
0001
0100
0010
0000
0001
0000
,
0010
0000
0100
0000
0001
1000
0100
1000
0001
0100
0010
1000
0100
1000
0001
0100
,
0022
0000
1033
0000
0100
0000
0010
0000
0002
0000
0000
0000
0103
0000
0010
0000
1000
0000
0001
0000
0100
0000
0001
0000
0010
0100
1000
0001
0100
0001
1000
0100
,
0010
1000
0010
0100
1000
0001
0100
0001
1000
0100
0010
0001
0100
0001
1000
0100
,
2020
0000
3031
0000
0100
0000
0010
0000
2000
0000
0000
0000
3100
0000
0010
0000
0001
0000
1000
0000
0100
0000
1000
0000
0001
0100
0010
0100
0001
1000
0001
0010
,
0100
0001
0100
0010
0001
0100
0010
1000
0001
0010
0001
1000
0010
0100
0001
1000
,
0001
0010
0100
1000
0001
0100
0010
0100
0001
1000
0100
0010
0001
1000
0010
1000
,
0001
0010
0100
1000
0010
0100
0001
1000
0100
1000
0001
0100
0001
0010
0100
0010
,
0001
1000
0010
1000
0200
0000
0000
0000
0000
0000
0000
0000
0300
0000
0000
0000
,
0110
0000
0010
0000
2101
0000
0000
0000
3001
1000
0010
0100
0000
0100
0001
1000
,
0000
0001
0010
0100
2020
0000
3030
0001
0000
1000
0010
0100
0022
0000
0033
0100
,
0022
0000
1033
0000
1012
0000
0000
0000
1003
0001
0010
0100
0000
0100
1000
0010
,
0000
0000
1000
0000
0100
0000
0010
0000
0202
0000
0000
0000
0303
0000
1000
0000
0000
0000
0001
0000
0100
0000
0010
0000
4100
3000
0000
0000
0000
0000
4100
3000
,
0000
0000
0000
0000
0041
0030
0000
0000
1012
0000
0000
0000
0000
0000
0000
0000
1003
0000
0001
0000
0010
0000
0100
0000
0000
0000
0100
0000
1000
0000
0001
0000
,
0000
1000
0010
0100
0022
0000
0033
1000
0000
0001
0010
0100
2020
0000
3030
0100
,
2020
0000
3031
0000
2011
0000
0000
0000
3001
1000
0010
0100
0000
0100
0001
0010
,
0000
0001
1000
0010
0200
0000
0301
1000
0100
1000
0010
0000
0400
0000
0000
0000
,
0310
0000
1000
0000
1012
0000
0000
0000
1003
0010
0100
0001
0000
0001
0010
1000
,
0000
0001
0100
0010
0202
0000
0303
1000
0001
0100
0001
0010
0202
0000
0303
0010
,
0202
0000
1303
0000
2101
0000
0000
0000
3001
1000
0010
0100
0000
0100
0001
0010
,
0000
0000
0001
0000
0100
0000
0010
0000
2200
0000
0000
0000
3300
0000
0001
0000
1000
0000
0100
0000
1000
0000
0010
0000
1400
0300
0000
0000
0000
0000
0014
0003
,
0000
0000
0000
0000
4100
3000
0000
0000
1012
0000
0000
0000
0000
0000
0000
0000
1003
0000
0001
0000
0010
0000
0100
0000
0000
0000
0100
0000
1000
0000
0001
0000
,
0000
1000
0010
0100
0022
0000
0033
1000
0001
0010
0001
0100
0022
0000
0033
0100
,
0022
0000
1033
0000
2011
0000
0000
0000
3001
1000
0100
0010
0000
0010
0001
0100
,
0000
0001
1000
0100
0020
0000
0031
1000
0010
1000
0100
0000
0040
0000
0000
0030
,
0012
0000
0000
0003
1001
0000
0000
0000
0000
0000
0000
0000
0000
0000
0000
0000
;

//---------------dance-single - Feraligatr----------------
#NOTEDATA:;
#CHARTNAME:Feraligatr SH;
#STEPSTYPE:dance-single;
#DESCRIPTION:Feraligatr;
#CHARTSTYLE:;
#DIFFICULTY:Hard;
#METER:9;
#RADARVALUES:0.616941,0.709292,0.309735,0.256637,0.504425,488.000000,453.000000,35.000000,29.000000,0.000000,0.000000,2.000000,0.000000,0.000000,0.616941,0.709292,0.309735,0.256637,0.504425,488.000000,453.000000,35.000000,29.000000,0.000000,0.000000,2.000000,0.000000,0.000000;
#CREDIT:Feraligatr;
#DISPLAYBPM:87.000000:174.000000;
#NOTES:
0000
0000
0000
0000
,
0000
0000
0000
0000
,
0000
0000
0000
0000
,
0000
0000
0000
0000
,
2001
0000
0000
0000
3010
0000
0000
0100
0000
0001
0000
1000
0100
0000
0010
0000
,
0012
0000
0000
1003
0010
0000
0100
0000
0102
0000
0000
0003
2001
0000
0000
3000
,
1200
0000
0000
0000
0310
0001
0000
1000
0000
0010
0000
1000
0001
0000
0010
0000
,
0200
0000
1300
0001
1000
0010
0200
0000
0301
1000
0001
0000
0020
0000
0000
0030
,
2100
0000
0000
0000
,
0000
0000
0000
3000
1001
0000
0001
0000
0100
0000
0000
0000
0001
0000
0001
0000
,
0100
0010
1000
0001
0010
0000
0010
0000
0100
0000
0000
0000
1000
0000
1000
0000
,
0001
0100
0010
0010
1000
0000
0010
0010
,
1000
0001
0100
0001
0010
0000
0010
0000
0100
0000
0000
0000
1000
0000
1000
0000
,
0010
0000
1000
0000
0001
0000
0100
0010
0100
0000
0001
0000
1000
0100
0010
0001
,
1000
0001
0100
0010
1000
0000
1000
0000
0001
0000
0000
0000
0010
0000
0010
0000
,
0001
0000
1000
0000
0010
0000
0010
0000
0100
0000
0001
0000
1000
0100
0010
0001
,
1000
0001
0100
0010
1000
0000
1000
0000
0001
0000
0010
0100
1000
0000
0001
0100
,
0010
1000
0010
1000
0001
0000
0010
0000
0110
0000
0000
0000
0100
0000
0000
0000
1000
0000
0000
0000
0001
0000
0000
0000
0100
0000
0000
0000
0010
0000
0000
0000
,
0100
0001
0010
0100
1000
0001
0201
0310
,
1000
0001
0010
0100
1000
0001
0100
0010
,
0100
0001
0010
0100
1000
0010
0100
0001
,
1000
0100
0010
0100
1000
0001
0100
0010
,
0100
0001
0010
0100
1000
0001
0201
0310
,
1000
0001
0010
0100
0010
0001
1000
0010
,
1000
0000
0001
0000
0020
0000
0000
0000
0230
0000
0000
0300
1100
0000
1000
0000
,
0101
0100
1010
1000
0001
1000
0100
0010
,
0100
1000
0010
0100
0001
1000
1200
0310
,
0001
1000
0010
0100
0001
1000
0100
0010
,
0100
1000
0010
0100
0001
0010
0100
1000
,
0001
0100
0010
0100
0001
1000
0100
0010
,
0100
1000
0010
0100
0001
1000
1200
0310
,
0001
1000
0010
0100
0010
1000
0001
0010
,
0001
0000
1000
0000
0020
0000
0000
0000
0230
0000
0000
0300
0101
0000
0001
0000
,
1100
0000
0100
0000
0011
0000
0000
0001
0100
0000
0001
0000
1000
0000
0000
0100
,
0012
0000
1003
0000
0010
0000
0000
0100
0001
0000
1000
0000
0400
0000
0000
0000
,
1300
0010
0100
0001
1000
0000
0000
0001
0010
0000
0001
0000
1000
0000
0000
0010
,
0201
0000
0310
0000
1000
0000
0000
0001
1000
0000
0100
0000
0040
0000
0000
0000
,
0031
0100
0010
1000
0001
0000
0010
0000
0001
0000
1000
0000
0001
0000
0100
0000
,
0001
1000
0010
1000
0001
1000
0100
1000
,
0001
0010
0001
0100
0010
1000
0100
0010
,
0001
0100
0020
0000
0000
0000
0030
0000
,
0110
0000
0100
0000
2001
0000
0000
0000
3001
1000
0001
0010
0000
0010
0100
1000
,
0000
0001
0100
0010
1000
0000
0000
1000
0000
0001
0010
0001
0100
0000
0000
0100
,
0010
0000
1000
0000
1002
0000
0000
0000
1003
0001
1000
0100
0000
0100
1000
0010
,
0000
0100
0001
1000
0100
0000
0000
0100
0000
1000
0100
1000
0010
0000
0000
0110
,
0000
0000
0101
0000
2001
0000
0000
0000
3001
1000
0001
0010
0000
0010
0100
1000
,
0000
0001
0100
0010
1000
0000
0000
1000
0000
0001
0010
0001
0100
0000
0000
0100
,
0010
0000
1000
0000
1002
0000
0000
0000
1003
0001
1000
0100
0000
0100
0010
0001
,
0000
1000
0001
0100
0010
0000
1000
0000
0001
0010
0001
0000
0100
0000
0010
0000
,
1000
0000
0001
0000
1002
0000
0000
0000
1003
0100
0010
0001
0000
0001
0100
1000
,
0000
0100
0010
1000
0100
0000
0000
0100
0000
1000
0100
1000
0010
0000
0000
0010
,
0100
0000
0001
0000
2001
0000
0000
0000
3001
1000
0001
0010
0000
0010
0001
0100
,
0000
0010
1000
0001
0010
0000
0000
0010
0000
0001
0010
0001
0100
0000
0000
1010
,
0000
0000
0101
0000
1002
0000
0000
0000
1003
0001
1000
0100
0000
0100
0010
0001
,
0000
1000
0010
0100
0001
0000
0000
0001
0000
1000
0100
1000
0010
0000
0000
0010
,
0100
0000
0001
0000
2001
0000
0000
0000
3001
1000
0001
0010
0000
0010
0001
0100
,
0000
0001
1000
0100
0010
0000
0001
0000
1000
0010
1000
0000
0100
0000
0010
0000
,
0012
0000
0000
0003
1001
0000
0000
0000
0000
0000
0000
0000
0000
0000
0000
0000
;

//---------------dance-single - Feraligatr----------------
#NOTEDATA:;
#CHARTNAME:Feraligatr SM;
#STEPSTYPE:dance-single;
#DESCRIPTION:Feraligatr;
#CHARTSTYLE:;
#DIFFICULTY:Medium;
#METER:7;
#RADARVALUES:0.447535,0.455973,0.212389,0.247788,0.061947,354.000000,330.000000,24.000000,28.000000,0.000000,0.000000,1.000000,0.000000,0.000000,0.447535,0.455973,0.212389,0.247788,0.061947,354.000000,330.000000,24.000000,28.000000,0.000000,0.000000,1.000000,0.000000,0.000000;
#CREDIT:Feraligatr;
#DISPLAYBPM:87.000000:174.000000;
#NOTES:
0000
0000
0000
0000
,
0000
0000
0000
0000
,
0000
0000
0000
0000
,
0000
0000
0000
0000
,
1002
0000
1003
0000
0010
0000
0100
0001
,
2000
0000
3100
0010
0002
0000
2003
0000
,
3020
0000
0130
0000
0001
0000
1000
0100
,
0020
0000
0000
0000
0031
0000
1000
0000
0020
0000
0000
0000
0230
0000
0000
0300
,
0102
0000
0000
0000
,
0000
0000
1003
1000
0100
0000
1000
1000
,
0100
0010
0001
0001
1000
0000
0001
0001
,
0100
0010
1000
1000
0001
0000
1000
1000
,
0001
0010
0100
0100
1000
0000
0001
0001
,
0100
0001
0010
0010
0100
0000
0010
0010
,
0100
1000
0001
0001
0100
0000
0001
0001
,
1000
0100
0010
0010
0001
0000
0010
0010
,
0001
1000
0010
0010
0100
0001
1000
0100
,
0040
0000
0031
1000
0001
0100
0010
1000
,
0001
0010
0110
0000
1100
0000
2002
0000
,
3003
0001
1000
0010
0100
0001
1000
0100
,
1000
0010
0100
0001
0000
0001
1000
0000
,
0100
0010
0000
0001
1000
0010
0100
0001
,
0100
0001
1000
0100
0000
0100
0220
0000
,
0330
0010
0001
0000
1000
0000
0010
0100
,
0010
1010
1001
0011
,
1000
0000
0010
1000
0001
0010
0100
1000
,
0001
0100
0010
1000
0001
0000
0202
0000
,
0303
0001
1000
0100
0010
0001
1000
0010
,
1000
0100
0010
0001
0000
0001
1000
0000
,
0010
0100
0000
0001
1000
0100
0010
0001
,
0010
0001
1000
0010
0000
0010
0220
0000
,
0330
0100
0001
0000
1000
0000
0100
0010
,
0100
1100
1001
0101
,
0100
0000
0020
0000
1030
1000
0010
0010
,
0100
0001
1000
0000
0100
0010
0001
0000
,
1000
0010
0100
0100
0001
0001
1000
1000
,
0100
0000
0010
0001
1000
0000
0010
0100
,
0001
0000
1000
0100
1000
0100
0010
0001
,
0010
0001
1000
0010
1000
0010
0100
0001
,
0100
0001
1000
0100
0001
0100
1000
0010
,
0001
0010
2000
0000
0000
0000
3000
0000
,
0100
0010
1002
0000
1003
0100
0010
0001
,
1000
0000
0010
0000
0100
0000
0000
0100
0000
0000
0001
0000
0010
0000
0000
0010
,
0000
0100
2100
0000
3001
0100
0010
1000
,
0100
0000
0010
0000
0001
0000
0000
0001
0000
0000
1000
0000
0010
0000
0000
0010
,
0000
0100
0102
0000
1003
0100
0010
0001
,
1000
0000
0010
0000
0100
0000
0000
0100
0000
0000
0001
0000
0010
0000
0000
0010
,
0000
0100
2100
0000
3001
0100
0010
1000
,
0100
0000
0010
0000
0001
0000
1000
0000
0010
0100
0010
0000
1000
0000
0001
0000
,
0010
0210
0300
0000
,
1000
0000
1000
0000
1100
0000
0000
0100
0000
0000
1000
0000
0010
0000
0000
0010
,
0000
0100
0102
0000
1003
0100
0010
0001
,
0100
0000
0010
0000
1000
0000
0000
1000
0000
0000
0100
0000
0001
0000
0000
0100
,
0000
1000
1002
0000
1003
0010
0100
0001
,
1000
0000
0100
0000
0010
0000
0000
0010
0000
0000
0001
0000
0100
0000
0000
0100
,
0000
0010
2010
0000
3001
0010
0100
1000
,
0010
0000
0100
0000
0001
0000
1000
0000
0100
0010
0100
0000
1000
0000
0001
0000
,
0200
0000
0000
0300
1001
0000
0000
0000
0000
0000
0000
0000
0000
0000
0000
0000
;

//---------------dance-single - Feraligatr----------------
#NOTEDATA:;
#CHARTNAME:Feraligatr SE;
#STEPSTYPE:dance-single;
#DESCRIPTION:Feraligatr;
#CHARTSTYLE:;
#DIFFICULTY:Easy;
#METER:4;
#RADARVALUES:0.308470,0.354646,0.292035,0.265487,0.008850,244.000000,211.000000,33.000000,30.000000,0.000000,0.000000,4.000000,0.000000,0.000000,0.308470,0.354646,0.292035,0.265487,0.008850,244.000000,211.000000,33.000000,30.000000,0.000000,0.000000,4.000000,0.000000,0.000000;
#CREDIT:Feraligatr;
#DISPLAYBPM:87.000000:174.000000;
#NOTES:
// measure 0
0000
0000
0000
0000
,  // measure 1
0000
0000
0000
0000
,  // measure 2
0000
0000
0000
0000
,  // measure 3
0000
0000
0000
0000
,  // measure 4
2001
3010
0100
0001
,  // measure 5
2000
3100
0020
0032
,  // measure 6
2003
3010
0100
0001
,  // measure 7
2000
3100
0020
0031
,  // measure 8
2001
0000
0000
0000
,  // measure 9
0000
3001
0100
0001
,  // measure 10
0100
0010
1000
0010
,  // measure 11
1000
0001
0010
0001
,  // measure 12
0010
0100
1000
0010
,  // measure 13
1000
0000
0100
0000
0010
0000
0001
0001
,  // measure 14
0001
0000
1000
0000
0010
0000
0100
0100
,  // measure 15
0100
0000
0001
0000
1000
0000
0100
0100
,  // measure 16
0100
0000
0010
0000
0001
0000
1000
0010
,  // measure 17
0100
0001
0010
0000
0100
0000
1000
0000
,  // measure 18
0001
0101
0101
2002
,  // measure 19
3003
1000
0001
0010
,  // measure 20
0100
0010
0001
1000
,  // measure 21
0010
0100
0001
1000
,  // measure 22
0100
0010
0001
2002
,  // measure 23
3003
1000
0010
0100
,  // measure 24
0001
1000
0100
0010
,  // measure 25
0001
1000
0010
0100
,  // measure 26
0001
1100
0101
2002
,  // measure 27
3003
0001
0010
0100
,  // measure 28
1000
0001
0100
0010
,  // measure 29
0100
0001
1000
0100
,  // measure 30
1000
0001
0100
0220
,  // measure 31
0330
0001
1000
0100
,  // measure 32
0010
0001
1000
0001
,  // measure 33
0100
0010
1000
0001
,  // measure 34
0011
1000
0001
0100
,  // measure 35
0010
1000
0001
0010
,  // measure 36
0110
0100
1000
0001
,  // measure 37
0100
0020
2030
3002
,  // measure 38
0023
0230
2300
3002
,  // measure 39
0203
0340
4030
3004
,  // measure 40
0043
0130
0000
0000
,  // measure 41
0100
0000
1001
0000
1000
0000
0001
0100
,  // measure 42
0001
1001
0000
1100
,  // measure 43
1100
0000
1010
0000
0010
0000
0100
0001
,  // measure 44
0100
0000
0000
0000
1010
0000
0000
0000
0000
0000
0000
0000
1000
0000
0000
1000
,  // measure 45
0000
0001
0010
0000
0100
0000
1000
0001
,  // measure 46
1000
1001
0000
0011
,  // measure 47
0011
0000
1001
0000
1000
0000
0010
0100
,  // measure 48
0001
0000
2000
0000
3100
0100
0020
0000
,  // measure 49
0032
0003
1001
0000
0000
0000
0000
0000
,  // measure 50
0000
1001
0000
0110
,  // measure 51
0110
0000
1001
0000
1000
0000
0100
0010
,  // measure 52
0001
0000
0000
0000
1001
0000
0000
0000
0000
0000
0000
0000
1000
0000
0000
0010
,  // measure 53
0000
0100
0001
0000
1000
0000
0100
0010
,  // measure 54
0001
1001
0000
1010
,  // measure 55
1010
0000
0110
0000
0001
0000
1000
0100
,  // measure 56
0010
0000
0002
0000
1003
1000
0020
0000
,  // measure 57
0230
0000
0000
0300
1001
0000
0000
0000
0000
0000
0000
0000
0000
0000
0000
0000
;

//---------------dance-single - Feraligatr----------------
#NOTEDATA:;
#CHARTNAME:Feraligatr SN;
#STEPSTYPE:dance-single;
#DESCRIPTION:Feraligatr;
#CHARTSTYLE:;
#DIFFICULTY:Beginner;
#METER:2;
#RADARVALUES:0.155499,0.177323,0.061947,0.044248,0.000000,123.000000,116.000000,7.000000,5.000000,0.000000,0.000000,0.000000,0.000000,0.000000,0.155499,0.177323,0.061947,0.044248,0.000000,123.000000,116.000000,7.000000,5.000000,0.000000,0.000000,0.000000,0.000000,0.000000;
#CREDIT:Feraligatr;
#DISPLAYBPM:87.000000:174.000000;
#NOTES:
// measure 0
0000
0000
0000
0000
,  // measure 1
0000
0000
0000
0000
,  // measure 2
0000
0000
0000
0000
,  // measure 3
0000
0000
0000
0000
,  // measure 4
1001
0000
0001
0000
,  // measure 5
0010
0000
0100
0000
,  // measure 6
1000
0000
0001
0000
,  // measure 7
0100
0000
0000
0000
,  // measure 8
2002
0000
0000
0000
,  // measure 9
0000
3003
1000
0000
,  // measure 10
1000
0000
0010
0000
,  // measure 11
0010
0000
0100
0000
,  // measure 12
0100
0000
0001
0000
,  // measure 13
0001
0000
1000
0000
,  // measure 14
1000
0000
0100
0000
,  // measure 15
0100
0000
0010
0000
,  // measure 16
0010
0000
0001
0100
,  // measure 17
0010
1000
0000
0001
,  // measure 18
0000
0010
0010
0010
,  // measure 19
0000
0100
0000
1000
,  // measure 20
0000
0001
0001
0001
,  // measure 21
0000
0100
0000
0010
,  // measure 22
0000
1000
1000
1000
,  // measure 23
0000
0001
0000
0010
,  // measure 24
0000
0100
0100
0100
,  // measure 25
0000
1000
0000
0001
,  // measure 26
0000
0100
0100
0100
,  // measure 27
0000
0010
0000
1000
,  // measure 28
0000
0001
0001
0001
,  // measure 29
0000
0010
0000
0100
,  // measure 30
0000
1000
1000
1000
,  // measure 31
0000
0001
0000
0100
,  // measure 32
0000
0010
0010
0010
,  // measure 33
1000
0002
0000
0003
,  // measure 34
0110
0000
0000
0000
,  // measure 35
0000
1000
0000
0000
,  // measure 36
0110
0000
0000
0000
,  // measure 37
0000
0001
0000
0001
,  // measure 38
0000
0000
0010
0000
,  // measure 39
0010
0000
1000
0010
,  // measure 40
0100
0001
0000
0000
,  // measure 41
0000
1001
0000
1000
,  // measure 42
0000
0010
0000
0100
,  // measure 43
0100
0100
0000
0001
,  // measure 44
0000
1000
0000
0200
,  // measure 45
0000
0310
0000
0001
,  // measure 46
0000
1000
0000
0010
,  // measure 47
0010
0010
0000
0100
,  // measure 48
0000
0001
0000
1000
,  // measure 49
1000
0100
0000
0000
,  // measure 50
0000
1001
0000
0001
,  // measure 51
0001
0001
0000
0100
,  // measure 52
0000
0010
0000
2000
,  // measure 53
0000
3001
0000
1000
,  // measure 54
0000
0100
0000
0010
,  // measure 55
0010
0010
0000
0001
,  // measure 56
0000
1000
0000
0010
,  // measure 57
0100
1001
0000
0000
;
