#TITLE:ECHO;
#SUBTITLE:(The Living Tombstone Remix);
#ARTIST:Crusher-P;
#TITLETRANSLIT:;
#SUBTITLETRANSLIT:;
#ARTISTTRANSLIT:;
#GENRE:;
#CREDIT:;
#BANNER:ECHO (The Living Tombstone Remix)-bn.png;
#BACKGROUND:ECHO (The Living Tombstone Remix)-bg.png;
#LYRICSPATH:;
#CDTITLE:xRGTMx-cdtitle.png;
#MUSIC:ECHO (The Living Tombstone Remix).ogg;
#OFFSET:0.010000;
#SAMPLESTART:90.790001;
#SAMPLELENGTH:12.799995;
#SELECTABLE:YES;
#BPMS:0.000000=150.000000
;
#STOPS:
;
#BGCHANGES:;
#KEYSOUNDS:;
#ATTACKS:;

//---------------dance-single - xRGTMx----------------
#NOTES:
     dance-single:
     xRGTMx:
     Challenge:
     9:
     0.545167,0.664343,0.312435,0.654626,0.063231,513.000000,471.000000,42.000000,88.000000,0.000000,0.000000,0.545167,0.664343,0.312435,0.654626,0.063231,513.000000,471.000000,42.000000,88.000000,0.000000,0.000000:
// measure 0
0000
0000
0000
0000
,  // measure 1
0000
0000
0000
0000
,  // measure 2
0000
0000
0000
0000
,  // measure 3
0000
0000
0000
0000
,  // measure 4
0000
0000
0000
1000
,  // measure 5
0010
0000
1000
0000
0100
1000
0000
0001
,  // measure 6
0010
0001
1000
0001
0000
1000
0000
0001
,  // measure 7
0010
0001
1000
0001
0100
0000
0001
0000
,  // measure 8
1000
0010
0000
0200
0000
0000
0301
0000
,  // measure 9
0010
0000
0001
1000
0100
0000
1000
0001
,  // measure 10
0010
0001
0000
2000
0000
3100
0000
1000
,  // measure 11
0001
1000
0001
1000
0020
0000
1030
0100
,  // measure 12
0010
0100
0000
2000
0000
3000
0100
0000
,  // measure 13
1001
0000
1000
0020
0000
0230
0000
0310
,  // measure 14
1000
0000
0001
0020
0000
2030
0000
3010
,  // measure 15
0100
0000
1000
0020
0000
2030
0000
3001
,  // measure 16
1000
0001
0020
0130
,  // measure 17
1000
0000
0001
0020
0000
0230
0000
0310
,  // measure 18
0001
0000
1000
0020
0000
0032
0000
0013
,  // measure 19
1000
0000
0000
0000
0010
1000
0010
1000
0010
0100
0001
0100
0001
1000
0001
1000
,  // measure 20
0200
0000
0000
0000
0320
0000
0031
1000
,  // measure 21
0011
0000
1000
0001
1010
0000
1001
0000
,  // measure 22
0001
0010
0001
1000
0102
0000
1003
0000
,  // measure 23
0010
1000
0100
1000
0001
0100
0010
0100
,  // measure 24
0001
1000
0100
1000
1002
0000
0013
0000
,  // measure 25
1010
0000
0001
1000
0011
0000
1001
0000
,  // measure 26
1000
0010
1000
0001
2100
0000
3002
0000
,  // measure 27
0013
0001
1000
0001
0100
0010
0100
0001
,  // measure 28
1000
0100
1000
0001
0021
0000
0130
1000
,  // measure 29
0010
2000
0000
3002
0000
0203
0000
0301
,  // measure 30
0010
0001
0001
2000
0000
3200
0000
1300
,  // measure 31
0001
0010
0100
1000
0020
0000
0130
0001
,  // measure 32
1000
0001
0100
0001
2000
0000
3001
0000
,  // measure 33
0110
0000
0000
0000
1002
0000
0000
0000
0103
0000
0001
0000
0001
1000
0100
0000
,  // measure 34
0010
0100
0100
1000
0001
1000
0100
1000
,  // measure 35
0001
0000
1000
0001
0010
0000
0010
0000
0000
0000
0010
0000
0100
0000
0010
0000
,  // measure 36
0001
0000
1000
0000
0001
1000
0001
1000
0010
1000
0010
0100
0010
0000
1000
0000
,  // measure 37
1200
0000
0310
0001
1000
0010
1000
0100
,  // measure 38
0000
0100
0010
0001
1000
0010
1000
0100
,  // measure 39
0100
0100
0010
0001
1000
0010
1000
0100
,  // measure 40
0000
0100
0010
0001
1000
0010
1000
0100
,  // measure 41
0020
0032
0010
2003
,  // measure 42
3020
0000
0000
0000
1000
0000
0000
0000
0230
0000
0000
0000
0010
0000
0000
0300
,  // measure 43
0100
0100
0010
1000
0100
0010
1000
0010
,  // measure 44
0000
0001
0100
0010
0001
0010
1000
0010
,  // measure 45
0110
1000
0001
1000
0020
0000
0130
0001
,  // measure 46
1000
0100
0010
0001
1000
0000
0010
0000
,  // measure 47
0010
1000
0001
1000
0020
0000
0130
0000
,  // measure 48
0001
0100
0010
1000
0001
0000
0010
0000
,  // measure 49
0010
0001
1000
0001
0020
0000
0130
1000
,  // measure 50
0001
0100
0010
1000
0001
0000
0010
0000
,  // measure 51
0010
0001
1000
0001
0020
0000
0130
0000
,  // measure 52
1000
0100
0010
0001
1000
0000
0010
0000
,  // measure 53
2020
0000
0000
3030
0000
0000
0000
0000
2002
0000
0000
3003
0000
0000
0000
0000
,  // measure 54
0022
0000
0000
0033
0000
0000
0000
0000
2002
0000
0000
3003
0000
0000
0000
0000
,  // measure 55
2200
0000
0000
3300
2002
0000
0000
3003
0202
0000
0000
0303
2002
0000
0000
3003
,  // measure 56
1001
1100
1100
0011
1100
0000
1000
0001
,  // measure 57
1010
0000
0001
1000
0011
0000
1001
0000
,  // measure 58
1000
0010
1000
0001
2100
0000
3001
0000
,  // measure 59
0010
0001
0100
0001
1000
0100
0010
0100
,  // measure 60
1000
0001
0100
0001
2001
0000
3010
0000
,  // measure 61
0011
0000
1000
0001
1010
0000
1001
0000
,  // measure 62
0001
0010
0001
1000
0102
0000
2003
0000
,  // measure 63
3010
1000
0001
1000
0100
0010
0100
1000
,  // measure 64
0001
0100
0001
1000
0020
0000
0130
0000
,  // measure 65
0010
2000
0000
3002
0000
0203
0000
0301
,  // measure 66
0010
0001
0001
0020
0000
0230
0000
1300
,  // measure 67
0001
0010
0100
1000
0020
0000
0130
0001
,  // measure 68
1000
0001
0100
0001
2000
0000
3001
0000
,  // measure 69
0110
0000
0000
0000
2001
0000
0000
0000
3100
0000
1000
0000
1000
0001
0100
0000
,  // measure 70
0010
0100
0100
0001
1000
0001
0100
0001
,  // measure 71
1000
0000
0001
1000
0010
0000
0010
0000
0000
0000
0010
0000
0100
0000
0010
0000
,  // measure 72
1000
0010
0100
0010
1000
0001
0010
0100
,  // measure 73
2100
0000
0010
0000
3002
0000
0103
0020
,  // measure 74
0100
0000
0032
0000
0023
0000
1030
0001
,  // measure 75
0020
0000
0130
2000
0010
0000
3100
0020
,  // measure 76
0100
0000
2030
0000
3010
0001
0100
0020
,  // measure 77
1000
0000
0130
0010
0002
0000
0013
0200
,  // measure 78
0010
0000
0302
0000
0203
0000
0310
1000
,  // measure 79
0002
0000
0023
0000
2030
0000
3010
0100
,  // measure 80
1000
0100
1000
0000
0010
1000
0010
0000
0100
0001
0100
0000
0011
0000
0000
0000
,  // measure 81
2200
0000
0000
3300
0000
0000
0000
0000
0000
0000
0000
0000
0000
0000
0000
0000
;

//---------------dance-single - Feraligatr----------------
#NOTES:
     dance-single:
     Feraligatr SH:
     Hard:
     8:
     0.483530,0.573750,0.178534,0.669503,0.014878,455.000000,431.000000,24.000000,90.000000,0.000000,0.000000,0.483530,0.573750,0.178534,0.669503,0.014878,455.000000,431.000000,24.000000,90.000000,0.000000,0.000000:
0000
0000
0000
0000
,
0000
0000
0000
0000
,
0000
0000
0000
0000
,
0000
0000
0000
0000
,
0000
0000
0000
1000
,
0010
0000
0100
0000
0001
1000
0000
0100
,
0010
0100
1000
0001
0000
0000
0000
0100
,
0001
1000
0100
1000
0010
0000
0000
0000
,
1000
0100
0000
0020
0000
0000
0031
0000
,
1000
0000
0010
0100
0001
0000
1000
0100
,
0010
0001
0000
2000
0000
3000
0000
0100
,
1000
0001
1000
0001
0020
0000
0031
1000
,
0010
0100
0000
0001
0010
0100
0000
0000
,
1001
0000
1000
0020
0000
0230
0000
0300
,
1001
0000
0001
0020
0000
0230
0000
0300
,
1001
0000
0001
0200
0000
0320
0000
0030
,
1010
1001
0011
0000
,
1001
0000
0001
0020
0000
0230
0000
0300
,
1001
0000
1000
0020
0000
0230
0000
0300
,
1001
0000
1000
0200
0000
0320
0000
0030
,
0200
0000
0000
0000
2300
0000
3001
0100
,
1000
0000
1000
0100
0001
0000
0010
0000
,
1000
0010
0001
0100
0020
0000
1030
0000
,
0010
0100
0001
1000
0100
0010
0100
1000
,
0001
1000
0010
0100
0002
0000
0023
0000
,
1030
0000
1000
0010
0001
0000
0100
0000
,
1000
0100
0001
0010
2000
0000
3020
0000
,
0130
1000
0001
0100
0001
1000
0100
0010
,
0001
1000
0010
0100
0002
0000
0003
0010
,
0100
2000
0000
3002
0000
0203
0000
0301
,
0010
0001
0100
0020
0000
2030
0000
3000
,
0001
1000
0100
1000
0020
0000
0030
0100
,
0001
1000
0001
0010
0200
0000
0300
0000
,
1010
0000
0000
0000
0102
0000
0000
0000
1003
0000
0010
0000
0010
0100
0001
0000
,
0010
0100
0100
1000
1000
0001
0100
0010
,
1000
0000
1000
0001
0010
0000
0010
0000
0000
0000
0010
0000
0100
0000
0010
0000
,
0001
1000
0001
0100
1000
0100
0001
1000
,
1200
0000
0301
0100
1000
0010
0100
0001
,
0000
0100
1000
0100
0001
0010
0100
1000
,
0010
0010
0001
0010
1000
0100
0010
0001
,
0000
0010
1000
0010
0001
0100
0010
1000
,
0200
0320
0000
0032
,
0203
0000
0320
0000
,
0130
0100
1000
0100
0001
0010
1000
0010
,
0000
0100
1000
0010
0001
0010
1000
0001
,
1000
0100
0010
0001
0200
0000
0310
0000
,
1000
0100
0010
0001
0100
0000
0010
0000
,
1000
0100
0010
0001
0200
0000
0310
0000
,
1000
0100
0010
0001
0100
0000
0010
0000
,
1000
0100
0010
0001
0200
0000
0310
0000
,
1000
0100
0010
0001
0100
0000
0010
0000
,
1000
0100
0010
0001
0200
0000
0310
0000
,
1000
0100
0010
0001
0100
0000
0010
0000
,
0220
0000
0000
0330
0000
0000
0000
0000
0220
0000
0000
0330
0000
0000
0000
0000
,
2002
0000
0000
3003
0000
0000
0000
0000
2002
0000
0000
3003
0000
0000
0000
0000
,
0220
0000
0000
0330
2002
0000
0000
3003
0220
0000
0000
0330
2002
0000
0000
3003
,
0001
1000
0001
1000
0001
0000
1000
0100
,
0001
0000
0001
0100
1000
0000
0010
0000
,
0001
0010
1000
0100
0020
0000
0130
0000
,
1000
0001
0100
0010
1000
0001
0010
0100
,
1000
0001
0100
0001
2000
0000
3200
0000
,
0301
0000
0001
0100
1000
0000
0010
0000
,
0100
0001
0010
0100
2000
0000
3002
0000
,
0013
0100
1000
0001
0100
0010
0100
0001
,
1000
0100
0010
0001
0200
0000
0310
0000
,
1000
0200
0000
0320
0000
0032
0000
1003
,
0010
0100
0001
0020
0000
0230
0000
0300
,
1000
0010
0100
0001
0020
0000
0030
0100
,
1000
0001
1000
0010
0200
0000
0310
0000
,
1010
0000
0000
0000
0201
0000
0000
0000
0310
0000
1000
0000
1000
0001
0100
0000
,
0010
1000
1000
0100
0100
0010
0001
1000
,
0001
0000
0100
0010
1000
0000
1000
0000
0000
0000
1000
0000
0001
0000
0010
0000
,
0100
0010
0001
0100
1000
0100
0001
0100
,
0210
0000
0000
0000
0302
0000
0013
0200
,
0000
0000
0302
0000
0203
0000
1300
0001
,
0200
0000
0310
2000
0000
0000
3100
0020
,
0000
0000
2030
0000
3010
0001
1000
0020
,
0000
0000
0130
0001
0020
0000
0130
2000
,
0000
0000
3002
0000
0203
0000
0310
0100
,
0002
0000
0023
0000
0230
0000
1300
0100
,
1000
0010
0001
0010
1000
0100
0001
0100
,
2200
0000
0000
3300
0000
0000
0000
0000
0000
0000
0000
0000
0000
0000
0000
0000
;

//---------------dance-single - Feraligatr----------------
#NOTES:
     dance-single:
     Feraligatr SM:
     Medium:
     6:
     0.429332,0.513356,0.163656,0.185973,0.000000,404.000000,382.000000,22.000000,25.000000,0.000000,0.000000,0.429332,0.513356,0.163656,0.185973,0.000000,404.000000,382.000000,22.000000,25.000000,0.000000,0.000000:
0000
0000
0000
0000
,
0000
0000
0000
0000
,
0000
0000
0000
0000
,
0000
0000
0000
0000
,
0000
0000
0000
0000
,
1000
0000
0001
0000
0100
0010
0000
0000
,
1000
0001
1000
0100
0000
0000
0010
0000
,
0001
1000
0001
0100
0010
0000
1000
0000
,
0001
1000
0000
0000
0100
0000
0010
0000
,
0001
0000
1000
0010
0100
0000
0001
0000
,
1000
0100
0000
0000
0010
0000
0001
0000
,
1000
0010
1000
0010
0100
0000
0001
0000
,
1000
0000
0100
0000
0010
0001
1000
0000
,
0110
0000
0001
0000
1000
0100
1000
0000
,
0110
0000
1000
0000
0001
0100
0001
0000
,
0110
0000
1000
0000
0001
0010
0001
0000
,
1001
0110
1001
0000
,
0110
0000
1000
0000
0001
0100
0001
0000
,
0110
0000
0001
0000
1000
0100
1000
0000
,
0110
0000
0001
0000
1000
0010
1000
0000
,
0002
0000
0000
0000
0023
0000
0130
1000
,
0100
0000
1000
0100
1000
0000
0001
0000
,
1000
0000
0010
0100
0001
0000
1000
0000
,
0100
0000
0010
0000
0001
1000
0001
0000
,
0100
0000
0010
1000
0001
0000
1000
0000
,
0100
0000
0010
0001
1000
0000
0010
0000
,
0100
0000
0001
1000
0100
0000
0010
0000
,
0100
0000
1000
0001
0100
0000
0010
0000
,
1000
0000
0001
0010
0100
0000
0000
0000
,
1000
0001
1000
0000
0010
0000
0100
0000
,
0001
1000
0001
0000
0010
0000
0100
0000
,
0010
0001
0010
0000
0100
0000
1000
0000
,
0001
0100
0001
0000
1000
0000
0100
0000
,
0110
0000
1001
0000
0000
1000
0001
0100
,
0010
0010
1000
1000
0001
0010
0100
1000
,
0001
0001
0100
0100
0010
0010
1000
0001
,
0010
0100
1000
0001
0100
0010
1000
0001
,
0010
0000
0100
0000
1000
0001
0100
0000
,
0010
0000
1000
0000
0001
0010
0100
0000
,
1000
0000
0001
0000
0100
0010
1000
0000
,
0001
0000
0010
0000
0100
1000
0001
0000
,
0100
0000
0010
0000
1000
0100
1000
0000
,
0010
0000
0100
0000
0001
0010
0001
0000
,
1000
0000
0010
0000
1000
0100
1000
0000
,
0001
0000
0100
0000
0010
1000
0010
0100
,
0001
0000
1000
0001
0010
0000
0010
0000
,
0100
0000
1000
0001
0100
0000
0100
0000
,
0010
0000
1000
0001
0010
0000
0010
0000
,
0100
0000
1000
0001
0100
0000
0100
0000
,
0010
0000
1000
0001
0010
0000
0010
0000
,
0100
0000
1000
0001
0100
0000
0100
0000
,
0010
0000
1000
0001
0010
0000
0010
0000
,
0100
0000
1000
0001
0100
0000
0100
0000
,
0110
0000
0110
0000
,
1001
0000
1001
0000
,
1100
1100
0011
0011
,
1000
0001
1000
0001
1000
0000
0000
0000
,
0010
0000
1000
0010
0100
0000
0001
0000
,
1000
0000
0100
0010
0001
0000
1000
0000
,
0010
0000
0100
0000
0001
1000
0001
0000
,
0010
0000
0100
1000
0001
0000
1000
0000
,
0010
0000
0100
0001
1000
0000
0100
0000
,
0010
0000
0001
1000
0010
0000
0100
0000
,
0010
0000
1000
0001
0010
0000
0100
0000
,
1000
0000
0001
0100
0010
0000
0000
0000
,
1000
0001
1000
0000
0100
0000
0010
0000
,
0001
1000
0001
0000
0100
0000
0010
0000
,
0100
0001
0100
0000
0010
0000
1000
0000
,
0001
0010
0001
0000
1000
0000
0010
0000
,
0110
0000
1001
0000
0000
1000
0001
0010
,
0100
0100
1000
1000
0001
0100
0010
1000
,
0001
0001
0010
0010
0100
0100
1000
0001
,
0100
0010
1000
0001
0010
0100
1000
0001
,
0200
0000
0000
0000
0320
0000
1030
0002
,
0000
0000
0023
0000
0230
0000
1300
0001
,
0200
0000
0310
2000
0000
0000
3001
0020
,
0000
0000
0230
0000
1300
0001
0100
0020
,
0000
0000
1030
0001
0020
0000
0130
2000
,
0000
0000
3002
0000
0203
0000
0310
0100
,
0002
0000
0023
0000
0230
0000
1300
0002
,
0000
0000
0000
0000
0203
0000
0000
0000
0320
0000
0000
0000
2030
0000
0000
3000
,
2002
0000
0000
3003
0000
0000
0000
0000
0000
0000
0000
0000
0000
0000
0000
0000
;

//---------------dance-single - Feraligatr----------------
#NOTES:
     dance-single:
     Feraligatr SE:
     Easy:
     3:
     0.270989,0.301974,0.111584,0.066950,0.000000,255.000000,240.000000,15.000000,9.000000,0.000000,0.000000,0.270989,0.301974,0.111584,0.066950,0.000000,255.000000,240.000000,15.000000,9.000000,0.000000,0.000000:
0000
0000
0000
0000
,
0000
0000
0000
0000
,
0000
0000
0000
0000
,
0000
0000
0000
0000
,
0000
0000
0000
0000
,
1000
0010
0100
0000
,
0001
1000
0001
0000
,
0010
0100
1000
0000
,
0001
0001
0001
0000
,
0100
0010
1000
0000
,
0001
1000
0001
0000
,
0100
0100
0010
0010
,
1000
0001
1000
0000
,
1100
0000
0001
0000
,
0101
0000
1000
0000
,
1100
0000
0001
0000
,
0010
0010
0010
0000
,
0011
0000
1000
0000
,
1010
0000
0001
0000
,
0011
0000
1000
0000
,
0200
0000
0320
0030
,
0011
1000
0001
0000
,
0100
0010
1000
0000
,
0001
1000
0100
0010
,
0100
1000
0001
0000
,
1000
0010
0100
0000
,
0001
1000
0100
0000
,
0010
0100
1000
0001
,
0100
0010
1000
0000
,
0001
0010
0100
0000
,
0010
0001
1000
0000
,
0010
0100
0001
0000
,
1000
1000
0100
0000
,
0011
1100
0000
1000
,
0001
0001
0100
0100
,
0010
0010
1000
1000
,
0100
0100
0010
0010
,
0001
1000
0010
0000
,
0100
0001
1000
0000
,
0100
0010
0001
0000
,
1000
0010
1000
0001
,
0010
0100
1000
0000
,
0001
0100
0010
0000
,
1000
0001
0010
0000
,
0100
1000
0001
0100
,
0010
0010
0010
1000
,
0100
0100
0100
1000
,
0010
0010
0010
1000
,
0100
0100
0100
1000
,
0010
0010
0010
1000
,
0100
0100
0100
1000
,
0010
0010
0010
1000
,
0100
0100
0100
1000
,
1001
0000
0100
0000
,
1001
0000
0100
0000
,
1000
0001
1000
0001
,
0200
0000
0300
0000
,
1010
0001
1000
0000
,
0100
0010
0001
0000
,
1000
0001
0100
0010
,
0100
0001
1000
0000
,
0001
0010
0100
0000
,
1000
0001
0100
0000
,
0010
0100
0001
1000
,
0100
0010
0001
0000
,
1000
0010
0100
0000
,
0010
1000
0100
0000
,
0010
0100
1000
0000
,
0001
0001
0100
0000
,
1010
0101
0000
0001
,
1000
1000
0100
0100
,
0010
0010
0001
0001
,
0100
0100
0010
0010
,
2000
0000
0010
0000
,
3002
0000
0010
0000
,
1003
0001
0100
0010
,
1000
0100
0010
0001
,
2000
0000
0100
0000
,
3002
0000
0100
0000
,
1003
0100
0010
0001
,
0100
0010
1000
0100
,
2002
0000
0000
3003
0000
0000
0000
0000
0000
0000
0000
0000
0000
0000
0000
0000
;

//---------------dance-single - Feraligatr----------------
#NOTES:
     dance-single:
     Feraligatr SN:
     Beginner:
     2:
     0.153029,0.271777,0.066950,0.081828,0.000000,144.000000,135.000000,9.000000,11.000000,0.000000,0.000000,0.153029,0.271777,0.066950,0.081828,0.000000,144.000000,135.000000,9.000000,11.000000,0.000000,0.000000:
0000
0000
0000
0000
,
0000
0000
0000
0000
,
0000
0000
0000
0000
,
0000
0000
0000
0000
,
0000
0000
0000
0000
,
1000
0000
0000
0000
,
0001
0000
0000
0000
,
0100
0000
0000
0000
,
0010
0000
0000
0000
,
1000
0000
0000
0000
,
0001
0000
0000
0000
,
0010
0000
0000
0000
,
0100
0000
0000
0000
,
1000
0000
1000
0000
,
0001
0000
0001
0000
,
0100
0000
0100
0000
,
0010
0000
0000
0000
,
1000
0000
1000
0000
,
0001
0000
0001
0000
,
0010
0000
0010
0000
,
0200
0000
0300
0000
,
1001
0000
0000
0000
,
1000
0001
1000
0000
,
0010
0000
0000
0000
,
0100
0001
0100
0000
,
0010
0000
0000
0000
,
1000
0001
1000
0000
,
0100
0000
0000
0000
,
0010
0001
0010
0000
,
0100
0000
1000
0000
,
0001
0000
0100
0000
,
0010
0000
1000
0000
,
0001
0000
0010
0000
,
0220
0000
0330
0000
,
1000
1000
0001
0001
,
1000
1000
0001
0001
,
1000
1000
0001
0001
,
0100
0000
0000
0000
,
0010
0000
0000
0000
,
1000
0000
0000
0000
,
0001
0000
0000
0000
,
0010
0000
0000
0000
,
0100
0000
0000
0000
,
1000
0000
0000
0000
,
0001
0000
0000
0000
,
0100
0000
0100
0000
,
0010
0000
0010
0000
,
0100
0000
0100
0000
,
0010
0000
0010
0000
,
0100
0000
0100
0000
,
0010
0000
0010
0000
,
0100
0000
0100
0000
,
0010
0000
0010
0000
,
1001
0000
1000
0000
,
0110
0000
0100
0000
,
2002
0000
0000
3003
,
0220
0000
0330
0000
,
1001
0000
0000
0000
,
0001
1000
0001
0000
,
0100
0000
0000
0000
,
0010
1000
0010
0000
,
0100
0000
0000
0000
,
0001
1000
0001
0000
,
0010
0000
0000
0000
,
0100
1000
0100
0000
,
0010
0000
0001
0000
,
1000
0000
0010
0000
,
0100
0000
0001
0000
,
0010
0000
0100
0000
,
0220
0000
0330
0000
,
0001
0001
1000
1000
,
0001
0001
1000
1000
,
0001
0001
1000
1000
,
0010
0000
0000
0000
,
0100
0000
0000
0000
,
0001
0000
0000
0000
,
0010
0000
0000
0000
,
0100
0000
0000
0000
,
1000
0000
0000
0000
,
0001
0000
0000
0000
,
0100
0000
0000
0000
,
2002
0000
0000
3003
0000
0000
0000
0000
0000
0000
0000
0000
0000
0000
0000
0000
;
