#TITLE:Doppelgänger;
#SUBTITLE:;
#ARTIST:Haywyre;
#TITLETRANSLIT:;
#SUBTITLETRANSLIT:;
#ARTISTTRANSLIT:;
#GENRE:;
#CREDIT:;
#BANNER:Doppelganger-bn.png;
#BACKGROUND:Doppelganger-bg.png;
#LYRICSPATH:;
#CDTITLE:maxx-cdtitle.png;
#MUSIC:Doppelganger.ogg;
#OFFSET:0.005000;
#SAMPLESTART:22.841000;
#SAMPLELENGTH:18.285999;
#SELECTABLE:YES;
#DISPLAYBPM:105.000000;
#BPMS:0.000000=105.050003
,39.000000=157.500000
,39.750000=52.500000
,40.000000=105.000000
,43.000000=157.500000
,43.750000=52.500000
,44.000000=105.000000
,63.000000=157.500000
,63.750000=52.500000
,64.000000=105.000000
,71.000000=157.500000
,71.750000=52.500000
,72.000000=105.000000
,75.000000=157.500000
,75.750000=52.500000
,76.000000=105.000000
;
#STOPS:
;
#BGCHANGES:;
#KEYSOUNDS:;
#ATTACKS:;

//---------------dance-single - Maxx (Gatr & Loodee rev)----------------
#NOTES:
     dance-single:
     Maxx (Gatr & Loodee rev):
     Challenge:
     10:
     0.549784,0.694465,0.361700,0.636593,0.575103,532.000000,480.000000,50.000000,88.000000,6.000000,3.000000,0.549784,0.694465,0.361700,0.636593,0.575103,532.000000,480.000000,50.000000,88.000000,6.000000,3.000000:
// measure 0
0000
0000
0000
0000
,  // measure 1
0000
0000
0000
0000
,  // measure 2
0000
0000
0000
0000
,  // measure 3
0000
0000
0000
0000
,  // measure 4
0002
0000
0003
2000
0000
0000
0000
3000
,  // measure 5
0001
0000
0000
0000
0000
0000
0000
0000
0000
0000
0000
0000
0000
0000
0000
0000
0000
0000
0000
0000
0000
0000
0000
0000
0100
0000
0000
0000
0000
0000
0000
0000
0000
0000
0000
0000
0000
0000
0000
0000
0000
0000
0001
0000
0000
0000
0000
0000
0000
0000
1000
0000
0000
0000
0000
0000
0000
0000
0000
0000
0000
0000
0000
0000
0000
0000
0000
0000
0000
0000
0000
0000
0200
0000
0000
0000
0000
0000
0000
0000
0000
0000
0000
0000
0000
0000
0000
0000
0000
0000
0000
0000
0000
0000
0000
0000
0000
0000
0000
0000
0000
0000
0000
0000
0000
0000
0000
0000
0000
0000
0000
0000
0000
0000
0000
0000
0000
0000
0000
0000
0000
0000
0000
0000
0000
0000
0310
0000
0000
0000
0000
0000
0000
0000
0000
0000
0000
0000
0000
0000
0000
0000
0000
0000
0000
0000
0000
0000
0000
0000
0001
0000
0000
0000
0000
0000
0000
0000
0000
0000
0000
0000
0000
0000
0000
0000
0000
0000
0000
0000
0000
0000
0000
0000
1000
0000
0000
0000
0000
0000
0000
0000
0000
0000
0000
0000
0000
0000
0000
0000
0000
0000
,  // measure 6
0200
0000
0000
0000
0000
0000
0000
0000
0000
0310
0000
0000
0000
0200
0000
0000
0000
0000
0000
0000
0000
0000
0000
0000
0000
1300
0000
0000
0000
0002
0000
0000
,  // measure 7
0000
0000
0000
0000
0000
0000
0000
0000
0000
0000
0000
0000
0000
0000
0000
0000
0000
0103
0000
0000
0000
0000
0000
0000
0000
0000
0020
0000
0000
0000
0000
0000
0000
0000
0000
0000
0000
0000
0000
0000
0000
0000
0000
0000
0000
0000
0000
0000
0000
0000
0000
0000
0000
0000
0000
0000
0030
0000
0000
0000
0000
0000
0000
0000
,  // measure 8
1002
0000
0000
0000
0000
0000
0000
0000
0000
0000
0000
0000
0000
0000
0000
0000
0000
0000
0000
0000
0000
0000
0000
0000
1003
0000
0000
0000
0000
0000
0000
0000
0000
0000
0000
0000
0000
0000
0000
0000
0000
0001
0000
0000
0000
0000
0000
0000
0200
0000
0000
0000
0000
0000
0000
0000
0000
0000
0000
0000
0000
0000
0000
0000
0000
0000
0000
0000
0000
0000
0000
0000
0310
0000
0000
0000
0000
0000
0000
0000
0000
0000
0000
0000
0000
0000
0000
0000
0000
1000
0000
0000
0000
0000
0000
0000
0002
0000
0000
0000
0000
0000
0000
0000
0000
0000
0000
0000
0000
0000
0000
0000
0000
0000
0000
0000
0000
0000
0000
0000
1003
0000
0000
0000
0000
0000
0000
0000
0000
0000
0000
0000
0000
0000
0000
0000
0000
0100
0000
0000
0000
0000
0000
0000
0020
0000
0000
0000
0000
0000
0000
0000
0000
0000
0000
0000
0000
0000
0000
0000
0000
0000
0000
0000
0000
0000
0000
0000
0031
0000
0000
0000
0000
0000
0000
0000
0000
0000
0000
0000
0000
0000
0000
0000
0000
1000
0000
0000
0000
0000
0000
0000
,  // measure 9
0010
0000
0000
0010
0000
1000
0001
0010
0001
1000
0100
0010
0001
1000
0010
0100
0001
1000
0200
0000
0000
03MM
0000
0000
,  // measure 10
4100
0000
3010
0104
0000
0013
0212
0000
,  // measure 11
1303
0000
0000
0000
0000
0000
0000
0000
0000
0000
0000
0000
0000
0000
0000
0000
0001
0000
0000
0000
0000
0000
0000
0000
0100
0000
0000
0000
0000
0000
0000
0000
0000
0000
0000
0000
0000
0000
0000
0000
0000
0000
0000
0000
0000
0000
0000
0000
0101
0000
0000
0000
0000
0000
0000
0000
0000
0000
0000
0000
0000
0000
0000
0000
0000
0000
0000
0000
0000
0000
0000
0000
4010
0000
0000
0000
0000
0000
0000
0000
0000
0000
0000
0000
0000
0000
0000
0000
0000
0000
0000
0000
0000
0000
0000
0000
0000
0000
0000
0000
0000
0000
0000
0000
0000
0000
0000
0000
0000
0000
0000
0000
0000
0000
0000
0000
0000
0000
0000
0000
0000
0000
0000
0000
0000
0000
0000
0000
0000
0000
0000
0000
3000
0000
0000
0000
0000
0000
0000
0000
0000
0000
0000
0000
1001
0000
0000
0000
0000
0000
0000
0000
0000
0000
0000
0000
0000
0000
0000
0000
0000
0000
0000
0000
0000
0000
1000
0000
0000
0000
0000
0000
0000
0000
0000
0000
0001
0000
0000
0000
0000
0000
0000
0000
0000
1000
0000
0000
0000
0000
0000
0000
,  // measure 12
0400
0000
0000
0000
0000
0000
0000
0000
0000
0000
0000
0000
0000
0000
0000
0000
0000
0000
0000
0000
0000
0000
0000
0000
0000
0000
0000
0000
0000
0000
0000
0000
0000
0000
0000
0000
0000
0000
0000
0000
0000
0000
0000
0000
0000
0000
0000
0000
0310
0000
0000
0000
0000
0000
0000
0000
0000
0000
0000
0000
0000
0000
0000
0000
0000
0000
0000
0000
0000
0000
0000
0000
4100
0000
0000
0000
0000
0000
0000
0000
0000
0000
0000
0000
0000
0000
0000
0000
0000
0000
0000
0000
0000
0000
0000
0000
0000
0000
0000
0000
0000
0000
0000
0000
0000
0000
0000
0000
3000
0000
0000
0000
0000
0001
0000
0000
0000
0000
0000
0000
0010
0000
0000
0000
0000
0000
0000
0000
0000
0000
0000
0000
0000
0000
0000
0000
0000
0000
001M
0000
0000
0000
0000
0000
2000
0000
0000
0000
0000
0000
0000
0000
0000
0000
0000
0000
0000
0000
0000
0000
0000
0000
0000
0000
0000
0000
0000
0000
3010
0000
0000
0000
0000
0000
0000
0000
0000
0000
0000
0000
0000
0000
0000
0000
0000
0000
0000
0000
0000
0000
0000
0000
,  // measure 13
0102
0000
0000
0000
0000
0000
0013
0000
0000
0000
001M
0000
1000
0000
0000
0000
0000
0000
0100
0000
0000
0000
0000
0000
0020
0000
0000
0000
0000
0000
0032
0000
0000
0000
0000
0000
0203
0000
0000
0000
0000
0000
0000
0000
0000
0300
0000
0000
,  // measure 14
4001
0000
0000
0000
0000
0000
3010
0000
0000
0101
0000
0001
0010
0000
0000
0100
0000
0000
1000
0000
0002
0000
0000
0000
,  // measure 15
1003
0000
0000
0000
0000
0000
0000
0000
0000
0000
0000
0000
0000
0000
0000
0000
0001
0000
0000
0000
0000
0000
0000
0000
0100
0000
0000
0000
0000
0000
0000
0000
0000
0000
0000
0000
0000
0000
0000
0000
0000
0000
010M
0000
0000
0000
0000
0000
1000
0000
0000
0000
0000
0000
0000
0000
0000
0000
0000
0000
0000
0000
0000
0000
0000
0000
0000
0000
0000
0000
0000
0000
4010
0000
0000
0000
0000
0000
0000
0000
0000
0000
0000
0000
0000
0000
0000
0000
0000
0000
0000
0000
0000
0000
0000
0000
0001
0000
0000
0000
0000
0000
0000
0000
0000
0000
0000
0000
0000
0000
0000
0000
0000
0000
0000
0000
0000
0000
0000
0000
3100
0000
0000
0000
0000
0000
0000
0000
0000
0000
0000
0000
0000
0000
0000
0000
0000
0000
0000
0000
0000
0000
0000
0000
0012
0000
0000
0000
0000
0000
0000
0000
0000
0000
0000
0000
0000
0000
0000
0000
0000
0000
0000
0000
0000
0000
0000
0000
0000
0000
0000
0000
0000
0000
0000
0000
0000
0000
0000
0000
0003
0000
0000
0000
0000
0000
0000
0000
0000
0000
0000
0000
,  // measure 16
4100
0000
0000
0000
0000
0000
3010
0000
0000
0104
0000
0000
0003
0000
1000
0200
0000
0000
0320
0000
0000
0032
0000
0000
,  // measure 17
2003
0000
0000
0000
0000
0000
3001
0100
0001
1000
0100
1000
0001
0100
0010
1000
0001
0010
0200
0000
0000
0300
0000
0000
,  // measure 18
4001
0000
0000
0000
0000
0000
0000
0000
0000
0000
0000
0000
0000
0000
0000
0000
0000
0000
0000
0000
0000
0000
0000
0000
0000
0000
0000
0000
0000
0000
0000
0000
0000
0000
0000
0000
0000
0000
0000
0000
0000
0000
0000
0000
0000
0000
0000
0000
3010
0000
0000
0000
0000
0000
0000
0000
0000
0000
0000
0000
0000
0000
0000
0000
0000
0000
0000
0000
0000
0000
0000
0000
0104
0000
0000
0000
0000
0000
0000
0000
0000
0000
0000
0000
0000
0000
0000
0000
0000
0000
0000
0000
0000
0000
0000
0000
0000
0000
0000
0000
0000
0000
0000
0000
0000
0000
0000
0000
0000
0000
0000
0003
1000
0000
0000
0000
0000
0000
0000
0000
0100
0000
0000
0000
0000
0000
0000
0000
0000
0000
0000
0000
0000
0000
0000
0000
0000
0000
0000
0000
0000
0000
0000
0000
2120
0000
0000
0000
0000
0000
0000
0000
0000
0000
0000
0000
0000
0000
0000
0000
0000
0000
0000
0000
0000
0000
0000
0000
0000
0000
0000
0000
0000
0000
0000
0000
0000
0000
0000
0000
3030
0000
0000
0000
0000
0000
0000
0000
0000
0000
0000
0000
,  // measure 19
2100
0000
0000
0000
0000
0000
0000
0000
0000
0000
0000
0000
0000
0000
0000
0000
0000
0000
0000
0000
0000
0000
0000
0000
3000
0000
0000
0000
0000
0000
0000
0000
0000
0000
0000
0000
0000
0000
0000
0000
0000
0000
0001
0000
0000
0000
0000
0000
0100
0000
0000
0000
0000
0000
0000
0000
0000
0000
0000
0000
0000
0000
0000
0000
0000
0000
0000
0000
0000
0000
0000
0000
2010
0000
0000
0000
0000
0000
0000
0000
0000
0000
0000
0000
0000
0000
0000
0000
0000
0000
0000
0000
0000
0000
0000
0000
3001
0000
0000
0000
0000
0000
0000
0000
0000
0000
0000
0000
0000
0000
0000
0000
0000
0000
0000
0010
0000
0000
0000
0000
0000
0000
0000
0000
0000
0000
0000
0000
0000
0000
0000
0000
0000
0000
0000
0000
0000
0000
0000
0010
0000
0000
0000
0000
0100
0000
0000
0000
0000
0000
0000
0000
1000
0000
0000
0000
0000
0000
0000
0000
0001
0000
0000
0000
0000
0000
0000
0000
1000
0000
0000
0000
0000
0000
0000
0000
0010
0000
0000
0000
0000
0000
0000
0000
0100
0000
0000
0000
0000
0000
0000
0000
,  // measure 20
0004
0000
0000
0000
0000
0000
0000
0000
0000
0000
0000
0000
0000
0000
0000
0000
0000
0000
0000
0000
0000
0000
0000
0000
0000
0000
0000
0000
0000
0000
0000
0000
0000
0000
0000
0000
0000
0000
0000
0000
0000
0000
0000
0000
0000
0000
0000
0000
0013
0000
0000
0000
0000
0000
0000
0000
0000
0000
0000
0000
0000
0000
0000
0000
0000
0000
0000
0000
0000
0000
0000
0000
4100
0000
0000
0000
0000
0000
0000
0000
0000
0000
0000
0000
0000
0000
0000
0000
0000
0000
0000
0000
0000
0000
0000
0000
0000
0000
0000
0000
0000
0000
0000
0000
0000
0000
0000
0000
0000
0000
0000
3000
0001
0000
0000
0000
0000
0000
0000
0000
0100
0000
0000
0000
0000
0000
0000
0000
0000
0000
0000
0000
0000
0000
0000
0000
0000
0000
0000
0000
0000
0000
0000
0000
0002
0000
0000
0000
0000
0000
0000
0000
0000
0000
0000
0000
0000
0000
0000
0000
0000
0000
0000
0000
0000
0000
0000
0000
0023
0000
0000
0000
0000
0000
0000
0000
0000
0000
0000
0000
0000
0000
0000
0000
0000
0000
0000
0000
0000
0000
0000
0000
,  // measure 21
0230
0000
0000
0000
0300
0000
0000
1000
0001
0000
0000
0000
0202
0000
0000
0000
0000
0000
0303
0000
0100
0000
0000
0000
2020
0000
0000
0000
0000
0000
3030
0000
,  // measure 22
0104
0000
0000
0000
0000
0000
0013
0000
0000
4100
0000
0000
3000
0000
0000
0001
0000
0000
1000
0000
0001
0100
0000
0010
,  // measure 23
2000
0000
0000
0000
3100
0000
0012
0000
0403
0300
1000
0000
0040
0030
0004
0003
,  // measure 24
2100
0000
0000
0000
0000
0000
0000
0000
0000
0000
0000
0000
0000
0000
0000
0000
0000
0000
0000
0000
0000
0000
0000
0000
0000
0000
0000
0000
0000
0000
0000
0000
0000
0000
0000
0000
0000
0000
0000
0000
0000
0000
0000
0000
0000
0000
0000
0000
3000
0000
0000
0000
0000
0000
0000
0000
0000
0000
0000
0000
0000
0000
0000
0000
0000
0000
0000
0000
0000
0000
0000
0000
0002
0000
0000
0000
0000
0000
0000
0000
0000
0000
0000
0000
0000
0000
0000
0000
0000
0000
0000
0000
0000
0000
0000
0000
0003
0000
0000
0000
0000
0000
0000
0000
0000
0000
0000
0000
0000
0000
0000
0000
0000
0000
0000
0001
0000
0000
0000
0000
0000
0000
0000
0000
1000
0000
0000
0000
0000
0000
0000
0000
0000
0000
0000
0000
0000
0000
0000
0000
0000
0000
0000
0000
1000
0000
0000
0000
0000
0000
0000
0000
0000
0000
0000
0000
0000
0000
0000
0000
0000
0000
0000
0000
0000
0000
0000
0000
0010
0000
0000
0000
0000
0000
0000
0000
0000
0000
0000
0000
0000
0000
0000
0000
0000
0000
0000
0000
0000
0000
0000
0000
,  // measure 25
0100
0100
0001
0001
1000
0100
0010
0001
,  // measure 26
2002
0000
0000
3003
0001
0000
1000
0000
0020
0000
0000
0030
2020
0000
0000
3030
,  // measure 27
0020
0000
0000
0000
0000
0000
0000
0000
0000
0000
0000
0000
0000
0000
0000
0000
0000
0000
0000
0000
0000
0000
0000
0000
0000
0000
0000
0000
0000
0000
0000
0000
0000
0000
0000
0000
0000
0000
0000
0000
0000
0000
0130
0000
0000
0000
0000
0000
0001
0000
0000
0000
0000
0000
0000
0000
0000
0000
0000
0000
0000
0000
0000
0000
0000
0000
0000
0000
0000
0000
0000
0000
2000
0000
0000
0000
0000
0000
0000
0000
0000
0000
0000
0000
0000
0000
0000
0000
0000
0000
0000
0000
0000
0000
0000
0000
0001
0000
0000
0000
0000
0000
0000
0000
0000
0000
0000
0000
0000
0000
0000
0000
0000
0000
0000
0000
0000
0000
0000
0000
0000
0000
0000
0000
0000
0000
0000
0000
0000
0000
0000
0000
0000
0000
0000
0000
0000
0000
0000
0000
0000
0000
0000
0000
0100
0000
0000
0000
0000
0000
0000
0000
0000
0000
0000
0000
0000
0000
0000
0000
0000
0000
0000
0000
0000
0000
0000
0000
3001
0000
0000
0000
0000
0000
0000
0000
1000
0000
0000
0000
0000
0000
0000
0000
0100
0000
0000
0000
0000
0000
0000
0000
,  // measure 28
0020
0130
1000
0020
0000
0031
0010
0100
,  // measure 29
0220
0000
0000
0000
0330
0000
0000
0002
1000
0000
0000
0000
2003
0000
0000
0000
0000
0000
0000
0000
3100
0000
0000
0000
0010
0000
0000
0000
0001
0000
0000
0000
,  // measure 30
2002
0000
0000
3003
1000
0000
0010
0000
0200
0000
0000
0300
0202
0000
0000
0303
,  // measure 31
0001
0000
0000
0000
1000
0000
0000
0001
0010
0000
0000
0000
2000
0000
0000
0000
0010
0000
0000
0000
3001
0000
0000
0000
0100
0000
0000
0000
1000
0000
0000
0000
,  // measure 32
1100
0100
1000
0010
0100
0001
0010
0100
,  // measure 33
1000
0000
0000
0010
0000
0000
0001
0000
0000
0020
0000
0000
0000
0000
0000
0130
0001
1000
0100
0010
0001
1000
0010
0100
,  // measure 34
0002
0000
0000
0000
0000
0000
0000
0000
0000
0003
0000
0000
0101
0000
0000
0000
0000
0000
0100
0000
0000
0000
0000
0000
0010
0000
0000
0000
1000
0000
0001
0000
0000
0000
0000
0000
1001
0000
0000
0000
1000
0000
0100
0000
0000
0000
0000
0000
,  // measure 35
0010
0000
0000
0001
0000
0000
1000
0001
0100
0001
1000
0100
0020
0000
0000
0130
1000
0001
0200
0000
0000
0310
0000
0000
,  // measure 36
1040
0000
0000
0000
0000
0000
0000
0000
0000
0030
0000
0000
2000
0000
0000
0000
0000
0000
3002
0000
0000
0000
0000
0000
0023
0000
0000
0000
0000
0000
0030
0000
0000
0000
0000
0000
0001
0000
1000
0000
0010
0000
0100
0000
0001
0000
1000
0000
,  // measure 37
0200
0000
0000
0000
0320
0000
0001
0000
1030
0010
0001
1000
0001
0100
0010
1000
,  // measure 38
0200
0000
0310
0001
2000
0000
3001
0100
,  // measure 39
1000
0000
0000
0100
0000
0000
0001
0000
0000
0010
0000
0000
0200
0000
0000
0000
0000
0000
1300
0001
0100
0001
1000
0100
,  // measure 40
0020
0000
0000
0000
0000
0000
0031
1000
0100
0010
0001
1000
0010
0100
0001
0010
0001
0100
0010
1000
0001
0010
0100
1000
,  // measure 41
0002
0000
0103
0010
1000
0000
0100
1000
,  // measure 42
0001
0001
1100
0010
1000
1000
0101
0010
,  // measure 43
0001
0001
1100
0010
1000
1000
0101
0010
,  // measure 44
0001
0001
1010
0100
1000
1000
0011
0100
,  // measure 45
0001
0001
1010
0100
1000
1000
0011
0100
,  // measure 46
0002
0000
0000
0003
0001
0000
1000
0000
0100
0000
0010
0000
0001
0000
0100
0000
,  // measure 47
0000
0000
0000
0001
0000
0000
1000
0000
0000
0000
1000
0001
0020
0000
0000
0230
0000
0000
0300
0000
0000
1000
0000
0000
,  // measure 48
1020
0000
0100
0001
0100
0001
0100
1030
,  // measure 49
2002
0000
0000
0000
0000
0000
0000
0000
0000
0000
0000
0000
0000
0000
0000
0000
0000
0000
0000
0000
0000
0000
0000
0000
3003
0000
0000
0000
0000
0000
0000
0000
0000
0000
0000
0000
0000
0000
0000
0000
0000
0000
2200
0000
0000
0000
0000
0000
0000
0000
0000
0000
0000
0000
0000
0000
0000
0000
0000
0000
0000
0000
0000
0000
3300
0000
0000
0000
0000
0000
0000
0000
0000
0000
0000
0000
0220
0000
0000
0000
0000
0000
0000
0000
0000
0000
0000
0000
0000
0000
0000
0000
0000
0000
0000
0000
0000
0000
0000
0000
0000
0000
0000
0000
0000
0000
0000
0000
0000
0000
0000
0000
0000
0000
0000
0000
0000
0000
0000
0000
0000
0000
0000
0000
0000
0000
0000
0000
0000
0000
0000
0000
0330
0000
0000
0000
0000
0000
0000
0000
0000
0000
0000
0000
0022
0000
0000
0000
0000
0000
0000
0000
0000
0000
0000
0000
0000
0000
0000
0000
0000
0000
0000
0000
0000
0000
0000
0000
0000
0000
0000
0000
0000
0000
0000
0000
0000
0000
0000
0000
0033
0000
0000
0000
0000
0000
0000
0000
0000
0000
0000
0000
,  // measure 50
1000
0000
0100
0010
0000
0001
1000
0000
0001
0100
0000
0010
1000
0000
0100
0000
0000
1000
0010
0000
0100
0001
0000
0010
,  // measure 51
0001
0000
0100
0010
0000
1000
0100
0000
1000
0010
0000
0100
0001
0000
1000
0100
0000
1000
0010
0000
0100
0001
0000
1000
,  // measure 52
0100
0000
0000
0000
1000
0000
0001
0000
0000
0000
0000
0100
0000
0000
0000
0000
0000
0010
0000
0000
0000
0000
1000
0000
0000
0000
0000
0000
0001
0000
0010
0000
0000
0000
0100
0000
1000
0000
0000
0000
0001
0000
0100
0000
0000
0000
0010
0000
,  // measure 53
1000
0000
0000
0000
0000
0000
0000
0000
0000
0000
0000
0000
0000
0000
0000
0000
0001
0000
0000
0000
0000
0000
0000
0000
0010
0000
0000
0000
0000
0000
0000
0000
0000
0000
0000
0000
0000
0000
0000
0000
0100
0000
0000
0000
0000
0000
0000
0000
1000
0000
0000
0000
0000
0000
0000
0000
0000
0000
0000
0000
0000
0000
0000
0000
0001
0000
0000
0000
0000
0000
0000
0000
0100
0000
0000
0000
0000
0000
0000
0000
0000
0000
0000
0000
0000
0000
0000
0000
0010
0000
0000
0000
0000
0000
0000
0000
0100
0000
0000
0000
0000
0000
0000
0000
0000
0000
0000
0000
0000
0000
0000
0000
0010
0000
0000
0000
0000
0000
0000
0000
0100
0000
0000
0000
0000
0000
0000
0000
0000
0000
0000
0000
0000
0000
0000
0000
0010
0000
0000
0000
0000
0000
0000
0000
0100
0000
0000
0000
0000
0000
0000
0000
0000
0000
0000
0000
0000
0000
0000
0000
0010
0000
0000
0000
0000
0000
0000
0000
0000
0000
0000
0100
0000
0000
0000
0000
0000
0000
0000
0000
0000
0000
0000
0000
0001
0000
0000
0000
0000
0000
0000
0000
,  // measure 54
0010
0000
0100
0000
1000
0000
0001
0000
0000
0000
0100
0000
0000
0000
0000
0000
0000
0000
0010
0000
0000
0000
0000
0000
0010
0000
0000
0000
0000
0000
0000
0010
0000
0000
0100
0000
0000
0000
0000
0000
0000
0000
0000
0000
0000
0000
0000
0000
,  // measure 55
0001
0000
1000
0100
0000
0010
0001
0000
1000
0010
0000
0100
0001
0000
0000
0100
0000
0010
0000
0000
1000
0100
0000
0010
,  // measure 56
0001
0000
0000
0000
1000
0000
0010
0000
0100
0000
0001
0000
0010
0000
0000
0100
0000
0000
1000
0000
0000
0000
0001
0000
0100
0000
0000
0000
0000
0000
0001
0000
0000
0000
1000
0000
0000
0000
0000
0000
0100
0000
0000
0000
0000
0000
0000
0000
,  // measure 57
0010
0000
0001
0000
0000
0100
0000
0000
0000
2020
0000
0000
0000
0000
0000
0000
0000
0000
0000
0000
0000
0000
0000
0000
,  // measure 58
0000
0000
0000
3030
0000
0000
0000
0000
,  // measure 59
0000
0000
0000
0000
,  // measure 60
00M0
0000
0000
0000
;

//---------------dance-single - Loodee----------------
#NOTES:
     dance-single:
     Loodee:
     Hard:
     9:
     0.469177,0.694465,0.311062,0.651061,0.372551,454.000000,411.000000,43.000000,90.000000,5.000000,0.000000,0.469177,0.694465,0.311062,0.651061,0.372551,454.000000,411.000000,43.000000,90.000000,5.000000,0.000000:
0000
0000
0000
0000
,
0000
0000
0000
0000
,
0000
0000
0000
0000
,
0000
0000
0000
0000
,
0002
0000
0003
2000
0000
0000
0000
3000
,
0010
0000
0000
0000
0100
0000
0000
0000
0100
0000
0000
0000
0000
0002
0000
0000
0000
0000
0000
0000
0000
0013
0000
0000
0000
0100
0000
0000
0000
1000
0000
0000
,
0200
0000
0000
0000
0000
0000
0000
0000
0000
0310
0000
0000
0000
0200
0000
0000
0000
0000
0000
0000
0000
0000
0000
0000
0000
0310
0000
0000
0000
0002
0000
0000
,
0000
0000
0000
0000
0000
0000
0000
0000
0000
0000
0000
0000
0000
0000
0000
0000
0000
1003
0000
0000
0000
0000
0000
0000
0000
0000
0020
0000
0000
0000
0000
0000
0000
0000
0000
0000
0000
0000
0000
0000
0000
0000
0000
0000
0000
0000
0000
0000
0000
0000
0000
0000
0000
0000
0000
0000
0030
0000
0000
0000
0000
0000
0000
0000
,
0200
0301
2000
3001
0020
0130
2000
3100
,
0010
0010
0010
0010
0010
0010
1001
0000
,
1020
0000
0130
1002
0000
0013
1200
0000
,
0310
0000
0000
0000
0001
0000
0010
0000
0000
0000
0000
0000
0110
0000
0000
0000
0000
0000
2100
0000
0000
0000
0000
0000
0000
0000
0000
0000
0000
0000
0000
0000
0000
3000
0000
0000
1001
0000
0000
0000
0000
0000
0000
0000
0000
0000
0000
0000
,
1020
0000
0000
0000
0000
0000
0000
0000
0000
0000
0000
0000
0000
0000
0000
0000
0000
0000
0000
0000
0000
0000
0000
0000
0000
0000
0000
0000
0000
0000
0000
0000
0000
0000
0000
0000
0000
0000
0000
0000
0000
0000
0000
0000
0000
0000
0000
0000
0130
0000
0000
0000
0000
0000
0000
0000
0000
0000
0000
0000
0000
0000
0000
0000
0000
0000
0000
0000
0000
0000
0000
0000
0102
0000
0000
0000
0000
0000
0000
0000
0000
0000
0000
0000
0000
0000
0000
0000
0000
0000
0000
0000
0000
0000
0000
0000
0000
0000
0000
0000
0000
0000
0000
0000
0000
0000
0000
0000
0003
0000
0000
0000
0000
1000
0000
0000
0000
0000
0000
0000
0001
0000
0000
0000
0000
0000
0000
0000
0000
0000
0000
0000
0000
0000
0000
0000
0000
0000
1000
0000
0000
0000
0000
0000
0200
0000
0000
0000
0000
0000
0000
0000
0000
0000
0000
0000
0000
0000
0000
0000
0000
0000
0000
0000
0000
0000
0000
0000
0310
0000
0000
0000
0000
0000
0000
0000
0000
0000
0000
0000
0000
0000
0000
0000
0000
0000
0000
0000
0000
0000
0000
0000
,
0002
0000
1003
0000
1010
0000
0020
0000
0000
0000
2030
0000
3200
0000
0000
0300
,
0120
0000
0000
0000
0000
0000
0031
0000
0000
0M0M
0000
0000
M0M0
0000
0000
0002
0000
0000
1003
0000
0020
0000
0000
0000
,
0130
0000
0000
0000
0000
0000
0000
0001
1000
0000
0000
0000
0200
0000
0000
0000
0000
0000
0000
0000
0310
0000
0000
0000
0012
0000
0000
0000
0000
0000
0003
0000
,
2001
0000
0000
0000
0000
0000
3010
0000
0000
0110
0000
0000
0000
0000
0100
0002
0000
0000
2003
0000
0000
3100
0000
0000
,
0020
0000
0000
0000
0000
0000
0031
0000
0000
0100
0000
0000
0001
1000
0001
1000
0001
0010
0100
0000
0000
0000
0000
0000
,
2100
0000
0000
0000
0000
0000
0000
0000
0000
0000
0000
0000
3001
0000
0000
0000
0000
0000
0021
0000
0000
0000
0000
0000
0000
0000
0000
0030
0100
0000
1000
0000
0000
0000
0000
0000
2002
0000
0000
0000
0000
0000
0000
0000
0000
3003
0000
0000
,
1010
0000
0000
0000
0000
0000
0000
0000
0000
0000
0000
0000
0000
0000
0000
0000
0000
0000
0000
0000
0000
0000
0000
0000
0000
0000
0000
0000
0000
0000
0000
0000
0000
0000
0000
0000
0000
0000
0000
0000
0000
0000
0010
0000
0000
0000
0000
0000
1000
0000
0000
0000
0000
0000
0000
0000
0000
0000
0000
0000
0000
0000
0000
0000
0000
0000
0000
0000
0000
0000
0000
0000
0002
0000
0000
0000
0000
0000
0000
0000
0000
0000
0000
0000
0000
0000
0000
0000
0000
0000
0000
0000
0000
0000
0000
0000
0013
0000
0000
0000
0000
0000
0000
0000
0000
0000
0000
0000
0000
0000
0000
0000
0000
0000
0000
0100
0000
0000
0000
0000
0000
0000
0000
0000
0000
0000
0000
0000
0000
0000
0000
0000
0000
0000
0000
0000
0000
0000
0000
0100
0000
0000
0000
0000
0010
0000
0000
0000
0000
0000
0000
0000
0000
0000
0000
0000
0000
0000
0000
0000
0000
0000
0000
0000
0000
0000
0000
0000
0001
0000
0000
0000
0000
0000
0000
0000
1000
0000
0000
0000
0000
0000
0000
0000
0001
0000
0000
0000
0000
0000
0000
0000
,
2000
0000
0000
0000
0000
0000
3100
0000
0000
0110
0000
0000
0000
0000
0010
0001
0000
0000
2000
0000
0000
3020
0000
0000
,
2030
0000
0000
0000
3000
0000
0000
0001
0010
0000
0000
0000
0210
0000
0000
0000
0000
0000
0000
0000
2300
0000
0000
0000
3020
0000
0000
0000
0000
0000
0000
0000
,
0230
0000
0000
0000
0000
0000
0301
0000
0000
1001
0000
0000
0000
0000
0000
1000
0000
0000
0001
0000
0010
0100
0000
0000
,
2000
0000
0000
0000
3010
0000
0200
0000
0302
0000
0013
0000
2100
0000
0000
3000
,
1002
0000
0000
0000
0000
0000
0000
0000
0000
0000
0000
0000
0000
0000
0000
0000
0000
0000
0000
0000
0000
0000
0000
0000
0000
0000
0000
0000
0000
0000
0000
0000
0000
0000
0000
0000
0000
0000
0000
0000
0000
0000
0000
0000
0000
0000
0000
0000
0003
0000
0000
0000
0000
0000
0000
0000
0000
0000
0000
0000
0000
0000
0000
0000
0000
0000
0000
0000
0000
0000
0000
0000
0200
0000
0000
0000
0000
0000
0000
0000
0000
0000
0000
0000
0000
0000
0000
0000
0000
0000
0000
0000
0000
0000
0000
0000
0300
0000
0000
0000
0000
0000
0000
0000
0000
0000
0000
0000
0000
0000
0000
0000
0000
0000
0000
0001
0000
0000
0000
0000
0000
0000
0000
0000
1000
0000
0000
0000
0000
0000
0000
0000
0000
0000
0000
0000
0000
0000
0000
0000
0000
0000
0000
0000
1000
0000
0000
0000
0000
0000
0000
0000
0000
0000
0000
0000
0000
0000
0000
0000
0000
0000
0000
0000
0000
0000
0000
0000
0001
0000
0000
0000
0000
0000
0000
0000
0000
0000
0000
0000
0000
0000
0000
0000
0000
0000
0000
0000
0000
0000
0000
0000
,
0010
0010
0100
0100
0010
0010
1001
0000
,
2010
0000
0000
3000
0001
0000
0010
0000
0200
0000
0000
0000
0010
0000
0000
0300
,
2000
0000
0000
0000
0000
0000
3000
0001
1000
0000
0000
0000
0020
0000
0000
0000
0100
0000
0000
0000
0000
0000
0000
0000
0130
0000
0000
0000
0001
0000
0000
0000
,
0020
0000
0130
2000
0000
3001
0100
0001
,
2002
0000
0000
0000
3003
0000
0000
1000
0001
0000
0000
0000
0000
0000
0000
0000
1000
0000
0000
0000
0010
0000
0000
0000
0100
0000
0000
0000
0001
0000
0000
0000
,
0021
0000
0000
0000
0130
0000
2000
0000
0100
0000
0000
3000
0002
0000
0000
0003
,
0100
0010
0110
0200
0000
0300
0001
1000
,
0200
0310
2000
3020
0130
0010
0002
0103
,
1000
0000
0000
0010
0000
0000
0001
0000
0000
0020
0000
0000
0000
0000
0000
0130
0000
0000
0001
0000
0000
1000
0100
0010
,
0200
0000
0000
0300
0000
0000
1100
0000
0000
1000
0000
0000
0001
0000
0000
0001
0000
0000
0001
0000
1000
0010
0000
0000
,
0100
0000
0001
0000
0010
0100
1000
0000
0020
0000
0000
0000
0230
0000
0301
0000
,
2000
0000
0000
0000
0000
0000
3001
0000
0000
0010
0000
0000
0002
0000
0000
0003
0000
0000
1000
0100
0010
0100
1000
0001
,
2000
0000
0000
0000
3020
0000
0000
0000
0130
0010
0100
0001
1000
0100
0010
0001
,
0020
0000
0130
0010
0002
0000
1003
0010
,
0001
0010
0100
0020
1000
0000
1030
0001
,
0020
0000
0000
0000
0000
0000
0130
0000
0000
0010
0000
0000
0001
0010
0100
1000
0100
0010
0001
0000
0000
0100
0000
0000
,
0020
0000
0130
0001
1001
0000
1000
0100
,
0020
0030
0011
0001
1000
0001
0101
0100
,
0010
1000
1010
0010
0100
0001
1001
0000
,
1000
0100
0110
0010
0001
0010
0011
0001
,
1000
0010
0110
0100
0001
1000
1001
0001
,
0020
0000
0031
0100
0010
0100
1000
0100
,
0001
0000
0000
0010
0000
0000
0100
0000
0000
0000
0010
0001
0020
0000
0000
0230
0000
0000
0300
0000
0000
1000
0000
0000
,
0020
0000
0100
0100
1000
1000
0130
0001
,
0101
0000
0000
0000
0000
0000
0000
0000
0000
0000
0000
0000
0000
0000
0000
0000
0000
0000
0000
0000
0000
0000
0000
0000
0000
0000
0000
0000
0000
0000
0000
0000
0000
0000
0000
0000
0000
0000
0000
0000
0000
0000
0110
0000
0000
0000
0000
0000
0000
0000
0000
0000
0000
0000
0000
0000
0000
0000
0000
0000
0000
0000
0000
0000
0000
0000
0000
0000
0000
0000
0000
0000
0000
0000
0000
0000
2020
0000
0000
0000
0000
0000
0000
0000
0000
0000
0000
0000
0000
0000
0000
0000
0000
0000
0000
0000
0000
0000
0000
0000
0000
0000
0000
0000
0000
0000
0000
0000
0000
0000
0000
0000
0000
0000
0000
0000
0000
0000
0000
0000
0000
0000
0000
0000
0000
0000
0000
0000
0000
0000
0000
0000
3030
0000
0000
0000
0000
0000
0000
0000
0000
0000
0000
0000
2002
0000
0000
0000
0000
0000
0000
0000
0000
0000
0000
0000
0000
0000
0000
0000
0000
0000
0000
0000
0000
0000
0000
0000
0000
0000
0000
0000
0000
0000
0000
0000
0000
0000
0000
0000
3003
0000
0000
0000
0000
0000
0000
0000
0000
0000
0000
0000
,
0001
0000
0010
0100
0000
1000
0100
0000
0010
0001
0000
0010
0100
0000
1000
0000
0000
0010
0100
0000
0001
0100
0000
0010
,
1000
0000
0010
0100
0000
0001
0100
0000
0010
1000
0000
0010
0100
0000
0001
1000
0000
0100
0010
0000
0100
1000
0000
0001
,
0100
0000
0000
0000
0010
0000
1000
0000
0000
0000
0000
0100
0000
0000
0000
0000
0000
0010
0000
0000
0000
0000
0001
0000
0000
0000
0000
0000
1000
0000
0100
0000
0000
0000
0010
0000
0001
0000
0000
0000
1000
0000
0100
0000
0000
0000
0010
0000
,
0001
0000
0000
0000
0000
0000
0000
0000
0000
0000
0000
0000
0000
0000
0000
0000
0100
0000
0000
0000
0000
0000
0000
0000
0001
0000
0000
0000
0000
0000
0000
0000
0000
0000
0000
0000
0000
0000
0000
0000
1000
0000
0000
0000
0000
0000
0000
0000
0001
0000
0000
0000
0000
0000
0000
0000
0000
0000
0000
0000
0000
0000
0000
0000
0100
0000
0000
0000
0000
0000
0000
0000
0010
0000
0000
0000
0000
0000
0000
0000
0000
0000
0000
0000
0000
0000
0000
0000
1000
0000
0000
0000
0000
0000
0000
0000
0010
0000
0000
0000
0000
0000
0000
0000
0000
0000
0000
0000
0000
0000
0000
0000
1000
0000
0000
0000
0000
0000
0000
0000
0010
0000
0000
0000
0000
0000
0000
0000
0000
0000
0000
0000
0000
0000
0000
0000
1000
0000
0000
0000
0000
0000
0000
0000
0010
0000
0000
0000
0000
0000
0000
0000
0000
0000
0000
0000
0000
0000
0000
0000
1000
0000
0000
0000
0000
0000
0000
0000
0000
0000
0000
0001
0000
0000
0000
0000
0000
0000
0000
0000
0000
0000
0000
0000
1000
0000
0000
0000
0000
0000
0000
0000
,
0100
0000
0000
0000
0010
0000
0001
0000
0000
0000
0100
0000
0000
0000
0000
0000
0000
0000
0010
0000
0000
0000
0000
0000
0010
0000
0000
0000
0000
0000
0000
1000
0000
0000
0010
0000
0000
0000
0000
0000
0000
0000
0000
0000
0000
0000
0000
0000
,
1000
0000
0001
0100
0000
0001
1000
0000
0001
0100
0000
0001
1000
0000
0000
0001
0000
1000
0000
0000
0100
0010
0000
0100
,
1000
0000
0000
0001
0100
0010
0100
0000
0000
0001
0000
0000
1000
0000
0000
0100
0000
1000
0000
0000
0100
0000
0000
0000
,
1000
0000
0100
0000
0000
1000
0000
0000
0000
2002
0000
0000
0000
0000
0000
0000
0000
0000
0000
0000
0000
0000
0000
0000
,
0000
0000
0000
3003
0000
0000
0000
0000
,
0000
0000
0000
0000
,
00M0
0000
0000
0000
;

//---------------dance-single - Loodee----------------
#NOTES:
     dance-single:
     Loodee:
     Medium:
     6:
     0.350333,0.368934,0.296594,0.528082,0.057872,339.000000,298.000000,41.000000,73.000000,1.000000,0.000000,0.350333,0.368934,0.296594,0.528082,0.057872,339.000000,298.000000,41.000000,73.000000,1.000000,0.000000:
0000
0000
0000
0000
,
0000
0000
0000
0000
,
0000
0000
0000
0000
,
0000
0000
0000
0000
,
0002
0000
0003
2000
0000
0000
0000
3000
,
0010
0000
0000
0000
0100
0000
0000
0000
0100
0000
0000
0000
0000
0002
0000
0000
0000
0000
0000
0000
0000
1003
0000
0000
0000
0100
0000
0000
0000
0000
0000
0000
,
0020
0000
0000
0000
0000
0000
0000
0000
0000
0031
0000
0000
0000
0020
0000
0000
0000
0000
0000
0000
0000
0000
0000
0000
0000
0031
0000
0000
0000
2000
0000
0000
,
0000
0000
0000
0000
0000
0000
0000
0000
0000
0000
0000
0000
0000
0000
0000
0000
0000
3010
0000
0000
0000
0000
0000
0000
0000
0000
0200
0000
0000
0000
0000
0000
0000
0000
0000
0000
0000
0000
0000
0000
0000
0000
0000
0000
0000
0000
0000
0000
0000
0000
0000
0000
0000
0000
0000
0000
0300
0000
0000
0000
0000
0000
0000
0000
,
0010
1000
0010
1000
0001
0100
0001
0100
,
0004
0000
0000
0000
0000
0003
1001
0000
,
1200
0000
0300
1002
0000
0003
1020
0000
,
0130
0000
0001
0000
0010
0000
0200
0000
0000
0000
0000
0300
1100
0000
0000
0000
,
1002
0000
0003
0021
0000
0130
2000
3010
,
0100
0000
0110
0020
0000
1030
0002
0000
,
0023
0000
0130
0010
0000
0002
1003
0000
,
1010
0000
0110
0200
0000
0310
1000
0000
,
2001
0000
3000
1100
0000
0200
0320
0031
,
0100
0000
0040
4030
3400
4300
3010
0000
,
0102
0000
0000
0000
0003
0000
2010
0000
0000
0000
3001
0000
2002
0000
0000
3003
,
1001
0000
0000
0000
0000
0000
0000
0000
0000
0000
0000
0000
0000
0000
0000
0000
0000
0000
0000
0000
0000
0000
0000
0000
0000
0000
0000
0000
0000
0000
0000
0000
0000
0000
0000
0000
0000
0000
0000
0000
0000
0000
0000
0000
0000
0000
0000
0000
0001
0000
0000
0000
0000
0000
0000
0000
0000
0000
0000
0000
0000
0000
0000
0000
0000
0000
0000
0000
0000
0000
0000
0000
0010
0000
0000
0000
0000
0000
0000
0000
0000
0000
0000
0000
0000
0000
0000
0000
0000
0000
0000
0000
0000
0000
0000
0000
0001
0000
0000
0000
0000
0000
0000
0000
0000
0000
0000
0000
0000
0000
0000
0000
0000
0000
0000
1000
0000
0000
0000
0000
0000
0000
0000
0000
0000
0000
0000
0000
0000
0000
0000
0000
0000
0000
0000
0000
0000
0000
0000
1000
0000
0000
0000
0000
0000
0000
0000
0000
0000
0000
0000
0000
0000
0000
0000
0000
0000
0000
0000
0000
0000
0000
0000
0000
0000
0000
0000
0000
0000
0000
0000
0000
0000
0000
0000
0000
0000
0000
0000
0000
0000
0000
0000
0000
0000
0000
0000
0000
0000
0000
0000
0000
,
1020
0000
0030
0210
0000
0301
1000
0001
,
0020
0000
0030
0000
0000
0000
1100
0000
0000
2000
0000
0000
0000
0000
0000
3001
0000
0000
0200
0000
0000
0000
0000
0000
,
0320
0000
1030
1000
0000
0001
1001
0001
,
0020
0000
0000
0000
0130
0000
0020
0000
0031
0000
1000
0000
0020
0000
0000
0030
,
0210
0000
0000
0000
0000
0000
0000
0000
0000
0000
0000
0000
0300
0000
0000
0000
0000
0000
0002
0000
0000
0000
0000
0000
0003
0000
0000
0000
0000
0000
0000
1000
0000
0000
0000
0000
1000
0000
0000
0000
0000
0000
0001
0000
0000
0000
0000
0000
,
0010
0010
0100
0100
1000
1000
1000
0000
,
0020
0030
0100
0001
2000
0000
3100
0000
,
2000
0000
0000
0000
0000
0000
0000
3010
0000
0000
0000
0000
0200
0000
0000
0000
0000
0000
0000
0000
0000
0000
0000
0000
0301
0000
0000
0000
0010
0000
0000
0000
,
0200
0000
0310
0200
0000
0310
0001
1000
,
2020
3030
1010
0000
1000
0010
0100
0001
,
0020
0000
0000
0000
0130
0000
0020
0000
0000
0000
0000
0000
0032
0000
0000
0003
,
0100
0010
1000
0200
0000
0310
0100
1000
,
0010
0100
0020
1030
0010
0100
0002
1003
,
0100
0010
0001
0020
0000
0031
1000
0010
,
0200
0300
0110
0000
0010
0010
0010
1000
,
0100
0010
0100
1000
0020
0000
0230
0301
,
0020
0000
0130
0010
0100
0000
1100
0000
,
2000
0000
3002
0000
0103
0000
1010
0010
,
0200
0000
0301
0010
0002
0000
1003
0010
,
0100
0001
0100
0010
2000
0000
3100
0010
,
0002
0000
0013
0001
0100
0010
0001
0010
,
0200
0000
0301
1000
1001
0000
0000
0000
,
0001
0000
0011
0000
1000
0010
0100
0010
,
1000
0000
1010
0000
0010
1000
0100
0010
,
0001
0000
1001
0000
1000
0001
1000
0010
,
0100
0000
0110
0000
0010
1000
0010
1000
,
0002
0000
0013
0100
1000
0100
0020
0031
,
0100
0010
0100
0001
0020
0032
0103
0010
,
2000
0000
0100
0100
0000
0000
3100
0010
,
0001
0000
0000
0000
0000
0000
0000
0000
0000
0000
0000
0000
0000
0000
0000
0000
0000
0000
0000
0000
0000
0000
0000
0000
0000
0000
0000
0000
0000
0000
0000
0000
0000
0000
0000
0000
0000
0000
0000
0000
0000
0000
0001
0000
0000
0000
0000
0000
0000
0000
0000
0000
0000
0000
0000
0000
0000
0000
0000
0000
0000
0000
0000
0000
0000
0000
0000
0000
0000
0000
0000
0000
0000
0000
0000
0000
0200
0000
0000
0000
0000
0000
0000
0000
0000
0000
0000
0000
0000
0000
0000
0000
0000
0000
0000
0000
0000
0000
0000
0000
0000
0000
0000
0000
0000
0000
0000
0000
0000
0000
0000
0000
0000
0000
0000
0000
0000
0000
0000
0000
0000
0000
0000
0000
0000
0000
0000
0000
0000
0000
0000
0000
0300
0000
0000
0000
0000
0000
0000
0000
0000
0000
0000
0000
2002
0000
0000
0000
0000
0000
0000
0000
0000
0000
0000
0000
0000
0000
0000
0000
0000
0000
0000
0000
0000
0000
0000
0000
0000
0000
0000
0000
0000
0000
0000
0000
0000
0000
0000
0000
3003
0000
0000
0000
0000
0000
0000
0000
0000
0000
0000
0000
,
0001
0100
1000
0100
0001
0000
1001
0000
,
1000
0100
0001
0100
0010
0000
0011
0001
,
1000
0001
0011
0000
0001
0000
0100
1000
,
0100
0010
0100
0001
1000
1000
1000
1000
,
0100
0010
0001
0000
0101
0000
0110
0000
,
0010
1000
0100
1000
1001
0000
0101
0000
,
0001
0010
1000
0010
0001
0000
1001
0000
,
1000
0000
0000
0000
0000
0010
0000
0000
0000
0220
0000
0000
0000
0000
0000
0000
0000
0000
0000
0000
0000
0000
0000
0000
,
0000
0000
0000
0330
0000
0000
0000
0000
,
0000
0000
0000
0000
,
00M0
0000
0000
0000
;

//---------------dance-single - Loodee----------------
#NOTES:
     dance-single:
     Loodee:
     Easy:
     3:
     0.179817,0.251743,0.014468,0.065106,0.000000,174.000000,172.000000,2.000000,9.000000,0.000000,0.000000,0.179817,0.251743,0.014468,0.065106,0.000000,174.000000,172.000000,2.000000,9.000000,0.000000,0.000000:
0000
0000
0000
0000
,
0000
0000
0000
0000
,
0000
0000
0000
0000
,
0000
0000
0000
0000
,
0002
0003
0000
0000
,
2000
3000
0000
0000
,
0002
0000
0000
0000
,
0003
0000
0000
0000
,
0010
0010
0100
0100
,
2000
0000
0000
3000
,
0001
0000
0000
0100
0000
0000
0001
0000
,
1000
0000
0000
0100
0000
0000
0100
0000
,
1000
0000
0000
0001
0000
0000
1000
0000
,
0010
0000
0000
0100
0000
0000
0100
0000
,
0001
0001
0000
1000
,
1000
0000
0000
0100
0000
0000
0100
0000
,
0010
0000
0000
0100
0000
0000
0010
0000
,
0002
0000
0000
0003
,
1000
0000
0000
0001
0000
0000
0100
0000
,
0100
0000
0000
0010
0000
0000
1000
0000
,
1000
0000
0000
0100
0000
0000
0010
0000
,
0010
0000
0000
0001
0000
0000
1000
0000
,
0010
0000
0000
0100
0000
0000
0100
0000
,
0010
0000
0000
1000
0000
0000
0001
0000
,
0020
0030
0000
0000
,
0100
1000
0100
1000
0100
1000
0100
0000
,
1000
0001
1000
0010
,
0100
0001
1000
0001
,
0010
0100
0010
0100
,
1000
1000
1000
0001
,
0100
0010
0100
0001
,
1000
0100
0010
0100
,
1000
0001
1000
0001
,
0100
0100
0100
0000
,
0010
0000
0000
0000
0010
0000
1000
0001
,
1000
0000
0100
0010
,
0001
0000
0000
0000
1000
0000
0010
0100
,
0010
0000
1000
1000
,
0001
0010
0001
1000
,
0010
0100
0010
0000
0100
0000
0001
0000
,
1000
0100
0100
0100
,
0010
0001
0011
0000
,
0000
0000
1000
0001
1000
0000
0010
0000
,
1000
0000
0001
0000
,
0010
0000
0100
1000
0100
0000
1000
0000
,
0001
0000
0100
0000
,
0010
0000
1000
0001
1000
0000
0100
0000
,
0010
0000
0100
0000
,
2000
0000
0010
0000
,
3001
0000
0000
0001
,
0010
0100
0010
0000
0001
0000
1000
0000
,
0010
0100
0010
0000
1000
0000
0001
0000
,
1000
0100
1000
0000
0001
0000
0000
0000
,
0100
0010
0010
0010
,
0010
0000
1000
0000
,
0100
0010
0100
0000
1000
0000
0000
0000
,
0001
0000
0100
0001
0100
0000
0010
0000
,
0100
0000
0000
2002
0000
0000
0000
0000
,
3003
0000
0000
0000
;

//---------------dance-single - Loodee----------------
#NOTES:
     dance-single:
     Loodee:
     Beginner:
     1:
     0.059939,0.104893,0.014468,0.036170,0.000000,58.000000,56.000000,2.000000,5.000000,0.000000,0.000000,0.059939,0.104893,0.014468,0.036170,0.000000,58.000000,56.000000,2.000000,5.000000,0.000000,0.000000:
0000
0000
0000
0000
,
0000
0000
0000
0000
,
0000
0000
0000
0000
,
0000
0000
0000
0000
,
0001
0000
0000
0000
,
0000
0000
0000
0000
,
0001
0000
0000
0000
,
0000
0000
0000
0000
,
1000
0000
0000
0000
,
1000
0000
0000
0000
,
1001
0000
0000
0000
,
0001
0000
0000
0000
,
1000
0000
0000
0000
,
0001
0000
0000
0000
,
0010
0000
0000
0000
,
0100
0000
0000
0000
,
0010
0000
0000
0000
,
0200
0000
0000
0300
,
0100
0000
0000
0000
,
1000
0000
0000
0000
,
0001
0000
0000
0000
,
0100
0000
0000
0000
,
0010
0000
0000
0000
,
1000
0000
0000
0000
,
1000
0000
0000
0000
,
0200
0000
0000
0300
,
0100
0000
0000
0000
,
0100
0000
0000
0000
,
0010
0000
0000
0000
,
0010
0000
0000
0000
,
0001
0000
0000
0000
,
0001
0000
0000
0000
,
1000
0000
1000
0000
,
1000
0000
0000
0000
,
0010
0000
0000
0000
,
0010
0000
0000
0000
,
1000
0000
0000
0000
,
1000
0000
0000
0000
,
0100
0000
0000
0000
,
0100
0000
0000
0000
,
0010
0000
0000
0000
,
0001
0000
0001
0000
,
0000
0001
0000
0000
,
1000
0000
0000
0000
,
0001
0000
0000
0000
,
1000
0000
0000
0000
,
0100
0000
0000
0000
,
0010
0000
0000
0000
,
0200
0000
0000
0000
,
0310
0000
0000
0000
,
0001
0000
0001
0000
,
0001
0000
0001
0000
,
1000
0000
0000
0000
,
1000
0000
0000
0000
,
0010
0000
0000
0000
,
1000
0000
0000
0000
,
0100
0000
0000
0000
,
0000
0000
0000
2002
0000
0000
0000
0000
,
3003
0000
0000
0000
;
