#VERSION:0.83;
#TITLE:Dog Days;
#SUBTITLE:;
#ARTIST:Bioblitz & Wildpuppet;
#TITLETRANSLIT:;
#SUBTITLETRANSLIT:;
#ARTISTTRANSLIT:;
#GENRE:Electro House;
#ORIGIN:;
#CREDIT:Feraligatr;
#BANNER:DD-bn.png;
#BACKGROUND:DD-bg-wide.png;
#PREVIEWVID:;
#JACKET:DD-jacket.png;
#CDIMAGE:FeraligatrV4-cd.png;
#DISCIMAGE:DD-bg-wide.png;
#LYRICSPATH:;
#CDTITLE:FeraligatrV4-cd.png;
#MUSIC:Bioblitz & Wildpuppet - Dog Days.ogg;
#OFFSET:0.009000;
#SAMPLESTART:46.866001;
#SAMPLELENGTH:15.000000;
#SELECTABLE:YES;
#DISPLAYBPM:128.000000;
#BPMS:0.000=128.000,
211.000=192.000,
212.000=128.000;
#STOPS:192.000=0.468,
211.000=0.156;
#DELAYS:;
#WARPS:;
#TIMESIGNATURES:0.000=4=4;
#TICKCOUNTS:0.000=4;
#COMBOS:0.000=1;
#SPEEDS:0.000=1.000=0.000=0;
#SCROLLS:0.000=1.000;
#FAKES:;
#LABELS:0.000=Song Start;
#BGCHANGES:;
#KEYSOUNDS:;
#ATTACKS:
;

//---------------dance-single - Feraligatr----------------
#NOTEDATA:;
#CHARTNAME:Feraligatr;
#STEPSTYPE:dance-single;
#DESCRIPTION:Feraligatr;
#CHARTSTYLE:;
#DIFFICULTY:Challenge;
#METER:11;
#RADARVALUES:0.788321,0.820255,0.153285,0.562044,1.153285,756.000000,735.000000,21.000000,77.000000,30.000000,0.000000,1.000000,0.000000,0.000000,0.788321,0.820255,0.153285,0.562044,1.153285,756.000000,735.000000,21.000000,77.000000,30.000000,0.000000,1.000000,0.000000,0.000000;
#CREDIT:Feraligatr;
#DISPLAYBPM:128.000000;
#NOTES:
// measure 0
0000
0000
0000
0000
,  // measure 1
0000
0000
0000
0000
,  // measure 2
0000
0000
0000
0000
,  // measure 3
0000
0000
0000
0000
,  // measure 4
1000
0000
0000
0000
0000
0000
0000
0000
0000
0000
0000
0000
0000
0000
0000
0000
0000
0000
0000
0000
0000
0000
0000
0000
0100
0000
0000
0000
0000
0000
0000
0000
0000
0000
0000
0000
0000
0000
0000
0000
0000
0000
0000
0000
0000
0000
0000
0000
0010
0000
0000
0000
0000
0000
0000
0000
0000
0000
0000
0000
0000
0000
0000
0000
0000
0000
0000
0000
0000
0000
0000
0000
0001
0000
0000
0000
0000
0000
0000
0000
0000
0000
0000
0000
0000
0000
0000
1000
0000
0000
0000
0000
0000
0000
0000
0000
0010
0000
0000
0000
0000
0000
0000
0000
0000
0000
0000
0000
0000
0000
0000
0000
0000
0000
0000
0000
0000
0000
0000
0000
0100
0000
0000
0000
0000
0000
0000
0000
0000
0000
0000
0000
0000
0000
0001
0000
0000
0000
0000
0000
0000
0000
0000
0000
1000
0000
0000
0000
0000
0000
0000
0000
0000
0000
0000
0000
0000
0000
0000
0000
0000
0000
0000
0000
0000
0000
0000
0000
0100
0000
0000
0000
0000
0000
0000
0000
0000
0000
0000
0000
0000
0000
0000
0000
0000
0000
0000
0000
0000
0000
0000
0000
,  // measure 5
0010
0000
0000
0000
0000
0000
0000
0000
0100
0000
0000
0000
0000
0000
0000
0000
1000
0000
0000
0000
0000
0000
0000
0000
0001
0000
0000
0000
0000
0000
0000
0000
0100
0000
0000
0000
0000
0000
0000
0000
0010
0000
0000
0000
0000
1000
0000
0000
0001
0000
0000
0000
0000
0000
0000
0000
0010
0000
0000
0000
0000
0000
0000
0000
,  // measure 6
0100
0000
0000
0000
0000
0000
0000
0000
0000
0000
0000
0000
0000
0000
0000
0000
0000
0000
0000
0000
0000
0000
0000
0000
1000
0000
0000
0000
0000
0000
0000
0000
0000
0000
0000
0000
0000
0000
0000
0000
0000
0000
0000
0000
0000
0000
0000
0000
0001
0000
0000
0000
0000
0000
0000
0000
0000
0000
0000
0000
0000
0000
0000
0000
0000
0000
0000
0000
0000
0000
0000
0000
0100
0000
0000
0000
0000
0000
0000
0000
0000
0000
0000
0000
0000
0000
0000
0001
0000
0000
0000
0000
0000
0000
0000
0000
1000
0000
0000
0000
0000
0000
0000
0000
0000
0000
0000
0000
0000
0000
0000
0000
0000
0000
0000
0000
0000
0000
0000
0000
0100
0000
0000
0000
0000
0000
0000
0000
0000
0000
0000
0000
0000
0000
0010
0000
0000
0000
0000
0000
0000
0000
0000
0000
0001
0000
0000
0000
0000
0000
0000
0000
0000
0000
0000
0000
0000
0000
0000
0000
0000
0000
0000
0000
0000
0000
0000
0000
1000
0000
0000
0000
0000
0000
0000
0000
0000
0000
0000
0000
0000
0000
0000
0000
0000
0000
0000
0000
0000
0000
0000
0000
,  // measure 7
0010
0000
0000
0000
0000
0000
0000
0000
0100
0000
0000
0000
0000
0000
0000
0000
0001
0000
0000
0000
0000
0000
0000
0000
1000
0000
0000
0000
0000
0001
0000
0000
0100
0000
0000
0000
0000
0001
0000
0000
1000
0000
0000
0000
0000
0000
0000
0000
0100
0000
0000
0000
0000
0000
0000
0000
0010
0000
0000
0000
0000
0000
0000
0000
,  // measure 8
0021
0000
0000
0000
0030
0001
1000
0100
0000
1000
0100
0000
1000
0000
0010
0000
,  // measure 9
M100
0000
M000
0100
0001
M000
0100
0001
0000
0100
0010
0000
1000
0000
0100
0000
,  // measure 10
0010
0000
0000
0010
0001
0000
0010
0001
0000
0010
0000
0010
0001
1000
0010
1000
,  // measure 11
0001
0000
0000
0001
0100
0000
0001
0100
0000
0010
0100
0000
0001
0000
1000
0000
,  // measure 12
0200
0000
0000
0000
1300
0001
1000
0000
0010
0000
0100
0000
0001
0000
0000
0000
0000
0000
1000
0000
0100
0000
0000
0000
1000
0000
0000
0000
0001
0000
0000
0000
,  // measure 13
0100
0000
0000
0100
0010
0000
0100
0010
0000
0100
0001
0000
1000
0000
0100
0000
,  // measure 14
0010
0000
0000
0010
0001
0000
1000
0001
1000
0001
0100
0010
0000
0010
1000
0000
,  // measure 15
0001
0000
1000
0100
0000
1000
0100
0000
1000
0001
0000
1000
0010
0000
0100
0000
,  // measure 16
0102
0000
0000
1003
0000
0001
0010
0001
0000
0001
0000
1000
0010
0000
0100
0000
,  // measure 17
0002
0000
0000
1003
0100
0010
0001
0010
0000
0010
0000
0001
1000
0000
0010
0000
,  // measure 18
0200
0000
0000
0301
1000
0100
0010
0100
0000
0100
0000
1000
0001
0000
0100
0000
,  // measure 19
0020
0000
0000
0130
0001
1000
0100
1000
0000
1000
0000
0001
0100
0000
0010
0000
,  // measure 20
2000
0000
0000
0000
3000
0001
0010
0100
2000
0000
0000
0000
3000
0001
0010
0100
,  // measure 21
2000
0000
0000
0000
3000
0001
0010
0100
2000
0000
0000
0000
3000
0001
0010
0100
,  // measure 22
1000
0100
0010
0001
1000
0010
0100
0001
,  // measure 23
1000
0100
1000
0001
0100
0010
1000
0001
0010
0100
0010
0001
1000
0010
0100
0001
,  // measure 24
0010
0000
0000
0000
0001
1000
0000
0001
0100
0000
0010
1000
0000
0001
0010
0000
,  // measure 25
0210
0000
0000
0000
0000
0000
0000
0000
0000
0000
0000
0000
0310
0000
0000
0001
0000
0000
1000
0000
0000
0010
0000
0000
0200
0000
0000
0000
0000
0000
00M0
0000
0000
0301
0000
0000
1000
0000
0000
0000
1000
0000
0000
0000
1000
0000
0000
0000
,  // measure 26
1200
0000
0310
0001
0000
0010
0001
1000
0001
0100
0010
1000
0200
0000
0000
0300
,  // measure 27
0120
0000
0000
0000
0031
0010
0100
0001
00M0
0001
0010
0100
2000
0000
0000
0000
,  // measure 28
3001
0000
0000
1000
0000
0000
0100
0000
0000
M100
0000
0000
0001
0000
0000
1000
0000
0000
0002
0000
0000
0000
0000
0000
0203
0000
0000
0000
0000
0000
0310
0000
0000
1000
0000
0000
0001
0000
0000
0000
0000
0000
1000
0000
0100
0000
1000
0000
,  // measure 29
0002
0000
0000
0000
1003
0100
0010
1000
0M00
1000
0100
0000
0020
0000
0000
0000
,  // measure 30
0130
01M0
0001
1000
0000
0001
1000
0100
1000
0001
1000
0010
0001
0010
0100
0001
,  // measure 31
2000
0000
0000
0000
3001
0010
0100
0001
00M0
0001
0010
0000
0100
0000
0010
0000
,  // measure 32
0001
0000
0000
1000
0000
0000
0100
0000
0000
M100
0000
0000
0002
0000
0000
0000
0000
0000
0203
0000
0000
0000
0000
0000
0310
0000
0000
1000
0000
0000
0001
0000
0000
0000
0000
0000
1000
0000
0100
0000
1000
0000
0001
0000
0000
0000
0000
0000
,  // measure 33
0201
0000
0000
0000
0000
0000
0000
0000
0000
0000
0000
0000
0301
0000
0000
0100
0000
0000
0010
0000
0000
1000
0000
0000
0002
0000
0000
0000
0000
0000
M000
0000
0000
0013
0000
0000
0100
0000
0000
0000
0100
0000
0000
0000
0100
0000
0000
0000
,  // measure 34
2100
0000
3001
0100
0000
0001
0100
0010
1000
0001
0100
0001
0020
0000
0000
0030
,  // measure 35
0210
0000
0000
0000
0000
0000
0000
0000
0310
0000
0001
0000
1000
0000
0001
0100
0001
0000
1000
0000
0100
0000
M100
0000
0001
0000
1000
0000
0002
0000
0000
0000
,  // measure 36
0103
0010
0000
0010
1000
0001
0100
0001
1000
0100
0010
0100
2000
0000
0000
3000
,  // measure 37
1200
0000
0000
0000
0310
0100
0010
1000
0M00
1000
0100
0010
0002
0000
0000
0000
,  // measure 38
0103
010M
1000
0001
0000
1000
0001
0010
0100
1000
0001
0100
1000
0100
0010
1000
,  // measure 39
0002
0000
0000
0000
1003
0100
0010
1000
0M00
1000
0100
0000
0010
0000
0001
0000
,  // measure 40
1002
0000
0103
0120
0000
1030
2001
0000
3001
0020
0000
0000
0000
0000
0000
0030
,  // measure 41
0110
0000
0100
0000
1000
0000
0010
0001
0000
0000
0010
0000
0100
0001
1000
0001
,  // measure 42
0020
0000
0031
1000
0000
0001
1000
0010
0100
0001
1000
0100
0001
0100
0010
0001
,  // measure 43
2000
0000
0000
0000
3001
1000
0010
0100
0000
0001
1000
0000
0200
0000
0000
0000
,  // measure 44
1300
0001
0100
010M
1000
0001
0100
0001
0010
0100
0000
0200
1000
0300
0200
0000
,  // measure 45
0310
0002
0000
0000
1003
0010
0100
1000
00M0
1000
0010
0000
2000
0000
0000
0000
,  // measure 46
3100
M100
0001
1000
0000
0001
1000
0100
0010
0100
0100
0100
0010
0100
0100
0100
,  // measure 47
2000
0000
0000
0000
3001
0100
0010
0001
0M00
0001
0100
0000
0010
0000
1000
0000
,  // measure 48
0100
MM00
0000
0000
2000
0000
3100
M100
0002
0000
0000
0000
1003
0100
0010
0001
,  // measure 49
1000
0000
0000
0010
0000
0000
0100
0000
0000
0001
0000
0000
1000
0000
0000
0010
0000
0000
0100
0000
0000
0001
0000
0000
1000
0000
0000
0000
1000
0000
0000
0000
1000
0000
0000
0000
1200
0000
0000
0000
0000
0000
0310
0000
0000
0001
0000
0000
,  // measure 50
0000
0000
0000
0000
0010
0000
0000
0000
0001
0000
0000
0000
1000
0000
0000
0000
0010
0000
0000
0000
1000
0000
0000
0000
0001
0000
0000
0000
0010
0000
0000
0000
0001
0000
0000
0000
0200
0300
0000
0000
0000
0000
0000
0000
0020
0030
0000
0000
2000
0000
0000
0000
0000
0000
0000
0000
0000
0000
0000
0000
0000
0000
0000
0000
,  // measure 51
3001
0000
0010
0000
0100
0000
1000
0001
1000
0000
0010
0000
0100
0000
01M0
0000
1000
0000
0001
0000
2000
0000
0000
0000
3100
0000
0010
0000
0000
0000
0010
0000
,  // measure 52
0001
1000
0010
0100
0002
0000
1003
0100
0000
0000
0100
0000
0010
0000
0000
0000
,  // measure 53
1001
0000
1000
0010
0000
0010
0100
0000
0002
0000
0000
0000
0103
010M
1000
0001
,  // measure 54
0000
1000
0001
0100
0010
0100
0100
0100
0010
0100
0100
0100
0002
0000
2003
0000
,  // measure 55
3100
0010
0001
1000
0010
0100
0001
0010
0200
0000
2000
0300
3001
0000
0000
0000
,  // measure 56
0100
0010
0000
1000
0000
0001
0100
010M
0010
0000
0001
0000
1002
0000
0000
0000
,  // measure 57
0103
0000
0000
0010
0000
0000
1000
0000
0000
0001
0000
0000
0020
0000
0000
0000
0000
0000
003M
0000
0000
0100
0000
0000
1000
0000
0000
0000
1000
0000
0000
0000
1000
0000
0000
0000
1200
0000
0000
0000
0000
0000
0310
0000
0000
0001
0000
0000
,  // measure 58
0000
0000
0000
0010
0000
0000
0001
0000
0000
1000
0000
0000
0010
0000
0000
0100
0000
0000
0001
0000
0000
0000
0000
0000
1000
0000
0001
0000
1000
0000
0100
0000
0010
0000
0001
0000
2000
0000
0000
0000
0000
0000
0000
0000
0000
0000
0000
0000
,  // measure 59
3001
0000
0010
0000
0100
0000
1000
0100
1000
0000
0001
0000
0100
0000
010M
0000
1000
0000
0001
0000
2000
0000
0000
0000
3001
0000
0010
0000
0000
0000
0010
0000
,  // measure 60
0100
0000
0000
1000
0000
0000
0001
0000
0000
0100
0000
0000
0020
0000
0000
0000
0000
0000
1030
0000
0000
0001
0000
0000
1000
0000
0100
0000
0010
0000
0001
0000
1000
0000
0001
0000
0200
0000
0000
0000
0000
0000
0000
0000
0000
0300
0000
0000
,  // measure 61
0120
0000
0130
1000
00M0
1000
0010
0000
2000
0000
0000
0000
3010
M010
0001
1000
,  // measure 62
0000
0000
0000
0001
0000
0000
1000
0000
0000
0100
0000
0000
0010
0000
0000
0100
0000
0000
0100
0000
0000
0100
0000
0000
1000
0000
0001
0000
1000
0000
0010
0000
0100
0000
0001
0000
2000
0000
0000
0000
0000
0000
0000
0000
0000
0000
0000
0000
,  // measure 63
3100
0010
0100
0001
00M0
0001
0010
0000
0200
0000
0000
0000
4300
0000
0000
0000
,  // measure 64
3001
0000
0000
0000
0000
0000
0000
0000
0000
0000
0000
0000
0000
0000
0000
0100
0000
0000
0000
0000
0000
0000
0000
0000
0001
0000
0000
0000
0000
0000
0000
0000
0000
0000
0000
0000
0000
0000
0000
0100
0000
0000
0000
0000
0000
0000
0000
0000
0010
0000
0000
0000
0000
0000
0000
0000
0000
0000
0000
0000
0000
0000
0000
1000
0000
0000
0000
0000
0000
0000
0000
0000
0001
0000
0000
0000
0000
0000
0000
0000
0000
0000
0000
0000
0000
0000
0000
0010
0000
0000
0000
0000
0000
0000
0000
0000
0100
0000
0000
0000
0000
0000
0000
0000
0000
0000
0000
0000
0000
0000
0000
0010
0000
0000
0000
0000
0000
0000
0000
0000
0001
0000
0000
0000
0000
0000
0000
0000
0000
0000
0000
0000
0000
0000
0000
1000
0000
0000
0000
0000
0000
0000
0000
0000
0001
0000
0000
0000
0000
0000
0000
0000
0100
0000
0000
0000
0000
0000
0000
0000
0010
0000
0000
0000
0000
0000
0000
0000
1000
0000
0000
0000
0000
0000
0000
0000
0001
0000
0000
0000
0000
0000
0000
0000
0100
0000
0000
0000
0000
0000
0000
0000
,  // measure 65
0001
0000
1000
0000
0100
0000
0010
0000
0000
0001
0000
0000
2000
0000
0000
0000
0000
0000
0000
0000
0000
3001
0000
0000
0100
0000
0000
0000
0000
0000
0001
0000
0000
0000
0000
0000
1000
0000
0000
0010
0000
0000
0000
0000
0000
0010
0000
0000
,  // measure 66
0100
0000
0000
0000
0000
0000
0000
0000
0000
0000
0000
0000
0000
0000
0000
0000
0000
0000
0000
0000
0000
0000
0000
0000
0010
0000
0000
0000
0000
0000
0000
0000
0000
0000
0000
0000
1000
0000
0000
0000
0000
0000
0000
0000
0000
0000
0000
0000
0001
0000
0000
0000
0000
0000
0000
0000
0000
0000
0000
0000
0000
0000
0000
0000
0000
0000
0000
0000
0000
0000
0000
0000
0010
0000
0000
0000
0000
0000
0000
0000
0000
0000
0000
0000
0000
0000
0001
0000
0000
0000
0000
0000
0000
0000
0000
0000
1000
0000
0000
0000
0000
0000
0000
0000
0000
0000
0000
0000
0000
0000
0000
0000
0000
0000
0000
0000
0000
0000
0000
0000
0100
0000
0000
0000
0000
0000
0000
0000
0000
0000
0000
0000
0000
0000
0000
0000
0000
0000
0000
0000
0000
0000
0000
0000
0120
0000
0000
0000
0000
0000
0000
0000
0000
0000
0000
0000
0000
0000
0000
0000
0000
0000
0000
0000
0000
0000
0000
0000
0000
0000
0000
0000
0000
0000
0000
0000
0000
0000
0000
0000
0000
0000
0000
0000
0000
0000
0000
0000
0000
0000
0000
0000
,  // measure 67
0031
0000
0000
0000
0000
0000
0000
0000
0000
0000
0000
0000
1000
0000
0000
0000
0000
0000
0000
0000
0000
0000
0000
0000
0000
0000
0000
0000
0000
0000
0000
0000
0000
0000
0000
0000
1000
0000
0000
0000
0000
0000
0000
0000
0000
0000
0000
0000
0010
0000
0000
0000
0000
0000
0000
0000
0000
0000
0000
0000
0000
0000
0000
0000
0000
0000
0000
0000
0000
0000
0000
0000
1000
0000
0000
0000
0000
0000
0000
0000
0000
0000
0000
0000
0000
0000
0001
0000
0000
0000
0000
0000
0000
0000
0000
0000
0020
0000
0000
0000
0000
0000
0000
0000
0000
0000
0000
0000
0000
0000
0000
0000
0000
0000
0000
0000
0000
0000
0000
0000
0000
0000
0000
0000
0000
0000
0000
0000
0000
0000
0000
0000
0030
0000
0000
0000
0000
0000
0000
0000
0000
0000
0000
0000
0210
0000
0000
0000
0000
0000
0000
0000
0000
0000
0000
0000
0000
0000
0000
0000
0000
0000
0000
0000
0000
0000
0000
0000
0000
0000
0000
0000
0000
0000
0000
0000
0000
0000
0000
0000
0000
0000
0000
0000
0000
0000
0000
0000
0000
0000
0000
0000
,  // measure 68
1300
0000
0000
0000
0000
0000
0000
0000
0001
0000
0000
0000
0000
0000
0000
0000
0100
0000
0000
0000
0000
0010
0000
0000
1000
0000
0000
0000
0000
0000
0000
0000
0002
0000
0000
0000
0000
0000
0000
0000
0000
0000
0000
0000
0003
0000
0000
0000
0021
0000
0000
0000
0000
0000
0000
0000
0000
0000
0000
0000
0000
0000
0000
0000
,  // measure 69
0130
0000
0000
0000
0000
0000
0000
0000
0000
0000
0000
0000
1000
0000
0000
0000
0000
0000
0000
0000
0000
0000
0000
0000
0000
0000
0000
0000
0000
0000
0000
0000
0000
0000
0000
0000
0010
0000
0000
0000
0000
0000
0000
0000
0000
0000
0000
0000
0000
0000
0000
0000
0000
0000
0000
0000
0000
0000
0000
0000
0100
0000
0000
0000
0000
0000
0000
0000
0000
0000
0000
0000
0001
0000
0000
0000
0000
0000
0000
0000
0000
0000
0000
0000
0000
0000
1000
0000
0000
0000
0000
0000
0000
0000
0000
0000
0200
0000
0000
0000
0000
0000
0000
0000
0000
0000
0000
0000
0000
0000
0000
0000
0000
0000
0000
0000
0000
0000
0000
0000
0000
0000
0000
0000
0000
0000
0000
0000
0000
0000
0000
0000
0000
0000
0000
0000
0000
0000
0000
0000
0000
0000
0000
0000
0310
0000
0000
0000
0000
0000
0000
0000
0000
0000
0000
0000
0000
0000
0000
0000
0000
0000
0000
0000
0000
0000
0000
0000
0001
0000
0000
0000
0000
0000
0000
0000
0000
0000
0000
0000
1000
0000
0000
0000
0000
0000
0000
0000
0000
0000
0000
0000
,  // measure 70
0010
0000
0000
0000
0000
0000
0000
0000
0000
0000
0000
0000
0000
0000
0000
0000
0000
0000
0000
0000
0000
0000
0000
0000
1000
0000
0000
0000
0000
0000
0000
0000
0000
0000
0000
0000
0010
0000
0000
0000
0000
0000
0000
0000
0000
0000
0000
0000
0100
0000
0000
0000
0000
0000
0000
0000
0000
0000
0000
0000
0000
0000
0000
0000
0000
0000
0000
0000
0000
0000
0000
0000
0001
0000
0000
0000
0000
0000
0000
0000
0000
0000
0000
0000
0000
0000
1000
0000
0000
0000
0000
0000
0000
0000
0000
0000
0100
0000
0000
0000
0000
0000
0000
0000
0000
0000
0000
0000
0000
0000
0000
0000
0000
0000
0000
0000
0000
0000
0000
0000
0010
0000
0000
0000
0000
0000
0000
0000
0000
0000
0000
0000
0000
0000
0000
0000
0000
0000
0000
0000
0000
0000
0000
0000
0002
0000
0000
0000
0000
0000
0000
0000
0000
0000
0000
0000
0000
0000
0000
0000
0000
0000
0000
0000
0000
0000
0000
0000
0000
0000
0000
0000
0000
0000
0000
0000
0000
0000
0000
0000
0000
0000
0000
0000
0000
0000
0000
0000
0000
0000
0000
0000
,  // measure 71
1003
0000
0000
0000
0000
0000
0000
0000
0000
0000
0000
0000
0010
0000
0000
0000
0000
0000
0000
0000
0000
0000
0000
0000
0000
0000
0000
0000
0000
0000
0000
0000
0000
0000
0000
0000
0010
0000
0000
0000
0000
0000
0000
0000
0000
0000
0000
0000
0100
0000
0000
0000
0000
0000
0000
0000
0000
0000
0000
0000
0001
0000
0000
0000
0000
0000
0000
0000
0000
0000
0000
0000
0000
0000
0000
0000
0000
0000
0000
0000
0000
0000
0000
0000
0000
0000
1000
0000
0000
0000
0000
0000
0000
0000
0000
0000
0100
0000
0000
0000
0000
0000
0000
0000
0000
0000
0000
0000
0000
0000
0000
0000
0000
0000
0000
0000
0000
0000
0000
0000
0010
0000
0000
0000
0000
0000
0000
0000
0000
0000
0000
0000
0000
0000
0000
0000
0000
0000
0000
0000
0000
0000
0000
0000
0001
0000
0000
0000
0000
0000
0000
0000
0000
0000
0000
0000
0000
0000
0000
0000
0000
0000
0000
0000
0000
0000
0000
0000
1000
0000
0000
0000
0000
0000
0000
0000
0000
0000
0000
0000
0010
0000
0000
0000
0000
0000
0000
0000
0000
0000
0000
0000
,  // measure 72
0100
0000
0000
0000
0000
0000
0000
0000
0001
0000
0000
0000
0000
0000
0000
0000
0010
0000
0000
0000
0000
0100
0000
0000
1000
0000
0000
0000
0000
0000
0000
0000
0001
0000
0000
0000
0000
0000
0000
0000
0000
0000
0000
0000
0000
0000
0000
0000
0000
0000
0000
0000
0000
0000
0000
0000
0000
0000
0000
0000
0000
0000
0000
0000
;

//---------------dance-single - Feraligatr----------------
#NOTEDATA:;
#CHARTNAME:Feraligatr SH;
#STEPSTYPE:dance-single;
#DESCRIPTION:Feraligatr;
#CHARTSTYLE:;
#DIFFICULTY:Hard;
#METER:10;
#RADARVALUES:0.635036,0.714416,0.160584,0.591241,0.773723,609.000000,587.000000,22.000000,81.000000,0.000000,0.000000,8.000000,0.000000,0.000000,0.635036,0.714416,0.160584,0.591241,0.773723,609.000000,587.000000,22.000000,81.000000,0.000000,0.000000,8.000000,0.000000,0.000000;
#CREDIT:Feraligatr;
#DISPLAYBPM:128.000000;
#NOTES:
// measure 0
0000
0000
0000
0000
,  // measure 1
0000
0000
0000
0000
,  // measure 2
0000
0000
0000
0000
,  // measure 3
0000
0000
0000
0000
,  // measure 4
1000
0100
0010
0100
1000
0001
0100
0010
,  // measure 5
0100
0001
1000
0100
0010
0100
1000
0001
,  // measure 6
0100
0010
0100
0001
1000
0100
1000
0001
,  // measure 7
0100
0010
0100
0001
1000
0100
0010
0001
,  // measure 8
2001
0000
0000
0000
3000
0001
0000
0000
0000
0001
0000
0000
0001
0000
0100
0000
,  // measure 9
0010
0000
0000
1000
0000
0000
1000
0000
0000
1000
0000
0000
0100
0000
0010
0000
,  // measure 10
0001
0000
0000
0001
0000
0000
0001
0000
0000
0001
0000
0001
0100
0000
0001
1000
,  // measure 11
0100
0000
0000
0100
0000
0000
0100
0000
0000
0100
0010
0000
0001
0000
1000
0000
,  // measure 12
0020
0000
0000
0000
0030
0010
0100
0000
0000
0001
0000
0000
1000
0000
0100
0000
,  // measure 13
0010
0000
0000
0010
0000
0000
0010
0000
0000
0010
0001
0000
1000
0000
0010
0000
,  // measure 14
0100
0000
0000
0100
0000
0000
0100
0000
0000
0100
0001
1000
0000
1000
0100
0000
,  // measure 15
0010
0000
0001
1000
0000
0001
1000
0000
0001
1000
0000
0001
0100
0000
0010
0000
,  // measure 16
2000
0000
0000
0000
3000
0001
1000
0001
0000
0001
0000
0010
0100
0000
1000
0000
,  // measure 17
0002
0000
0000
0000
0003
0100
0001
0100
0000
0100
0000
0010
1000
0000
0001
0000
,  // measure 18
0020
0000
0000
0000
0030
0100
1000
0100
0000
0100
0000
0010
0001
0000
1000
0000
,  // measure 19
0020
0000
0000
0000
0030
0100
0001
0100
0000
0100
0000
0010
1000
0000
0001
0000
,  // measure 20
0020
0000
0000
0130
1000
0000
0001
0000
0020
0000
0000
0130
1000
0000
0001
0000
,  // measure 21
0020
0000
0000
0130
1000
0000
0001
0000
0020
0000
0000
0130
1000
0000
0001
0000
,  // measure 22
0010
0100
1000
0100
0010
0001
1000
0010
,  // measure 23
0100
0001
0100
0001
1000
0100
1000
0100
0010
0001
0010
0001
1000
0010
1000
0010
,  // measure 24
0100
0000
0000
0000
0001
0100
0000
0001
1000
0000
0001
0010
0000
0100
1000
0000
,  // measure 25
1002
0000
0000
0000
0103
0001
1000
0001
0020
0000
0000
0130
4000
0000
0000
0000
,  // measure 26
3002
0000
0103
0001
0000
0100
0001
0000
1000
0100
1000
0000
0002
0000
0000
0003
,  // measure 27
0201
0000
0000
0000
0310
1000
0001
1000
0000
1000
0100
0000
0020
0000
0000
0000
,  // measure 28
0031
1000
0001
1000
0010
0100
0020
0000
2030
0000
0000
3001
0000
0000
0010
0000
,  // measure 29
0200
0000
0000
0000
1300
0000
0001
0100
0000
0100
0010
0000
2000
0000
0000
0000
,  // measure 30
3001
1000
0100
0010
0000
0100
0010
0000
0001
1000
0001
1000
0010
0100
0010
0100
,  // measure 31
0002
0000
0000
0000
1003
0001
0010
0100
0000
0100
0010
0000
0002
0000
0000
0000
,  // measure 32
1003
0010
0000
0010
0200
0000
0302
0000
1003
0000
0100
0000
0020
0000
0031
0000
,  // measure 33
1002
0000
0000
0000
1003
0001
1000
0010
0200
0000
0000
0301
4000
0000
0000
0000
,  // measure 34
3200
0000
0310
0001
0000
0010
0001
0000
1000
0001
0100
0000
0020
0000
0000
0030
,  // measure 35
2010
0000
0000
0000
3001
1000
0100
0010
0001
1000
0001
1000
0010
1000
0020
0000
,  // measure 36
0130
0001
0000
0001
0000
0001
1000
0000
0100
0010
0100
1000
0002
0000
0000
0003
,  // measure 37
2001
0000
0000
0000
3001
1000
0010
1000
0000
1000
0001
0010
0200
0000
0000
0000
,  // measure 38
1300
0001
1000
0010
0000
1000
0010
0000
0100
0000
0001
0000
1000
0100
1000
0100
,  // measure 39
0020
0000
0000
0000
0031
1000
0010
1000
0000
1000
0001
0000
0010
0000
0100
0000
,  // measure 40
1200
0000
0300
2001
0000
3000
0102
0000
0003
0200
0000
0000
0000
0000
0000
0300
,  // measure 41
0110
0000
0010
0000
0100
0000
0000
1000
0000
0000
0100
0000
0010
0000
1000
0001
,  // measure 42
2000
0000
3001
0010
0000
0001
0010
0000
0100
1000
0000
0000
0001
0100
0010
1000
,  // measure 43
0002
0000
0000
0000
1003
0001
1000
0100
0000
0100
0010
0000
0002
0000
0000
0000
,  // measure 44
1003
0001
1000
0001
0100
0010
0100
0010
2000
0000
0000
3002
0000
0003
0020
0000
,  // measure 45
0130
2000
0000
0000
3001
0000
0100
0010
0000
0010
1000
0000
0002
0000
0000
0000
,  // measure 46
0013
0001
1000
0001
0000
1000
0001
0000
2001
0000
3000
1200
0000
0000
0000
0300
,  // measure 47
0120
0000
0000
0000
0031
1000
0100
0010
0000
0010
0100
0000
1000
0000
0001
0000
,  // measure 48
0100
0000
0000
0000
0020
0000
1030
0001
2000
0000
0000
3000
1002
0000
0000
0000
,  // measure 49
0013
0001
1000
0001
0200
0000
0000
0310
4000
0000
0000
0000
3002
0000
1003
0001
,  // measure 50
0000
1000
0001
0000
1000
0100
1000
0000
0001
0100
0000
0010
2000
0000
0000
0000
,  // measure 51
3001
1000
0100
1000
0001
0100
0001
0100
0010
1000
0020
0000
1030
0001
0000
0001
,  // measure 52
0000
0001
0010
0000
0200
0000
0000
1300
0000
0000
0001
0000
0100
0000
0000
0000
,  // measure 53
0110
0000
0010
1000
0000
1000
0001
0000
0020
0000
0000
0000
0130
1000
0001
0100
,  // measure 54
0000
0001
0100
0000
0010
1000
0010
1000
0001
0100
0001
0100
0010
0000
1000
0000
,  // measure 55
0001
1000
0100
1000
0001
1000
0010
0100
0002
0000
2000
0003
3100
0000
0000
0000
,  // measure 56
1000
0010
0000
0100
0000
0001
0000
1000
0100
0000
0010
0000
0012
0000
0000
0000
,  // measure 57
1003
0001
0100
0001
2000
0000
3000
0010
0400
0000
0000
0000
0302
0000
1003
0001
,  // measure 58
0000
1000
0001
0000
1000
0100
1000
0000
0004
0000
0000
0000
0203
0000
0000
0000
,  // measure 59
0310
1000
0001
1000
0100
0010
0001
1000
0010
0100
0020
0000
1030
0001
0000
0001
,  // measure 60
0000
0001
0010
0000
0200
0000
0000
1300
0004
0000
0000
0000
0203
0000
0000
0300
,  // measure 61
0120
0000
1030
0001
0000
0000
0010
0000
0200
0000
0000
0000
1300
0001
1000
0010
,  // measure 62
0000
1000
0010
0000
0100
0001
0100
0001
1000
0010
1000
0010
0200
0000
0000
0300
,  // measure 63
0102
0000
1003
0001
0000
0010
0100
0000
1000
0000
0001
0000
0400
0000
0000
0000
,  // measure 64
0000
0000
0000
0000
0000
0000
0000
0000
0000
0000
0000
0300
4001
0000
0000
0000
,  // measure 65
0000
0000
3001
0010
0200
0000
0000
1300
0001
0000
0100
0000
0010
1000
0000
1000
,  // measure 66
0000
0000
1000
0001
0010
0000
0100
0000
1000
0000
0001
0000
0200
0000
0000
0000
,  // measure 67
0310
1000
0000
1000
0001
0000
0010
0000
0200
0000
0000
0000
2300
0000
0000
0000
,  // measure 68
3001
0000
0100
0000
0120
0000
0000
0030
2010
0000
0000
3000
1002
0000
0000
0000
,  // measure 69
1003
0100
0000
0010
0000
0001
1000
0000
0020
0000
0000
0000
0130
0000
0001
1000
,  // measure 70
0000
0000
1000
0100
0010
0000
0001
0000
1000
0000
0000
0000
0020
0000
0000
0000
,  // measure 71
0130
0001
0000
0001
1000
0001
0000
0000
0010
0000
0100
0000
1000
0000
0000
0010
,  // measure 72
0000
0100
0001
1000
0001
0000
0000
0000
;

//---------------dance-single - Feraligatr----------------
#NOTEDATA:;
#CHARTNAME:Feraligatr SM;
#STEPSTYPE:dance-single;
#DESCRIPTION:Feraligatr;
#CHARTSTYLE:;
#DIFFICULTY:Medium;
#METER:7;
#RADARVALUES:0.396246,0.449818,0.138686,0.343066,0.029197,380.000000,361.000000,19.000000,47.000000,0.000000,0.000000,4.000000,0.000000,0.000000,0.396246,0.449818,0.138686,0.343066,0.029197,380.000000,361.000000,19.000000,47.000000,0.000000,0.000000,4.000000,0.000000,0.000000;
#CREDIT:Feraligatr;
#DISPLAYBPM:128.000000;
#NOTES:
// measure 0
0000
0000
0000
0000
,  // measure 1
0000
0000
0000
0000
,  // measure 2
0000
0000
0000
0000
,  // measure 3
0000
0000
0000
0000
,  // measure 4
1000
0100
1000
0001
0100
0010
1000
0000
,  // measure 5
0001
0010
0001
1000
0010
0100
0001
0000
,  // measure 6
1000
0001
0010
0100
0010
0001
1000
0000
,  // measure 7
0010
0100
0001
1000
0100
1000
0001
0000
,  // measure 8
2001
0000
0000
0000
,  // measure 9
3100
0010
0002
0000
0000
1003
0010
0100
,  // measure 10
0001
0000
1000
0000
0100
0000
0010
0001
,  // measure 11
1000
0000
0010
0000
0100
0001
1000
0100
,  // measure 12
0020
0000
0030
0001
1000
0001
0100
0010
,  // measure 13
1000
0000
0100
0000
0010
0000
0001
1000
,  // measure 14
0010
0000
0100
0000
0001
0000
1000
0100
,  // measure 15
0010
0000
0001
0000
0000
0001
0000
0000
0001
0000
0000
0100
0000
0000
0010
0000
,  // measure 16
2000
0000
3000
0000
0001
1000
0001
0100
,  // measure 17
0020
0000
0030
0000
1000
0001
1000
0100
,  // measure 18
0020
0000
0030
0000
0001
1000
0010
0100
,  // measure 19
0002
0000
0003
0000
1000
0100
1000
0001
,  // measure 20
0200
0000
0300
0010
0200
0000
0300
0010
,  // measure 21
0200
0000
0300
0010
0200
0000
0300
0010
,  // measure 22
0100
0010
1000
0001
0010
0100
0010
0001
,  // measure 23
1000
1000
0010
0010
0100
0100
0001
0001
,  // measure 24
1000
0000
0000
0000
,  // measure 25
1002
0000
0013
0100
1000
0001
0100
0000
,  // measure 26
0110
0000
0000
0000
0010
0000
0000
0000
1000
0000
0001
0000
0020
0000
0000
0030
,  // measure 27
0210
0000
1300
0001
0100
0010
2000
0000
,  // measure 28
3001
0000
0010
0000
0100
1000
0001
0000
,  // measure 29
0201
0000
0310
0000
1000
0001
0020
0000
,  // measure 30
0130
0000
1000
0000
0001
0100
0010
1000
,  // measure 31
0002
0000
1003
0000
0100
0010
0001
0000
,  // measure 32
1000
0000
0001
0000
0100
0010
1000
0001
,  // measure 33
2000
0000
3100
0010
0100
1000
0001
0000
,  // measure 34
0101
0000
0000
0000
0100
0000
0000
0000
0010
0000
1000
0000
0002
0000
0000
0003
,  // measure 35
0021
0000
0130
1000
0001
0100
0010
1000
,  // measure 36
0001
0000
1000
0000
0100
0010
0001
0000
,  // measure 37
2001
0000
3010
0100
0001
1000
0200
0000
,  // measure 38
0310
0000
0001
0000
1000
0010
0100
0001
,  // measure 39
2000
0000
3100
0000
0010
0001
1000
0000
,  // measure 40
1001
0000
0000
0110
0000
0000
1001
0000
0000
0020
0000
0000
0000
0000
0000
0030
,  // measure 41
0110
0000
0000
0000
0001
0000
0000
0010
0000
0000
0100
0000
1000
0000
0000
0000
,  // measure 42
0001
0100
0001
0000
1000
0100
1000
0001
,  // measure 43
0200
0000
0310
1000
0001
0010
0200
0000
,  // measure 44
1300
0000
0001
0000
0100
0010
1000
0001
,  // measure 45
0020
0000
0130
0000
1000
0001
0200
0000
,  // measure 46
0310
0000
1000
0000
0001
0010
0001
0010
,  // measure 47
0200
0000
1300
0001
0100
0010
1000
0001
,  // measure 48
0010
0000
0000
0000
0200
0000
0300
0000
2000
0000
0000
3000
1002
0000
0000
0000
,  // measure 49
0100
1000
0010
1000
,  // measure 50
0100
0000
0000
0000
1000
0000
0000
0000
0000
0103
0000
0010
2000
0000
0000
0000
,  // measure 51
3001
0000
0010
0000
0100
1000
0001
0000
,  // measure 52
0100
0000
0010
1000
0001
0010
0100
0000
,  // measure 53
1100
0000
1000
0000
0002
0000
0103
0010
,  // measure 54
0100
0000
0001
1000
0001
1000
0200
0000
,  // measure 55
0310
0001
1000
0010
0100
0001
1000
0000
,  // measure 56
0000
0001
1000
1200
,  // measure 57
0310
0000
0002
0003
1000
0000
1010
0000
,  // measure 58
1000
0001
0040
0230
,  // measure 59
1300
0000
0001
0100
0001
1000
0100
0000
,  // measure 60
0010
0000
0001
1000
0040
0000
0130
0000
,  // measure 61
0101
0000
0001
1000
0200
0000
0310
0000
,  // measure 62
0001
0000
1000
0010
0400
0000
0301
0000
,  // measure 63
1001
0000
1000
0100
0010
0000
0014
0000
,  // measure 64
0000
0000
0000
2003
,  // measure 65
3010
0000
0100
0000
0001
1000
0100
0000
,  // measure 66
0010
0000
0001
0000
1000
0010
0200
0000
,  // measure 67
0301
0000
1000
0000
0100
0010
0002
0000
,  // measure 68
1003
0020
0230
0301
,  // measure 69
1000
0000
0100
0010
0002
0000
1003
0000
,  // measure 70
0010
0000
0100
0001
1000
0000
0200
0000
,  // measure 71
0310
0000
0000
0000
0001
0000
0000
0000
1000
0000
0010
0000
0100
0000
0000
0001
,  // measure 72
0000
1000
0100
0000
0100
0000
0000
0000
;

//---------------dance-single - Feraligatr----------------
#NOTEDATA:;
#CHARTNAME:Feraligatr SE;
#STEPSTYPE:dance-single;
#DESCRIPTION:Feraligatr;
#CHARTSTYLE:;
#DIFFICULTY:Easy;
#METER:3;
#RADARVALUES:0.225235,0.264599,0.072993,0.167883,0.000000,216.000000,206.000000,10.000000,23.000000,0.000000,0.000000,0.000000,0.000000,0.000000,0.225235,0.264599,0.072993,0.167883,0.000000,216.000000,206.000000,10.000000,23.000000,0.000000,0.000000,0.000000,0.000000,0.000000;
#CREDIT:Feraligatr;
#DISPLAYBPM:128.000000;
#NOTES:
// measure 0
0000
0000
0000
0000
,  // measure 1
0000
0000
0000
0000
,  // measure 2
0000
0000
0000
0000
,  // measure 3
0000
0000
0000
0000
,  // measure 4
1000
0100
0010
0100
,  // measure 5
1000
0001
0100
0010
,  // measure 6
1000
0001
0010
0100
,  // measure 7
1000
0001
0100
0010
,  // measure 8
1002
0000
0003
0000
,  // measure 9
1000
0000
0010
0000
,  // measure 10
0100
0000
0001
0000
,  // measure 11
1000
0000
0100
0000
,  // measure 12
0010
0000
0001
0000
,  // measure 13
1000
0000
0010
0000
,  // measure 14
0100
0000
0010
0000
,  // measure 15
1000
0000
0001
0000
,  // measure 16
0020
0000
0030
0000
,  // measure 17
0200
0000
0300
0000
,  // measure 18
2000
0000
3000
0000
,  // measure 19
0002
0000
0003
0000
,  // measure 20
0201
0300
0201
0300
,  // measure 21
0201
0300
0201
0300
,  // measure 22
0100
0010
1000
0001
,  // measure 23
0010
0100
1000
0001
,  // measure 24
0100
0000
0000
0000
,  // measure 25
2001
3001
1000
0000
,  // measure 26
0100
0010
0100
2000
,  // measure 27
3001
0100
0010
0000
,  // measure 28
0100
0001
1000
0100
,  // measure 29
0010
0100
0010
0000
,  // measure 30
0001
1000
0010
0200
,  // measure 31
0301
1000
0100
0000
,  // measure 32
0010
0100
1000
0001
,  // measure 33
1000
0010
0100
0000
,  // measure 34
0010
0100
0001
2000
,  // measure 35
3100
0010
0001
0000
,  // measure 36
1000
0010
0100
0002
,  // measure 37
1003
0100
0010
0000
,  // measure 38
0100
1000
0001
0200
,  // measure 39
0310
1000
0001
0000
,  // measure 40
0020
0000
0000
0000
0000
0000
0000
0000
0000
0000
0000
0000
0000
0000
0000
0030
,  // measure 41
0110
0100
1000
0001
,  // measure 42
0100
0010
1000
0001
,  // measure 43
0010
0100
0010
0000
,  // measure 44
0001
1000
0010
0100
,  // measure 45
0001
1000
0100
0000
,  // measure 46
0010
0100
1000
0001
,  // measure 47
0100
0010
1000
0000
,  // measure 48
0001
0000
2000
3000
0200
0000
0310
0000
,  // measure 49
0010
0010
0010
0001
,  // measure 50
1000
0001
0100
0010
,  // measure 51
1000
0001
0000
0010
,  // measure 52
0100
0010
0001
1000
,  // measure 53
1001
0001
0000
1000
,  // measure 54
0010
0100
0010
1000
,  // measure 55
0001
0010
0100
1000
,  // measure 56
0000
0000
0000
1001
,  // measure 57
0001
0100
0000
0010
,  // measure 58
1000
0001
0020
0130
,  // measure 59
1000
0001
0000
0100
,  // measure 60
0010
0100
0002
1003
,  // measure 61
0100
0010
0000
0001
,  // measure 62
1000
0010
0200
0301
,  // measure 63
1000
0100
0000
0120
,  // measure 64
0000
0000
0000
0032
,  // measure 65
0003
1000
0010
0100
,  // measure 66
0000
0001
1000
0001
,  // measure 67
0000
1000
0100
0010
,  // measure 68
0000
0001
1000
0001
,  // measure 69
0000
0100
0010
1000
,  // measure 70
0000
0001
1000
0100
,  // measure 71
0000
0010
0001
1000
,  // measure 72
0001
0100
0010
0000
;

//---------------dance-single - Feraligatr----------------
#NOTEDATA:;
#CHARTNAME:Feraligatr SN;
#STEPSTYPE:dance-single;
#DESCRIPTION:Feraligatr;
#CHARTSTYLE:;
#DIFFICULTY:Beginner;
#METER:1;
#RADARVALUES:0.092805,0.238139,0.058394,0.036496,0.000000,89.000000,81.000000,8.000000,5.000000,0.000000,0.000000,0.000000,0.000000,0.000000,0.092805,0.238139,0.058394,0.036496,0.000000,89.000000,81.000000,8.000000,5.000000,0.000000,0.000000,0.000000,0.000000,0.000000;
#CREDIT:Feraligatr;
#DISPLAYBPM:128.000000;
#NOTES:
// measure 0
0000
0000
0000
0000
,  // measure 1
0000
0000
0000
0000
,  // measure 2
0000
0000
0000
0000
,  // measure 3
0000
0000
0000
0000
,  // measure 4
1000
0000
0000
0000
,  // measure 5
0100
0000
0000
0000
,  // measure 6
0010
0000
0000
0000
,  // measure 7
0001
0000
0000
0000
,  // measure 8
1001
0000
0000
0000
,  // measure 9
1000
0000
0000
0000
,  // measure 10
0010
0000
0000
0000
,  // measure 11
0100
0000
0000
0000
,  // measure 12
0001
0000
0000
0000
,  // measure 13
1000
0000
0000
0000
,  // measure 14
0100
0000
0000
0000
,  // measure 15
0010
0000
0000
0000
,  // measure 16
0001
0000
0000
0000
,  // measure 17
1000
0000
0000
0000
,  // measure 18
0010
0000
0000
0000
,  // measure 19
0100
0000
0000
0000
,  // measure 20
0002
0003
0002
0003
,  // measure 21
0002
0003
0002
0003
,  // measure 22
1000
1000
0001
0001
,  // measure 23
1000
1000
0001
0001
,  // measure 24
1000
0000
0000
0000
,  // measure 25
1001
0000
0000
0000
,  // measure 26
1000
0000
0000
0000
,  // measure 27
0100
0000
0000
0000
,  // measure 28
0010
0000
0000
0000
,  // measure 29
0100
0000
0000
0000
,  // measure 30
1000
0000
0000
0000
,  // measure 31
0001
0000
0000
0000
,  // measure 32
0100
0000
0000
0000
,  // measure 33
0110
0000
0000
0000
,  // measure 34
0100
0000
0000
0000
,  // measure 35
0001
0000
0000
0000
,  // measure 36
1000
0000
0000
0000
,  // measure 37
0100
0000
0000
0000
,  // measure 38
0010
0000
0000
0000
,  // measure 39
0001
0000
0000
0000
,  // measure 40
1000
0000
0000
0000
,  // measure 41
1001
0000
0000
0000
,  // measure 42
1000
0000
0000
0000
,  // measure 43
0010
0000
0000
0000
,  // measure 44
1000
0000
0000
0000
,  // measure 45
0001
0000
0000
0000
,  // measure 46
0010
0000
0000
0000
,  // measure 47
0100
0000
0000
0000
,  // measure 48
1000
0000
0000
1001
,  // measure 49
0000
0000
0000
0001
,  // measure 50
0000
0000
0000
0100
,  // measure 51
0000
0000
0000
0010
,  // measure 52
0000
0000
0000
0100
,  // measure 53
1001
0000
0000
0001
,  // measure 54
0000
0000
0000
1000
,  // measure 55
0000
0000
0000
0100
,  // measure 56
0000
0000
0000
0110
,  // measure 57
0000
0000
0000
0100
,  // measure 58
0000
0000
0000
1000
,  // measure 59
0000
0000
0000
0001
,  // measure 60
0000
0000
0000
0100
,  // measure 61
0000
0000
0000
0010
,  // measure 62
0000
0000
0000
0100
,  // measure 63
0000
0000
0000
0002
,  // measure 64
0000
0000
0003
1001
,  // measure 65
0000
0000
0000
0001
,  // measure 66
0000
0000
0000
1000
,  // measure 67
0000
0000
0000
0001
,  // measure 68
0000
0000
0000
0100
,  // measure 69
0000
0000
0000
0010
,  // measure 70
0000
0000
0000
1000
,  // measure 71
0000
0000
0000
0001
,  // measure 72
1000
0001
1000
0000
;
