#TITLE:Dance with Cannibals;
#SUBTITLE:(Auratic Remix);
#ARTIST:Wildpuppet;
#TITLETRANSLIT:;
#SUBTITLETRANSLIT:;
#ARTISTTRANSLIT:;
#GENRE:Glitch Hop;
#CREDIT:;
#BANNER:Dance with Cannibals-bn.png;
#BACKGROUND:Dance with Cannibals-bg.png;
#LYRICSPATH:;
#CDTITLE:bengatr-cd.png;
#MUSIC:Dance With Cannibals (Auratic Remix).ogg;
#OFFSET:0.095000;
#SAMPLESTART:71.903999;
#SAMPLELENGTH:17.455000;
#SELECTABLE:YES;
#DISPLAYBPM:110.000000;
#BPMS:0.000000=110.000000
,66.000000=165.000000
,66.750000=55.000000
,67.000000=110.000000
,186.000000=165.000000
,186.750000=55.000000
,187.000000=110.000000
;
#STOPS:
;
#BGCHANGES:;
#KEYSOUNDS:;
#ATTACKS:;

//---------------dance-single - Benpai & Feraligatr----------------
#NOTES:
     dance-single:
     Benpai & Feraligatr SX:
     Challenge:
     10:
     0.608295,0.781502,0.274194,0.370968,0.766129,528.000000,494.000000,34.000000,46.000000,28.000000,0.000000,0.608295,0.781502,0.274194,0.370968,0.766129,528.000000,494.000000,34.000000,46.000000,28.000000,0.000000:
// measure 0
0000
0000
0000
0000
,  // measure 1
0000
0000
0000
0000
,  // measure 2
0000
0000
0000
0000
,  // measure 3
0000
0000
0000
0000
,  // measure 4
0000
0000
0000
0000
,  // measure 5
1100
0000
0100
0000
0020
0000
0000
0031
0000
0001
0000
0001
1000
0010
1000
0200
,  // measure 6
0000
0000
0310
0000
0001
0000
0000
1000
0010
0000
0100
0000
0010
0000
1000
0100
,  // measure 7
0000
0100
0010
0000
0001
0000
0000
1000
0000
1000
0001
0100
0010
0000
0010
0000
,  // measure 8
2000
0000
0000
0000
0000
3001
0000
0001
0000
0001
1000
0000
1200
0000
0010
0300
,  // measure 9
0011
0000
0001
0000
1000
0000
0020
0000
0130
0000
0001
0000
0002
0000
0000
0003
,  // measure 10
1000
0000
0000
0000
0000
0000
01M0
0000
00M0
0000
00M0
0000
10M0
0000
0000
0000
0000
0000
0020
0000
0000
0000
0000
0000
0130
0000
0000
0000
0000
0000
0001
0000
0000
1000
0000
0000
0002
0000
0000
0000
0000
0000
0013
0000
0000
0000
0000
0000
,  // measure 11
0100
0000
0010
0000
0001
0000
0200
0000
0310
0000
1000
0000
2000
0000
0000
3000
,  // measure 12
0001
0000
0010
0000
0100
0000
1000
0000
0001
0000
0010
0000
0100
0000
1000
0000
0001
0000
0010
0000
0100
0000
1000
0000
0001
0000
0100
0000
0010
1000
0010
1000
,  // measure 13
0001
0010
0001
1000
0010
1000
0100
0010
0001
0010
0100
1000
0040
1030
0400
1300
,  // measure 14
0001
0100
0001
1000
0100
1000
0010
0100
0001
0100
0010
1000
0001
1000
0100
0010
,  // measure 15
0004
4000
0000
0000
0000
0000
0000
0000
0000
0000
0000
0000
0000
0000
0000
0000
0000
0000
0000
0000
0000
0000
0000
0000
0000
0000
0000
0000
0000
0000
3003
0000
,  // measure 16
0MM0
0000
0000
0000
0000
0000
0000
0000
M22M
0000
0000
0330
0001
1000
0001
1000
,  // measure 17
1200
0000
0000
0000
0310
0001
1000
0001
0100
1000
0000
1000
0100
0000
0100
0000
,  // measure 18
0104
0000
0000
0003
0010
0000
0400
0000
2300
0000
3001
0100
1000
0100
0001
0000
,  // measure 19
0041
0000
0000
0000
0000
0000
0000
0000
0000
0030
0000
0000
0100
0000
0000
0000
1000
0000
0001
0000
0000
0000
1000
0000
0020
0000
0000
0000
0000
0000
M130
0000
0000
0000
0000
0000
0101
0000
0000
0000
0000
0000
1000
0000
0000
0000
0000
0000
,  // measure 20
1004
0000
0000
0000
0000
0000
0103
0000
0000
0000
0000
0000
0010
0000
0000
0000
0100
0000
0000
0000
0001
0000
0000
0000
0010
0000
0000
0000
0100
0000
0000
0000
1000
0000
0000
0000
1100
0000
0000
0000
0000
0000
0001
0000
0000
0100
0000
0000
,  // measure 21
0410
0000
0000
0300
0001
1000
0100
0M00
0001
0100
0010
0000
0104
0000
0000
0003
,  // measure 22
4001
0000
3001
0100
0001
1000
0001
0010
0001
1000
0100
0000
0040
0000
0000
0030
,  // measure 23
1004
0000
0000
0000
0000
0000
0003
0000
1000
0000
0001
0000
1000
0000
0100
0000
1000
0000
0001
0000
0010
000M
0010
0000
1000
0000
0000
0000
0200
0000
0000
0000
,  // measure 24
1300
0010
0100
0001
1000
0010
0100
0001
1000
0010
0100
0001
1000
0100
1000
0100
,  // measure 25
0040
0000
0000
0000
0000
0000
0000
0000
0000
0000
0000
0000
0130
0000
0000
0000
1000
0000
0001
0000
0000
0000
1000
0000
0010
0000
0000
0001
0000
0000
0000
0000
0000
0001
0000
0000
0010
0000
0000
0000
0000
0000
0010
0000
0000
0000
0000
0000
,  // measure 26
0120
0000
1030
0000
0400
0000
0310
0000
0004
0000
1003
0000
0040
0000
0000
0030
,  // measure 27
0410
0000
0000
0000
0000
0000
0000
0000
0000
0300
0000
0000
0010
0000
0000
0000
1000
0000
0001
0000
0000
0000
1000
0000
0200
0000
0000
0000
0000
0000
0301
0000
0000
0000
0000
0000
0100
0000
0000
0000
0000
0000
1000
0000
0000
0000
0000
0000
,  // measure 28
1020
0000
0000
0000
0130
0000
0001
0000
0041
0000
0000
0000
0000
0000
0000
0030
,  // measure 29
4001
0000
3010
0100
0001
0000
0040
0000
0130
0001
0000
0001
0200
0000
0000
0300
,  // measure 30
0210
0000
1300
0001
1000
0100
1000
0001
1000
0010
0100
0000
0004
0000
0000
0003
,  // measure 31
4001
0000
0000
0000
3001
0100
0001
1000
0001
0010
0100
M100
0001
1000
0020
0000
,  // measure 32
1030
0100
0010
0001
1000
0100
0010
0001
1000
0100
0010
0001
1000
0010
1000
0010
,  // measure 33
0210
0000
0000
0000
0301
1000
0010
1000
0100
0001
0000
0001
0100
0000
1000
0000
,  // measure 34
2100
0000
0000
0000
0000
0000
0001
0000
0000
0000
0000
0000
3010
0000
0000
M010
0000
0000
0001
0000
0000
0000
0000
0000
0001
0000
0000
0000
0000
0000
0001
0000
0000
0100
0000
0000
0010
0000
0000
0000
0000
0000
0100
0000
0001
0000
1000
0000
,  // measure 35
0200
0000
0310
0200
1300
0020
0130
0001
,  // measure 36
0102
1003
0100
0010
0001
0100
0010
1000
,  // measure 37
1002
0000
0000
0000
1003
0001
0010
0001
0100
1000
0000
1000
0100
0000
0001
0000
,  // measure 38
0102
0000
0000
0000
0000
0000
1000
0000
0000
0000
0000
0000
0013
0000
0000
001M
0000
0000
1000
0000
0000
0000
0000
0000
1000
0000
0000
0000
0000
0000
1000
0000
0000
0001
0000
0000
0100
0000
0000
0000
0000
0000
0010
0000
1000
0000
0001
0000
,  // measure 39
0020
0000
0000
0000
0130
0000
0100
0000
0000
0000
0100
00M0
0100
0000
0010
0000
1000
0000
0010
0000
0400
0000
0000
0000
0301
0000
0010
0000
0100
0000
0010
0000
,  // measure 40
0001
0100
0010
1000
0001
0100
0010
1000
0001
0100
0010
1000
0001
0010
0001
0010
,  // measure 41
0220
0330
0000
0000
,  // measure 42
0000
0000
0000
0000
0000
0000
0000
0000
0000
0000
0000
0000
0000
0000
0000
0000
0000
0000
0000
0000
0000
0000
0000
0000
00M0
0000
0M00
0000
00M0
0M00
00M0
0M00
,  // measure 43
1000
0001
1000
0010
0100
0001
0010
0100
1000
0100
0010
0001
0400
0301
0040
0031
,  // measure 44
1000
0010
1000
0001
0010
0001
0100
0010
1000
0010
0100
0001
1000
0001
0010
0100
,  // measure 45
4000
0004
0000
0000
0000
0000
0000
0000
0000
0000
0000
0000
0000
0000
0000
0000
0000
0000
0000
0000
0000
0000
0000
0000
0000
0000
0000
0000
0000
0000
3003
0000
,  // measure 46
0MM0
0000
0000
0000
0000
0000
0000
0000
M22M
0000
0000
0330
1000
0001
1000
0001
,  // measure 47
0012
0000
0000
0000
1003
0001
0100
0001
0010
1000
0000
1000
0010
0000
0100
0000
,  // measure 48
2100
0000
0000
0000
0000
0000
0001
0000
0000
0000
0000
0000
3010
0000
0000
M010
0000
0000
0001
0000
0000
0000
0000
0000
0001
0000
0000
0000
0000
0000
0001
0000
0000
1000
0000
0000
0010
0000
0000
0000
0000
0000
0100
0000
0001
0000
1000
0000
,  // measure 49
0200
0000
1300
0200
1300
0020
0130
0001
,  // measure 50
1002
0013
0100
1000
0010
0100
0001
1000
,  // measure 51
2010
0000
0000
0000
3001
1000
0010
1000
0100
0001
0000
0001
0100
0000
0010
0000
,  // measure 52
0012
0000
0000
0000
0000
0000
1000
0000
0000
0000
0000
0000
0103
0000
0000
010M
0000
0000
1000
0000
0000
0000
0000
0000
1000
0000
0000
0000
0000
0000
1000
0000
0000
0001
0000
0000
0100
0000
0000
0000
0000
0000
0010
0000
1000
0000
0001
0000
,  // measure 53
0020
0000
0000
0000
0130
0000
0100
0000
0000
0000
0100
00M0
0100
0000
0010
0000
0100
0000
0001
0000
0400
0000
0000
0000
0310
0000
1000
0000
0001
0000
0100
0000
,  // measure 54
0001
0010
0100
1000
0001
0010
0100
1000
0001
0010
0100
1000
0001
0100
0001
0100
,  // measure 55
0220
0000
0000
0330
0000
0000
0000
0000
;

//---------------dance-single - Benpai----------------
#NOTES:
     dance-single:
     Benpai SH:
     Hard:
     8:
     0.438940,0.513558,0.153226,0.475806,0.270161,381.000000,362.000000,19.000000,59.000000,9.000000,0.000000,0.438940,0.513558,0.153226,0.475806,0.270161,381.000000,362.000000,19.000000,59.000000,9.000000,0.000000:
0000
0000
0000
0000
,
0000
0000
0000
0000
,
0000
0000
0000
0000
,
0000
0000
0000
0000
,
0000
0000
0000
0000
,
1000
0000
0010
0000
0200
0000
0000
0301
0000
0001
0000
0001
0010
0000
0010
0000
,
0200
0000
0000
0000
1300
0000
0000
0001
0000
0001
0000
0001
0100
0000
0010
0000
,
1010
0000
0000
0000
1000
0000
0000
0100
0000
0100
0000
0100
0010
0000
0010
0000
,
0002
0000
0000
0000
0000
1003
0000
1000
0000
1000
0010
0000
0200
0000
0000
0300
,
0110
0000
0010
0000
1000
0000
0002
0000
0003
0000
0010
0000
0020
0000
0000
0030
,
0100
0000
0000
0000
0000
0000
10M0
0000
00M0
0000
00M0
0000
00M1
0000
0000
0000
0000
0000
0020
0000
0000
0000
0000
0000
0030
0000
0000
0000
0000
0000
0100
0000
0000
1000
0000
0000
0200
0000
0000
0000
0000
0000
0310
0000
0000
0000
0000
0000
,
0001
0000
1000
0000
0010
0000
0200
0000
0300
0000
0001
0000
0002
0000
0000
0003
,
1000
0000
0100
0010
0001
0000
1000
0010
0100
0000
0010
1000
0001
0000
0004
0000
,
1003
0100
0010
0001
1000
0010
0400
0304
,
4003
3100
0010
0100
1000
0010
0010
0100
,
0004
0000
0000
0000
0000
0000
0000
0000
0000
0000
0000
0000
0000
0000
0000
0003
,
0000
0000
0000
0000
0000
0000
0000
0000
0M22
0000
0000
0033
1000
0000
1000
0000
,
2001
0000
0000
0000
3010
0000
0100
0000
0001
0010
0000
0010
0100
0000
0100
0000
,
2000
0000
0000
0000
3010
0000
0400
0000
0302
0000
1003
0010
0000
1000
0100
0000
,
0020
0000
0000
0000
0000
0000
0130
0000
0000
1000
0000
0001
0200
0000
0000
0310
0000
0000
1000
0000
0000
0001
0000
0000
,
0102
0000
0000
0000
0000
0000
1003
0000
0100
0000
0010
0000
0001
0000
1000
0000
0010
0000
0100
0000
0000
0001
0000
0000
,
2001
0000
0000
0000
3010
0000
0100
0000
0001
0010
0100
0000
2000
0000
0000
0000
,
3001
0000
0100
0000
0010
0000
0100
0000
0001
0000
0010
0000
0200
0000
0000
0300
,
2100
0000
0000
0000
3001
0000
0100
0000
0010
0000
0100
0001
0100
0000
0020
0000
,
1030
0000
0001
1000
0100
0000
0010
0001
1000
0000
0010
0100
0001
0000
0001
0000
,
2000
0000
0000
0000
0000
0000
0000
0000
0000
0000
0000
0000
3100
0000
0000
0000
0000
0000
0010
0000
0000
0000
0001
0000
1000
0000
0000
0010
0000
0000
0000
0000
0000
0010
0000
0000
0100
0000
0000
0000
0000
0000
0100
0000
0000
0000
0000
0000
,
0002
0000
1003
0000
0400
0000
0310
0000
0004
0000
0103
0000
0020
0000
0000
0030
,
2010
0000
0000
0000
0000
0000
3001
0000
0000
1000
0000
0100
0020
0000
0000
0031
0000
0000
0100
0000
0000
0010
0000
0000
,
0020
0000
0000
0000
0130
0000
0001
0000
0020
0000
0000
0000
0000
0000
0000
0030
,
0110
0000
0100
0000
1000
0000
0002
0000
0103
0010
0000
0010
2000
0000
0000
0000
,
3001
0000
0010
0000
0001
0000
1000
0000
0010
0000
0100
0000
0002
0000
0000
0003
,
2001
0000
0000
0000
3010
0000
0100
0000
0001
0000
0010
0100
0010
0000
0002
0000
,
1003
0000
0010
0100
0001
0000
1000
0100
0010
0000
0001
1000
0010
0000
0010
0000
,
0120
0000
0000
0000
1030
0000
0001
0000
0010
0100
0000
0100
1000
0000
0001
0000
,
0200
0000
0000
0000
0310
0100
0001
0000
0001
0000
0010
0000
0100
0000
4000
0000
,
3002
0000
0103
0020
1030
0200
1300
0001
,
0102
0000
1003
0100
0010
0100
1000
0010
,
0102
0000
0000
0000
1003
0000
0100
0000
0010
0001
0000
0001
1000
0000
0010
0000
,
0200
0000
0000
0000
0310
1000
0001
0000
0001
0000
0010
0000
0100
0000
4000
0000
,
3020
0000
0130
0001
0000
0001
1000
0000
0100
0010
0100
0000
2000
0000
3002
0000
,
0103
0000
0010
1000
0001
0000
0010
0100
1000
0000
0010
0100
0001
0000
1000
0000
,
2002
3003
0000
0000
,
0000
0000
0000
0000
0000
0000
0000
0000
0000
0000
0000
0000
00M0
00M0
00M0
00M0
,
0001
1000
0001
0010
0100
1000
0004
0403
,
0310
1000
0001
0010
0100
1000
1000
0001
,
0400
0000
0000
0000
,
0300
0000
0000
0000
0000
0000
0000
0000
0220
0000
0000
0330
1000
0000
1000
0000
,
2001
0000
0000
0000
3100
0000
0010
0000
0001
1000
0000
1000
0010
0000
0100
0000
,
0002
0000
0000
0000
1003
0100
0010
0000
0010
0000
0001
0000
0100
0000
0040
0000
,
2030
0000
3001
0020
0031
0200
0310
1000
,
2001
0000
3100
0010
0001
0100
0010
1000
,
2100
0000
0000
0000
3001
0000
0100
0000
0010
1000
0000
1000
0001
0000
0010
0000
,
0200
0000
0000
0000
1300
0001
0100
0000
0100
0000
0010
0000
1000
0000
0400
0000
,
0310
0000
0001
1000
0000
1000
0010
0000
0100
0000
0001
0000
0010
0000
0100
0000
,
1000
0000
0001
0100
0010
0000
0100
0001
1000
0000
0100
0010
0001
0000
1000
0000
,
1002
0000
0000
0003
0000
0000
0000
0000
;

//---------------dance-single - Benpai----------------
#NOTES:
     dance-single:
     Benpai SM:
     Medium:
     6:
     0.334101,0.378730,0.064516,0.435484,0.040323,290.000000,282.000000,8.000000,54.000000,1.000000,0.000000,0.334101,0.378730,0.064516,0.435484,0.040323,290.000000,282.000000,8.000000,54.000000,1.000000,0.000000:
0000
0000
0000
0000
,
0000
0000
0000
0000
,
0000
0000
0000
0000
,
0000
0000
0000
0000
,
0000
0000
0000
0000
,
1000
0010
0100
0000
0001
0000
0010
0010
,
0200
0000
1300
0000
0010
0100
0001
0000
,
1000
0000
0010
0000
0100
0000
0001
0001
,
2000
0000
0000
0000
3000
0100
0000
0100
0000
0100
0000
0000
0020
0000
0000
0030
,
0110
0000
0000
0000
0000
0000
0002
0000
0003
0000
0100
0000
0200
0000
0000
0300
,
0000
0000
0000
0020
0030
1000
2000
3100
,
0000
0000
0000
0000
0000
0000
0020
0000
0030
0000
0001
0000
0002
0000
0000
0003
,
1000
0100
1000
0001
1000
0010
0400
0000
,
0301
1000
0100
0020
0030
0001
0400
0340
,
1030
0001
1000
0020
0030
0100
0100
0001
,
2000
0000
0000
0000
0000
0000
0000
0000
0000
0000
0000
0000
0000
0000
0000
3000
,
0000
0000
0000
0000
0000
0000
0000
0000
0M20
0000
0000
0030
0100
0000
0100
0000
,
0002
0000
0000
0000
0013
0000
0100
0000
1000
0010
0000
0000
0010
0000
0010
0000
,
0200
0000
0301
1000
0100
0010
0001
0100
,
0020
0000
0130
0100
0002
0013
0100
1000
,
0002
0000
0403
0000
0000
0000
0310
1000
,
2001
0000
3100
0010
0001
1000
0020
0000
,
0130
0001
0100
0010
1000
0001
0020
0000
,
0230
0000
1300
0001
0100
0010
0010
0000
,
1000
0001
0010
0100
0010
0001
1000
0001
,
0200
0000
0000
0000
0310
0000
0000
0000
1000
0001
0000
0000
0001
0000
0001
0000
,
0010
0000
0100
0000
1000
0000
0010
0000
0100
0000
0001
0000
0020
0000
0000
0030
,
0210
0000
1300
1000
0020
0130
0001
0010
,
0200
0000
0310
0001
2000
0000
0000
0000
,
3010
0000
0100
0000
0001
0000
0000
0000
0100
0010
0000
0000
0020
0000
0000
0000
,
1030
0000
0001
0000
1000
0000
0100
0000
0010
0000
0001
0000
0200
0000
0000
0300
,
0120
0000
1030
0001
0010
0100
0100
2000
,
3001
1000
0010
0100
0001
1000
0100
0100
,
0020
0000
0000
0000
0130
0000
1000
0000
0001
0100
0000
0000
0100
0000
0001
0000
,
2000
0000
3001
0010
0010
0000
0100
0000
,
1200
0000
1300
0001
0000
0100
0010
1000
,
0002
0000
1003
0000
0001
0000
0100
0010
,
2000
0000
0000
0000
3001
0000
0010
0000
0100
1000
0000
0000
1000
0000
0001
0000
,
0200
0000
0310
1000
1000
0010
0100
0001
,
0020
0000
0130
0000
1000
1000
0001
0100
,
0010
0100
0001
0010
0100
0010
0001
1000
,
2002
3003
0000
0000
,
0000
0000
0000
0000
,
1000
0001
0010
0200
0300
1000
0040
0430
,
0301
1000
0001
0200
0300
0010
0010
1000
,
0002
0000
0000
0000
0000
0000
0000
0000
0000
0000
0000
0000
0000
0000
0000
0003
,
0000
0000
0000
0000
0020
0000
0130
0100
,
2000
0000
0000
0000
3010
0000
0100
0000
0001
1000
0000
0000
1000
0000
0001
0000
,
0020
0000
0130
1000
1000
0000
0010
0000
,
0120
0000
1030
0001
0000
0010
0100
1000
,
0002
0000
1003
0000
0001
0000
0100
0010
,
2000
0000
0000
0000
3001
0000
0010
0000
0100
1000
0000
0000
1000
0000
0001
0000
,
0200
0000
0310
1000
1000
0010
0100
0001
,
0020
0000
0130
0000
1000
0000
0010
0100
,
0001
1000
0001
0010
0100
0010
0001
1000
,
2002
3003
0000
0000
;

//---------------dance-single - Benpai----------------
#NOTES:
     dance-single:
     Benpai SN:
     Beginner:
     1:
     0.065668,0.088710,0.056452,0.016129,0.000000,57.000000,50.000000,7.000000,2.000000,0.000000,0.000000,0.065668,0.088710,0.056452,0.016129,0.000000,57.000000,50.000000,7.000000,2.000000,0.000000,0.000000:
0000
0000
0000
0000
,
0000
0000
0000
0000
,
0000
0000
0000
0000
,
0000
0000
0000
0000
,
0000
0000
0000
0000
,
0001
0000
0000
0000
,
0100
0000
0000
0000
,
0001
0000
0000
0000
,
1000
0000
0000
0000
,
0010
0000
0000
0000
,
0010
0000
0000
0000
,
0100
0000
0000
0000
,
0100
0000
0000
0000
,
0001
0000
0000
0000
,
0001
0000
0000
0000
,
1000
0000
0000
0000
,
0000
0000
0000
0000
0000
0000
0000
0000
0200
0000
0000
0300
0000
0000
0000
0000
,
1001
0000
0000
0000
,
1000
0000
0000
0000
,
0100
0000
0000
0000
,
1000
0000
0000
0000
,
0001
0000
0000
0000
,
0100
0000
0000
0000
,
0010
0000
0000
0000
,
0100
0000
0000
0000
,
0001
0000
0000
0000
,
1000
0000
0000
0000
,
0100
0000
0000
0000
,
0100
0000
0000
0000
,
0110
0000
0000
0000
,
1000
0000
0000
0000
,
0001
0000
0000
0000
,
0100
0000
0000
0000
,
0010
0000
0000
0000
,
0100
0000
0000
0000
,
0001
0000
0000
0000
,
1000
0000
0000
0000
,
1001
0000
0000
0000
,
0100
0000
0000
0000
,
0010
0000
0000
0000
,
0100
0000
0000
0000
,
0110
0000
0000
0000
,
0000
0000
0000
0000
,
1001
0000
0000
0000
,
0001
0000
0000
0000
,
0010
0000
0000
0000
,
0000
0000
0000
0000
0000
0000
0000
0000
0200
0000
0000
0300
0000
0000
0000
0000
,
1001
0000
0000
0000
,
1000
0000
0000
0000
,
0010
0000
0000
0000
,
0100
0000
0000
0000
,
0001
0000
0000
0000
,
1000
0000
0000
0000
,
0100
0000
0000
0000
,
0010
0000
0000
0000
,
0110
0000
0000
0000
;

//---------------dance-single - Benpai----------------
#NOTES:
     dance-single:
     Benpai SE:
     Easy:
     3:
     0.199309,0.221774,0.112903,0.088710,0.000000,173.000000,159.000000,14.000000,11.000000,0.000000,0.000000,0.199309,0.221774,0.112903,0.088710,0.000000,173.000000,159.000000,14.000000,11.000000,0.000000,0.000000:
0000
0000
0000
0000
,
0000
0000
0000
0000
,
0000
0000
0000
0000
,
0000
0000
0000
0000
,
0000
0000
0000
0000
,
0001
0000
0001
0010
,
0100
0000
0010
0001
,
1000
0000
1000
0010
,
0100
0000
0000
0110
,
1001
0000
0000
0000
,
0001
0000
0000
0000
,
0100
0000
0000
0000
,
0100
0100
0100
0100
,
0010
1000
0001
0010
,
0100
1000
0001
0100
,
0020
0000
0000
0000
0000
0000
0000
0000
0000
0000
0000
0000
0000
0000
0000
0030
,
0000
0000
0000
0000
0000
0000
0000
0000
0220
0000
0000
0330
0000
0000
0000
0000
,
1001
1000
0100
1000
,
0001
0100
0010
0100
,
0001
1000
0100
0010
,
0100
2000
0000
3001
,
1001
1000
0010
0100
,
0001
0001
0001
0020
,
0130
1000
0001
0100
,
0010
0010
0010
0010
,
1000
0001
1000
1000
,
0100
0010
0001
1000
,
0010
0100
0100
0001
,
2000
0000
3000
0000
0020
0000
0000
0030
,
0110
0100
0001
0001
,
1000
1000
1000
0200
,
0310
0100
1000
0001
,
0100
0100
0100
0100
,
0110
0010
1000
1000
,
0100
0010
0001
0010
,
0100
1000
0001
0100
,
0010
1000
0001
1000
,
1001
0001
0010
0010
,
0100
1000
0001
0100
,
0010
0100
0001
1000
,
0100
0100
0100
0100
,
1100
0000
0000
0000
,
0000
0000
0000
0000
,
1001
0000
0000
0000
,
0001
0000
0000
0000
,
0020
0000
0000
0000
0000
0000
0000
0000
0000
0000
0000
0000
0000
0000
0000
0030
,
0000
0000
0000
0000
0000
0000
0000
0000
0220
0000
0000
0330
0000
0000
0000
0000
,
1001
1000
0001
0001
,
0100
0010
1000
0010
,
0100
0001
1000
0100
,
0010
0001
1000
0001
,
1001
1000
0010
0010
,
0100
0001
1000
0100
,
0010
0100
1000
0001
,
0100
0100
0100
0100
,
0110
0000
0000
0000
;
