#VERSION:0.83;
#TITLE:Caught Red Handed;
#SUBTITLE:;
#ARTIST:Jake Kaufman;
#TITLETRANSLIT:;
#SUBTITLETRANSLIT:;
#ARTISTTRANSLIT:;
#GENRE:;
#ORIGIN:;
#CREDIT:;
#BANNER:Caught Red Handed-bn.png;
#BACKGROUND:Caught Red Handed-bg.png;
#PREVIEWVID:;
#JACKET:Caught Red Handed-jacket.png;
#CDIMAGE:;
#DISCIMAGE:Caught Red Handed-bg-wide.png;
#LYRICSPATH:;
#CDTITLE:maxx-cdtitle.png;
#MUSIC:Caught Red Handed.ogg;
#OFFSET:-0.141000;
#SAMPLESTART:29.204000;
#SAMPLELENGTH:15.000000;
#SELECTABLE:YES;
#DISPLAYBPM:128.000000;
#BPMS:0.000=128.000,
28.000=192.000,
29.500=128.000;
#STOPS:28.250=0.047,
28.500=0.047,
28.750=0.047,
29.000=0.047,
29.250=0.047;
#DELAYS:;
#WARPS:;
#TIMESIGNATURES:0.000=4=4;
#TICKCOUNTS:0.000=4;
#COMBOS:0.000=1;
#SPEEDS:0.000=1.000=0.000=0;
#SCROLLS:0.000=1.000;
#FAKES:;
#LABELS:0.000=Song Start;
#BGCHANGES:;
#KEYSOUNDS:;
#ATTACKS:
;

//---------------dance-single - Maxx----------------
#NOTEDATA:;
#CHARTNAME:Maxx;
#STEPSTYPE:dance-single;
#DESCRIPTION:Maxx;
#CHARTSTYLE:;
#DIFFICULTY:Challenge;
#METER:10;
#RADARVALUES:0.674896,0.716521,0.396105,0.251188,0.695598,489.000000,448.000000,41.000000,26.000000,26.000000,8.000000,2.000000,0.000000,0.000000,0.674896,0.716521,0.396105,0.251188,0.695598,489.000000,448.000000,41.000000,26.000000,26.000000,8.000000,2.000000,0.000000,0.000000;
#CREDIT:Maxx;
#DISPLAYBPM:128.000000;
#NOTES:
// measure 0
0000
0000
0000
0000
,  // measure 1
0000
0000
0000
0000
,  // measure 2
0000
0000
0000
0000
,  // measure 3
0000
0000
0000
0000
,  // measure 4
0001
1000
0000
1000
0010
0000
1000
0001
0000
0001
0010
0000
0100
0000
1000
0000
,  // measure 5
0001
0100
0001
0100
0010
0000
0010
0000
1000
0000
0001
0000
0010
0000
0100
0000
,  // measure 6
0000
1000
0000
1000
0000
0001
0000
0010
0000
0001
0000
1000
0000
0001
0100
0000
,  // measure 7
0040
0000
0000
0000
0000
0000
0000
0000
0000
0000
0000
0000
0000
0000
0000
0030
0000
0000
1000
0000
0001
0000
1000
0000
0101
0000
0000
0000
0000
0000
1000
0000
0000
0000
0000
0000
0011
0000
0000
0000
0000
0000
0100
0000
0000
0000
0000
0000
,  // measure 8
1001
0001
0000
0100
0000
010M
1000
0000
0020
0000
0000
0130
0000
0000
0001
0000
,  // measure 9
1000
0001
0010
0000
00M0
1000
0010
0000
0110
0000
0010
0000
1000
0000
0001
0000
,  // measure 10
1000
0100
0000
0100
0000
M100
0001
0000
0020
0000
0000
0000
0031
0000
0100
0000
,  // measure 11
0001
1000
0100
0000
1000
0001
0200
0000
0011
0000
0000
0000
0011
0000
0000
0000
,  // measure 12
0301
0010
0000
0010
0000
001M
1000
0000
0002
0000
0000
1003
0000
0000
0100
0000
,  // measure 13
1000
0001
0100
0000
0M00
1000
0100
0000
1100
0000
1000
0000
0010
0000
0100
0000
,  // measure 14
0001
0000
0000
0000
0000
0000
0000
0000
1000
0000
0000
0000
0000
0001
0000
0000
0010
0000
0000
0000
0000
0000
0000
0000
0001
0000
0000
0000
0000
1000
0000
0000
0001
0000
0000
0000
0000
1000
0000
0000
0100
0000
0000
0000
0000
0000
0000
0000
0110
0000
0000
0000
0000
0000
0000
0000
0010
0000
0000
0000
0000
0000
0000
0000
,  // measure 15
0001
0000
0000
0000
0000
0000
0000
0000
1000
0000
0000
0000
0000
0000
0000
0000
0001
0000
0000
0000
0000
0000
0000
0000
1000
0000
0000
0000
0000
0000
0000
0000
0000
0000
0000
0000
0000
0000
0000
0001
0000
0000
0000
0000
0000
0000
0000
0000
0100
0000
0000
0000
0000
0000
0000
0000
0000
0000
0000
0000
0000
0000
0000
0001
0000
0000
0000
0000
0000
0000
0000
0000
1000
0000
0000
0000
0000
0000
0000
0000
0000
0000
0000
0000
0000
0000
0000
0000
0000
0000
0000
0000
0000
0000
0000
0000
0100
0000
0000
0000
0000
0000
0000
0000
0000
0000
0000
0000
0000
0000
0000
0000
0000
0000
0000
0000
0000
0000
0000
0000
0000
0000
0000
0000
0000
0000
0000
0000
0000
0000
0000
0000
1000
0000
0000
0000
0000
0000
0000
0000
0000
0000
0000
0000
0011
0000
0000
0000
0000
0000
0000
0000
0000
0000
0000
0000
0000
0000
0000
0000
0000
0000
0000
0000
0000
0000
0000
0000
0100
0000
0000
0000
0000
0000
0000
0000
0000
0000
0000
0000
0000
0000
0000
0000
0000
0000
0000
0000
0000
0000
0000
0000
,  // measure 16
1001
0001
0000
0100
0000
010M
1000
0000
0020
0000
0000
0130
0000
0000
0001
0000
,  // measure 17
1000
0001
0010
0000
00M0
1000
0010
0000
1010
0000
0100
0000
0001
0000
0010
0000
,  // measure 18
0001
0100
0000
0100
0000
010M
1000
0000
0020
0000
0000
0000
1030
0000
0001
0000
,  // measure 19
0010
0001
1000
0000
0010
1000
0002
0000
1100
0000
0000
0000
1100
0000
0003
0000
,  // measure 20
1000
0010
0000
0010
0000
M010
0001
0000
0200
0000
0000
0310
0000
0000
1000
0000
,  // measure 21
0001
1000
0010
0000
00M0
0001
0010
0000
0110
0000
0010
0000
0001
0000
1000
0000
,  // measure 22
0010
0000
0000
0000
0000
0000
0000
0000
0100
0000
0000
0000
0000
0001
0000
0000
1000
0000
0000
0000
0000
0000
0000
0000
0001
0000
0000
0000
0000
1000
0000
0000
0001
0000
0000
0000
0000
1000
0000
0000
0100
0000
0000
0000
0000
0000
0000
0000
0010
0000
0000
0000
0000
0000
0000
0000
0001
0000
0000
0000
0000
0000
0000
0000
,  // measure 23
1000
0000
0000
0010
0000
0000
0100
0000
0000
0001
0000
0000
1000
0000
0000
0010
0000
0000
0100
0000
0001
0000
1000
0000
0100
0000
0000
0000
0000
0000
0010
0000
0000
0000
0000
0000
0001
0000
0000
0000
0000
0000
1000
0000
0000
0000
0000
0000
,  // measure 24
1001
0001
0000
0010
0000
001M
1000
0000
0200
0000
0000
0310
0000
0000
0001
0000
,  // measure 25
1000
0001
0100
0000
0M00
1000
0100
0000
1100
0000
1000
0000
0001
0000
0100
0000
,  // measure 26
0001
0010
0000
0010
0000
001M
1000
0000
0002
0000
0000
0000
1003
0000
0100
0000
,  // measure 27
0010
0001
1000
0000
0010
1000
0002
0000
1010
0000
0000
0000
1010
0000
0003
0000
,  // measure 28
1000
0010
0000
0010
0000
M010
0001
0000
0012
0000
0000
0103
0000
0000
0010
0000
,  // measure 29
1000
0001
0010
0000
00M0
1000
0010
0000
1010
0000
0100
0000
0002
0000
0010
0000
,  // measure 30
1003
0000
0000
0000
0000
0000
0000
0000
0010
0000
0000
0000
0000
0100
0000
0000
0001
0000
0000
0000
0000
0000
0000
0000
0010
0000
0000
0000
0000
0000
0000
0000
2000
0000
0000
0000
0000
0000
0000
0000
0000
0000
0000
0000
0000
0000
0000
0000
3010
0000
0000
0000
0000
0000
0000
0000
0001
0000
0000
0000
0000
0000
0000
0000
,  // measure 31
1000
0000
0000
0000
0000
0000
0000
0000
0001
0000
0000
0000
0000
0000
0000
0000
1000
0000
0000
0000
0000
0000
0000
0000
0010
0000
0000
0000
0000
0000
0000
0000
0000
0000
0000
0000
0000
0000
0000
0000
0000
0000
0000
0000
0000
0000
0000
0000
0100
0000
0000
0000
0000
0000
0000
0000
0000
0000
0000
0000
0000
0000
0000
0001
0000
0000
0000
0000
0000
0000
0000
0000
1000
0000
0000
0000
0000
0000
0000
0000
0000
0000
0000
0000
0000
0000
0000
0000
0000
0000
0000
0000
0000
0000
0000
0000
1001
0000
0000
0000
0000
0000
0000
0000
0000
0000
0000
0000
0000
0000
0000
0000
0000
0000
0000
0000
0000
0000
0000
0000
0000
0000
0000
0000
0000
0000
0000
0000
0000
0000
0000
0000
0000
0000
0000
0001
0000
0000
0000
0000
0000
0000
0000
0000
1000
0000
0000
0000
0000
0000
0000
0000
0000
0000
0000
0000
0000
0000
0000
0000
0000
0000
0000
0000
0000
0000
0000
0000
0100
0000
0000
0000
0000
0000
0000
0000
0000
0000
0000
0000
0000
0000
0000
0000
0000
0000
0000
0000
0000
0000
0000
0000
,  // measure 32
0110
0010
0000
0001
0000
1000
0010
0000
0210
0000
0000
0301
0000
0000
1000
0000
,  // measure 33
0001
1000
0100
0000
0M00
0001
0100
0000
0101
0000
0001
0000
0010
0000
0100
0000
,  // measure 34
1000
0010
0000
0010
0000
M010
0001
0000
2000
0000
0000
0000
3001
0000
0100
0000
,  // measure 35
0010
1000
0001
0000
0010
0001
2000
0000
0101
0000
0000
0000
0101
0000
3000
0000
,  // measure 36
0001
0010
0000
0010
0000
001M
1000
0000
1020
0000
0000
0130
0000
0000
0001
0000
,  // measure 37
1000
0001
0010
0000
0000
1000
0010
0000
0110
0000
0100
0000
0002
0000
0010
0000
,  // measure 38
1003
0000
0000
0000
0000
0000
0000
0000
0010
0000
0000
0000
0000
1000
0000
0000
0001
0000
0000
0000
0000
0000
0000
0000
1000
0000
0000
0000
0000
0001
0000
0000
0010
0000
0000
0000
0000
0001
0000
0000
1000
0000
0000
0000
0000
0000
0000
0000
0010
0000
0000
0000
0000
0000
0000
0000
0100
0000
0000
0000
0000
0000
0000
0000
,  // measure 39
0001
0000
0000
0000
0000
0000
0000
0000
1000
0000
0000
0000
0000
0001
0000
0000
0010
0000
0000
0000
0000
0000
0000
0000
0100
0000
0000
0000
0000
0000
0000
0000
2001
0000
0000
0000
0000
0000
0000
0000
0000
0000
0000
0000
0000
0000
0000
0000
3001
0000
0000
0000
0100
0000
0000
0000
0010
0000
0000
0000
0100
0000
0000
0000
,  // measure 40
0001
0000
1000
0001
1000
0100
0010
0001
0000
0001
2000
0000
0001
0000
3001
0000
,  // measure 41
0100
0000
0010
1000
0010
1000
0001
0010
0000
0001
2000
0000
0010
0000
3010
0000
,  // measure 42
0100
0001
1000
0100
0001
0100
0010
0001
,  // measure 43
0000
1000
0010
0100
1100
0000
0110
0100
,  // measure 44
0100
0000
0001
1000
0100
0010
1000
0010
0000
0001
2000
0000
0010
0000
3010
0000
,  // measure 45
0100
0000
0001
1000
0001
1000
0100
0010
0001
0000
1000
0000
0010
0000
0100
0000
,  // measure 46
0001
1000
0002
0000
0010
0000
0000
0000
1000
0000
0000
0000
0103
0000
0000
0000
,  // measure 47
4000
0000
0010
0000
0000
0000
0001
0000
0000
0000
3100
0000
1000
0001
0100
0010
,  // measure 48
1000
0000
0001
0100
0001
1000
0100
0010
0000
0001
2000
0000
0010
0000
3010
0000
,  // measure 49
0100
0000
0001
0010
0001
1000
0010
0200
0000
0000
0000
0000
0301
0000
0001
0000
,  // measure 50
1000
0100
0010
0100
0001
0100
0010
0001
,  // measure 51
0000
1000
0010
0001
0011
0000
0110
0100
,  // measure 52
1001
0000
0001
0010
0001
0010
0001
1000
0000
0010
0100
0000
0001
0000
1000
0001
,  // measure 53
1001
0000
1100
0000
0110
0011
0000
1001
,  // measure 54
0000
0000
0101
0000
1010
0000
0000
0000
000M
000M
000M
000M
000M
000M
000M
000M
;

//---------------dance-single - Feraligatr----------------
#NOTEDATA:;
#CHARTNAME:Feraligatr SH;
#STEPSTYPE:dance-single;
#DESCRIPTION:Feraligatr;
#CHARTSTYLE:;
#DIFFICULTY:Hard;
#METER:8;
#RADARVALUES:0.611409,0.658162,0.241527,0.125594,0.473393,443.000000,418.000000,25.000000,13.000000,0.000000,0.000000,3.000000,0.000000,0.000000,0.611409,0.658162,0.241527,0.125594,0.473393,443.000000,418.000000,25.000000,13.000000,0.000000,0.000000,3.000000,0.000000,0.000000;
#CREDIT:Feraligatr;
#DISPLAYBPM:128.000000;
#NOTES:
0000
0000
0000
0000
,
0000
0000
0000
0000
,
0000
0000
0000
0000
,
0000
0000
0000
0000
,
1000
0010
0000
0010
0000
0000
0100
0001
0000
0001
1000
0000
0100
0000
0010
0000
,
0001
1000
0001
1000
0010
0000
0010
0000
0100
0000
0100
0000
0001
0000
1000
0000
,
0100
0010
0000
0010
0000
0000
0001
1000
0000
1000
0000
0010
0000
0100
0001
0000
,
0040
0000
0000
0000
0000
0030
0000
0000
1100
0000
0010
0000
1100
0000
1000
0000
,
0001
0100
0000
0010
0000
0000
1000
0000
0001
0000
0000
0010
0000
0000
0100
0000
,
1000
0000
0001
0100
0000
0010
1000
0000
0001
0000
0010
0000
0001
0000
0100
0000
,
0010
1000
0000
0001
0000
0010
0100
0000
2000
0000
0000
0000
3010
0000
0200
0000
,
0001
0000
0310
1000
1001
0000
1001
0000
,
0001
0010
0000
0100
0000
0000
1000
0000
0001
0000
0000
0100
0000
0000
0010
0000
,
1000
0000
0001
0010
0000
0001
1000
0000
0010
0000
0100
0000
0001
0000
1000
0000
,
0100
0000
0010
0000
0001
0000
0100
0000
0010
0000
0000
1000
0001
0000
0010
0000
,
0001
0100
0020
0000
1000
0000
0100
0030
1010
0000
1000
0100
0010
0000
0010
0000
,
0001
1000
0000
0010
0000
0100
0001
0000
1000
0000
0000
0100
0000
0000
0010
0000
,
0001
0000
1000
0010
0000
0100
0010
0000
1000
0000
0001
0000
0010
0000
0100
0000
,
1000
0001
0000
0100
0000
0010
1000
0000
0002
0000
0000
0000
0013
0000
0200
0000
,
1000
0000
0310
0001
1001
0000
1001
0000
,
1000
0010
0000
0100
0000
0000
0001
0000
1000
0000
0000
0100
0000
0000
0010
0000
,
0001
0000
1000
0010
0000
1000
0001
0000
0010
0000
0100
0000
0010
0000
0001
0000
,
0100
0001
1000
0010
1000
0100
0010
0001
,
0100
0010
1000
0100
0011
0001
0100
0010
,
1000
0100
0000
0010
0000
0001
1000
0000
0010
0100
0000
0001
1000
0000
0100
0000
,
0010
0001
1000
0010
0100
0001
1000
0100
,
0010
0001
0000
1000
0000
0010
0100
0000
0002
0000
0000
0000
0013
0000
0200
0000
,
1000
0000
0310
0001
0101
1000
1010
0001
,
0010
0100
0000
1000
0000
0001
0100
0000
0010
1000
0000
0001
1000
0000
0100
0000
,
0010
0001
1000
0010
0100
0001
1000
0100
,
0010
0100
1000
0010
0100
0001
0010
0100
,
1000
0001
0200
0000
0010
0000
0000
0000
0301
0000
1000
0000
0100
0000
0010
0000
,
0001
0100
0000
0010
0000
1000
0001
0000
0010
0100
0000
1000
0001
0000
0100
0000
,
0010
1000
0001
0010
0100
1000
0001
0100
,
0010
1000
0000
0001
0000
0010
0100
0000
2000
0000
0000
0000
3010
0000
0200
0000
,
0001
0000
0310
1000
1100
0010
1100
1000
,
0001
0100
0000
0010
0000
1000
0001
0000
0010
0100
0000
1000
0001
0000
0100
0000
,
0010
1000
0001
0010
0100
1000
0001
0100
,
0010
1000
0001
0010
0001
0100
0010
1000
,
0100
0000
0010
0000
0001
0000
1000
0000
1020
0000
0000
0000
1030
0100
0001
0100
,
1000
0000
0001
0100
0001
1000
0100
0010
0000
0010
0001
0000
1000
0000
0010
0000
,
0100
0000
0001
1000
0100
1000
0001
0100
0000
0100
0010
0000
1000
0000
0001
0000
,
0010
0100
0010
0001
0100
0010
0100
0010
,
1000
0100
1000
0010
0004
0000
0043
0000
,
1030
0000
0100
0010
0100
0010
0001
0100
0000
0100
0010
0000
1000
0000
0001
0000
,
0010
0000
0100
1000
0100
1000
0001
0100
0000
0000
0010
0000
0001
0000
0010
0000
,
1000
0100
2000
0000
0001
0000
0000
0000
0100
0000
0000
0000
0001
0000
0000
3000
,
1100
1000
0001
0100
1000
0001
0010
1000
,
1001
0000
0001
0010
0001
1000
0010
0100
0000
0001
0010
0000
0100
0000
1000
0000
,
0001
0000
0100
0010
1000
0001
1000
0200
0000
0000
0000
0000
0010
0000
0000
0300
,
0100
1000
0010
1000
0100
0010
0100
0010
,
0001
0100
0010
1000
1100
0001
0101
1000
,
1010
0000
0010
0100
0001
1000
0100
0010
0000
0001
1000
0000
0010
0000
0100
0000
,
1010
0000
0101
0000
1100
0011
0000
1001
,
0000
0101
1010
0000
0100
0000
0000
0000
;

//---------------dance-single - Feraligatr----------------
#NOTEDATA:;
#CHARTNAME:Feraligatr SM;
#STEPSTYPE:dance-single;
#DESCRIPTION:Feraligatr;
#CHARTSTYLE:Pad;
#DIFFICULTY:Medium;
#METER:6;
#RADARVALUES:0.398865,0.473876,0.028983,0.193222,0.024153,289.000000,286.000000,3.000000,20.000000,0.000000,0.000000,0.000000,0.000000,0.000000,0.398865,0.473876,0.028983,0.193222,0.024153,289.000000,286.000000,3.000000,20.000000,0.000000,0.000000,0.000000,0.000000,0.000000;
#CREDIT:Feraligatr;
#DISPLAYBPM:128.000000;
#NOTES:
0000
0000
0000
0000
,
0000
0000
0000
0000
,
0000
0000
0000
0000
,
0000
0000
0000
0000
,
1000
0001
0100
0001
1000
0100
0010
0000
,
0001
1000
0001
0100
0010
0010
0010
0000
,
1000
0001
0010
0100
1000
0001
0100
0010
,
2000
0000
0000
0000
0000
3000
0000
0000
0001
0000
0100
0000
0001
0000
0020
0000
,
0100
0001
0100
0001
,
0100
0030
1000
0000
0001
0100
0010
2000
,
0000
0000
0000
3001
0020
0000
0130
2000
,
0000
0000
3001
0001
,
0200
0010
0001
0010
,
0001
0000
0310
0000
1000
0001
0010
0200
,
0000
0000
0000
0000
0000
0000
0301
0000
0100
0000
0000
1000
0001
0000
0100
0000
,
0010
1000
0002
0000
0000
0000
0000
0000
0013
0000
0100
0000
1000
0000
0020
0000
,
0100
1000
0100
1000
,
0100
0030
0001
0000
1000
0100
0010
0002
,
0000
0000
0000
1003
0020
0000
0130
0002
,
0000
0000
1003
1000
,
0200
0010
1000
0010
,
1000
0000
0010
0000
1300
0001
0100
0020
,
1000
0000
0000
0000
0100
0000
0000
0000
1000
0030
0001
0000
0010
0000
0200
0000
,
1000
0000
0010
0000
1300
0010
0001
0010
,
1000
0000
0001
0000
0010
0100
1000
0000
,
0001
0000
0100
0000
0001
0010
1000
0010
,
0001
0000
0100
0010
1000
0000
0001
0010
,
0100
0000
1000
0001
0100
0000
0100
0000
,
0010
0000
1000
0000
0001
0010
0100
0000
,
1000
0000
0001
0000
1000
0010
0100
0001
,
1000
0000
0100
0010
0001
0000
0100
0010
,
1000
0100
0010
0000
0001
0100
1000
0100
,
0001
0000
0010
0000
0100
1000
0001
0000
,
0100
0000
0010
0000
1000
0100
0001
0100
,
1000
0000
0001
0100
0010
0000
1000
0100
,
0010
0001
0100
0100
,
0010
0000
1000
0000
0001
0010
0100
0000
,
1000
0000
0001
0000
0100
0010
1000
0100
,
0010
0000
0001
0000
0100
0010
1000
0001
,
0010
0000
0000
0000
0100
0000
0000
0000
1000
0000
0000
0000
0001
0100
0001
0100
,
0010
1000
0001
0010
0100
1000
0001
0000
,
1000
0010
0100
0001
1000
0100
0010
0000
,
0001
0100
0010
0100
0001
1000
0001
1000
,
0000
0001
1000
0100
0002
0000
0203
0000
,
1300
0001
0100
0010
1000
0001
0010
0000
,
0100
1000
0001
0100
0010
0100
0001
0010
,
0001
1000
0002
0000
0000
0000
0000
0000
0000
0000
0000
0000
0000
0000
0000
0000
,
1003
0010
1000
0010
0100
0001
1000
0100
,
0010
0001
1000
0010
0100
0001
1000
0000
,
0100
0010
0100
1000
0002
0000
0100
0000
,
1003
0100
0010
0001
1000
0010
1000
0010
,
0000
1000
0100
0002
0000
0000
0000
0000
,
0103
1000
0001
0100
0010
1000
0100
0000
,
0011
0000
1001
0000
1000
0010
0000
0110
,
0000
0100
0001
0000
1000
0000
0000
0000
;

//---------------dance-single - Feraligatr----------------
#NOTEDATA:;
#CHARTNAME:Feraligatr SE;
#STEPSTYPE:dance-single;
#DESCRIPTION:Feraligatr;
#CHARTSTYLE:;
#DIFFICULTY:Easy;
#METER:4;
#RADARVALUES:0.263610,0.289591,0.009661,0.038644,0.000000,191.000000,190.000000,1.000000,4.000000,0.000000,0.000000,0.000000,0.000000,0.000000,0.263610,0.289591,0.009661,0.038644,0.000000,191.000000,190.000000,1.000000,4.000000,0.000000,0.000000,0.000000,0.000000,0.000000;
#CREDIT:Feraligatr;
#DISPLAYBPM:128.000000;
#NOTES:
0000
0000
0000
0000
,
0000
0000
0000
0000
,
0000
0000
0000
0000
,
0000
0000
0000
0000
,
1000
1000
1000
0010
,
0200
0000
0000
0000
0001
0001
0301
0000
,
1000
0100
0010
0001
,
1001
0000
1000
1000
,
0010
0100
0001
0000
,
1000
0100
0010
0001
,
1000
0010
0100
0000
,
0001
1000
0100
0100
,
0010
0001
1000
0000
,
0010
0100
0001
1000
,
0100
0010
0001
0000
,
1000
0000
0010
0000
0100
0000
0001
0001
,
1000
0100
0010
0000
,
0001
1000
0010
0100
,
0001
1000
0100
0000
,
0010
0001
1000
1000
,
0010
0100
0001
0000
,
1000
0100
0010
0001
,
1000
0010
0100
0000
,
0010
1000
0002
0003
,
0010
0100
1000
0000
,
0001
0100
0010
1000
,
0001
0010
0100
0000
,
1000
0001
0100
0100
,
0010
1000
0001
0000
,
0010
0100
1000
0001
,
0100
0010
1000
0100
,
0010
0000
0001
0000
0100
0000
0010
0010
,
1000
0100
0010
0000
,
0001
1000
0010
0100
,
0001
1000
0100
0000
,
0010
0001
1000
1000
,
0010
0100
0001
0000
,
1000
0100
0010
0001
,
1000
0010
0100
0001
,
0010
0100
2000
3000
,
0001
0100
1000
0100
,
0001
0010
1000
0010
,
0001
0000
0100
0000
0010
1000
0010
1000
,
0001
0010
1000
0010
,
0001
0100
1000
0100
,
0001
0010
1000
0010
,
0002
0000
0000
0000
,
0103
0100
0010
0010
,
1000
0001
0010
0001
,
1000
0010
0100
0001
,
1000
0000
0100
0000
0010
0001
0010
0001
,
1000
0010
0001
0010
,
1000
0100
0001
0100
,
1000
0000
0001
0000
0100
0010
0000
1000
,
0000
0100
0010
0000
0001
0000
0000
0000
;

//---------------dance-single - Feraligatr----------------
#NOTEDATA:;
#CHARTNAME:Feraligatr SN;
#STEPSTYPE:dance-single;
#DESCRIPTION:Feraligatr;
#CHARTSTYLE:;
#DIFFICULTY:Beginner;
#METER:2;
#RADARVALUES:0.178040,0.236938,0.019322,0.019322,0.000000,129.000000,127.000000,2.000000,2.000000,0.000000,0.000000,0.000000,0.000000,0.000000,0.178040,0.236938,0.019322,0.019322,0.000000,129.000000,127.000000,2.000000,2.000000,0.000000,0.000000,0.000000,0.000000,0.000000;
#CREDIT:Feraligatr;
#DISPLAYBPM:128.000000;
#NOTES:
0000
0000
0000
0000
,
0000
0000
0000
0000
,
0000
0000
0000
0000
,
0000
0000
0000
0000
,
1000
0000
0010
0000
,
0100
0000
0001
0000
,
1000
0000
0100
0000
,
0020
0000
0000
0000
0000
0030
0000
0000
0001
0000
0000
0000
0001
0000
0000
0000
,
1000
0000
0010
0000
,
0100
0000
0001
1000
,
0100
0000
0010
0000
,
0001
0000
1000
1000
,
0010
0000
0100
0000
,
0001
0000
1000
0100
,
0010
0000
0001
0000
,
1000
0000
0010
0000
,
0100
0000
0001
0000
,
1000
0000
0100
0010
,
0001
0000
1000
0000
,
0010
0000
0100
0100
,
0001
0000
1000
0000
,
0100
0000
1000
0000
,
0001
0000
0100
0000
,
0010
0000
1000
0000
,
0001
0000
0001
0000
,
0010
0000
0010
0100
,
1000
0000
1000
0000
,
0001
0000
0100
0100
,
0010
0000
0010
0000
,
1000
0000
1000
0001
,
0010
0000
0010
0000
,
0100
0000
0100
0000
,
1000
0000
1000
0000
,
0001
0000
0001
0100
,
0010
0000
0010
0000
,
1000
0000
0001
0001
,
0010
0000
0010
0000
,
0100
0000
0100
1000
,
0001
0000
0001
0000
,
0100
0000
0100
0000
,
0001
0001
0001
0000
,
1000
1000
1000
0000
,
0100
0100
0100
0000
,
0010
0010
0001
0001
,
1000
1000
1000
0000
,
0010
0010
0010
0000
,
0200
0000
0000
0000
,
0301
1000
0001
1000
,
0100
0100
0100
0000
,
0010
0010
0010
0000
,
0001
0001
0001
0000
,
1000
1000
0010
0010
,
0100
0100
0100
0000
,
1001
0000
0110
0000
,
0000
0000
0100
0000
;
