#VERSION:0.83;
#TITLE:Came to Get Funky;
#SUBTITLE:;
#ARTIST:Cazztek;
#TITLETRANSLIT:;
#SUBTITLETRANSLIT:;
#ARTISTTRANSLIT:;
#GENRE:House;
#ORIGIN:;
#CREDIT:Feraligatr;
#BANNER:c2gf-bn.png;
#BACKGROUND:c2gf-bg-wide.png;
#PREVIEWVID:;
#JACKET:c2gf-jacket.png;
#CDIMAGE:FeraligatrV4-cd.png;
#DISCIMAGE:;
#LYRICSPATH:;
#CDTITLE:FeraligatrV4-cd.png;
#MUSIC:Came to Get Funky.ogg;
#OFFSET:0.008000;
#SAMPLESTART:29.024000;
#SAMPLELENGTH:15.485000;
#SELECTABLE:YES;
#DISPLAYBPM:124.000000;
#BPMS:0.000=124.000,
128.000=186.000,
128.500=93.000,
129.000=124.000,
144.000=186.000,
144.500=93.000,
145.000=124.000,
181.000=82.670,
184.000=124.000,
220.000=186.000,
220.500=93.000,
221.000=124.000,
236.000=186.000,
236.500=93.000,
237.000=124.000;
#STOPS:60.000=1.452,
184.000=1.210;
#DELAYS:;
#WARPS:;
#TIMESIGNATURES:0.000=4=4;
#TICKCOUNTS:0.000=4;
#COMBOS:0.000=1;
#SPEEDS:0.000=1.000=0.000=0;
#SCROLLS:0.000=1.000;
#FAKES:;
#LABELS:0.000=Song Start;
#BGCHANGES:;
#KEYSOUNDS:;
#ATTACKS:
;

//---------------dance-single - Feraligatr----------------
#NOTEDATA:;
#CHARTNAME:Feraligatr;
#STEPSTYPE:dance-single;
#DESCRIPTION:Feraligatr;
#CHARTSTYLE:Pad;
#DIFFICULTY:Challenge;
#METER:10;
#RADARVALUES:0.698413,0.814360,0.444444,0.412698,0.718254,616.000000,560.000000,56.000000,52.000000,11.000000,0.000000,1.000000,0.000000,0.000000,0.698413,0.814360,0.444444,0.412698,0.718254,616.000000,560.000000,56.000000,52.000000,11.000000,0.000000,1.000000,0.000000,0.000000;
#CREDIT:Feraligatr;
#DISPLAYBPM:124.000000;
#NOTES:
// measure 0
0000
0000
0000
0000
,  // measure 1
0000
0000
0000
0000
,  // measure 2
0000
0000
0000
0000
,  // measure 3
0000
0000
0000
0000
,  // measure 4
2001
0000
0000
0000
3001
0100
0010
0000
1000
0000
1000
0000
1000
0001
0010
0000
,  // measure 5
0210
0000
0000
0000
0310
0001
1000
0010
0000
0010
0100
0000
0001
1000
0100
0000
,  // measure 6
0020
0000
0000
0000
0130
1000
0001
0000
0100
0000
0100
0000
0100
0010
1000
0000
,  // measure 7
0001
0000
0001
0100
0010
1000
0001
1000
0100
1000
0001
0100
0010
0100
0001
0010
,  // measure 8
0200
0000
0000
1300
0020
0000
0130
0000
0002
0000
1003
0000
0002
0000
0013
0000
,  // measure 9
0002
0000
0000
0000
1003
0000
0010
0000
0100
0000
0001
0000
0100
0000
0001
0010
,  // measure 10
0200
0000
0000
1300
0020
0000
0130
0000
0002
0000
1003
0000
0002
0000
0013
0000
,  // measure 11
0002
0000
0000
0000
1003
0000
0010
0000
2000
0000
3001
0000
0100
0000
0001
0010
,  // measure 12
0100
0000
1000
0001
1000
0000
0001
0100
0000
0100
0010
0000
0010
0000
0000
0000
,  // measure 13
0100
0000
0001
1000
0001
0000
0010
0100
0000
0100
1000
0000
1000
0000
0000
0000
,  // measure 14
0001
0000
1000
0010
1000
0000
0001
0010
0000
0010
0100
0000
0100
0000
1000
0000
,  // measure 15
000M
0000
0000
0000
0000
0000
0000
0000
0000
0000
0000
0000
0000
0000
0000
0000
1001
0000
0000
0000
0000
0000
0000
0000
1000
0000
0000
0000
0000
0010
0000
0000
1000
0000
0000
0000
0000
0000
0000
0000
0001
0000
0000
0000
0000
0000
0000
0000
0001
0000
0000
0000
0000
0000
0000
0000
0010
0000
0000
0000
0000
0000
0000
0000
,  // measure 16
0010
0000
0000
0000
0000
0000
0000
0000
0100
0000
0000
0000
0000
0000
0000
0000
0100
0000
0000
0000
0000
0000
0000
0000
1000
0000
0000
0000
0000
0001
0000
0000
1000
0000
0000
0000
0000
0000
0000
0000
0010
0000
0000
0000
0100
0000
0000
0000
0000
0000
0000
0000
0100
0000
0000
0000
0001
0000
0000
0000
0000
0000
0000
0000
,  // measure 17
0001
0000
0000
0000
0000
0000
0000
0000
1000
0000
0000
0000
0000
0000
0000
0000
1000
0000
0000
0000
0000
0000
0000
0000
0100
0000
0000
0000
0000
0010
0000
0000
0100
0000
0000
0000
0000
0000
0000
0000
1000
0000
0000
0000
0000
0000
0000
0000
1000
0000
0000
0000
0002
0000
0000
0000
0010
0000
0000
0000
0003
0000
0000
0000
,  // measure 18
0001
0000
1000
0000
0001
0000
1000
0000
0010
0000
0000
0000
0100
0000
0000
0000
0000
0000
0001
0000
0000
0000
0000
0000
1000
0000
0000
0000
0000
0000
0001
0000
0000
0010
0000
0000
0100
0000
0000
0010
0000
0000
0001
0000
1000
0000
0000
0000
,  // measure 19
0010
0000
0000
0000
0000
0000
0000
0000
0100
0000
0000
0000
0000
0000
0000
0000
0201
0000
0000
0000
0000
0000
0000
0000
0301
0000
0000
0000
0000
1000
0000
0000
0001
0000
0000
0000
0000
0000
0000
0000
0010
0000
0000
0000
0000
0000
0000
0000
0010
0000
0000
0000
0000
0000
0000
0000
0100
0000
0000
0000
0000
0000
0000
0000
,  // measure 20
0100
0000
0000
0000
0000
0000
0000
0000
1000
0000
0000
0000
0000
0000
0000
0000
1000
0000
0000
0000
0000
0000
0000
0000
0001
0000
0000
0000
0000
0100
0000
0000
0001
0000
0000
0000
0000
0000
0000
0000
1000
0000
0000
0000
0100
0000
0000
0000
0000
0000
0000
0000
0100
0000
0000
0000
0010
0000
0000
0000
0000
0000
0000
0000
,  // measure 21
0010
0000
0000
0000
0000
0000
0000
0000
0100
0000
0000
0000
0000
0000
0000
0000
M100
0000
0000
0000
0000
0000
0000
0000
1000
0000
0000
0000
0000
0001
0000
0000
1000
0000
0000
0000
0000
0000
0000
0000
0010
0000
0000
0000
0000
0000
0000
0000
0010
0000
0000
0000
2000
0000
0000
0000
0001
0000
0000
0000
3000
0000
0000
0000
,  // measure 22
1000
0000
0100
0000
1000
0000
0100
0000
0010
0000
0000
0000
0000
0000
0000
0001
0000
0000
1000
0000
0000
0000
0000
0000
0020
0000
0000
0000
0000
0000
0000
0000
0000
0130
0000
0000
0002
0000
0000
0000
0000
0000
1003
0000
0000
0002
0000
0000
,  // measure 23
0000
0103
0001
0010
0000
0000
0100
1000
0001
0000
0100
0000
0010
0000
1000
0000
,  // measure 24
0400
0000
0000
0000
0000
0000
0000
0000
0310
0000
0000
0000
0000
0000
0000
0000
1200
0000
0000
0000
0000
0000
0000
0000
1300
0000
0000
0000
0000
0001
0000
0000
1000
0000
0000
0000
0000
0000
0000
0000
0010
0000
0000
0000
0100
0000
0000
0000
0000
0000
0000
0000
0100
0000
0000
0000
0001
0000
0000
0000
0000
0000
0000
0000
,  // measure 25
0001
0000
0000
0000
0000
0000
0000
0000
1000
0000
0000
0000
0000
0000
0000
0000
1M00
0000
0000
0000
0000
0000
0000
0000
0100
0000
0000
0000
0000
0010
0000
0000
0100
0000
0000
0000
0000
0000
0000
0000
1000
0000
0000
0000
0000
0000
0000
0000
1000
0000
0000
0000
0002
0000
0000
0000
0100
0000
0000
0000
0003
0000
0000
0000
,  // measure 26
0010
0000
1000
0000
0010
0000
1000
0000
0001
0000
0000
0000
0100
0000
0000
0000
0000
0000
0001
0000
0000
0000
0000
0000
1000
0000
0000
0000
0000
0000
0100
0000
0000
0010
0000
0000
0000
0000
0000
0010
0000
0000
0001
0000
0000
0000
0000
0000
,  // measure 27
1000
0000
0000
0000
0001
0000
0000
0000
0000
0000
0000
0000
0000
0000
0000
0000
0101
0000
0000
0000
0000
0000
0000
0000
0100
0000
0000
0000
0000
0010
0000
0000
0100
0000
0000
0000
0000
0000
0000
0000
0001
0000
0000
0000
0000
0000
0000
0000
0001
0000
0000
0000
0000
0000
0000
0000
1000
0000
0000
0000
0000
0000
0000
0000
,  // measure 28
1000
0000
0000
0000
0000
0000
0000
0000
0100
0000
0000
0000
0000
0000
0000
0000
0100
0000
0000
0000
0000
0000
0000
0000
0010
0000
0000
0000
0000
0001
0000
0000
0010
0000
0000
0000
0000
0000
0000
0000
0001
0000
0000
0000
1000
0000
0000
0000
0000
0000
0000
0000
1000
0000
0000
0000
0010
0000
0000
0000
0000
0000
0000
0000
,  // measure 29
0010
0000
0000
0000
0000
0000
0000
0000
0100
0000
0000
0000
0000
0000
0000
0000
010M
0000
0000
0000
0000
0000
0000
0000
0001
0000
0000
0000
0000
1000
0000
0000
0001
0000
0000
0000
0000
0000
0000
0000
0010
0000
0000
0000
0000
0000
0000
0000
0010
0000
0000
0000
0200
0000
0000
0000
1000
0000
0000
0000
0300
0000
0000
0000
,  // measure 30
0001
0000
1000
0000
0001
0000
1000
0000
0010
0000
0000
0000
0000
0000
0000
0000
0000
0000
0100
0000
0000
0001
0000
0000
1000
0000
0000
0001
0000
0000
0010
0000
0000
0000
0000
0000
0100
0000
0000
0000
0000
0000
1000
0000
0000
0001
0000
0000
,  // measure 31
0000
0000
0100
0000
0001
0000
0010
0000
0120
0000
0000
0000
0000
0000
0000
0030
1010
0000
0000
0000
0110
0000
0000
0000
0011
0000
0000
0000
0001
0000
0000
0000
,  // measure 32
M202
0000
0000
0000
0303
0000
0000
0000
0120
0000
0000
0000
0000
0000
0000
0030
0011
0000
0000
0000
0010
0000
0100
0000
0000
0000
0100
0000
0001
0000
1000
0000
,  // measure 33
0001
0000
1000
0000
0100
0000
0010
0000
0200
0000
0000
0000
0000
0000
0000
0300
0101
0000
0000
0000
0110
0000
0000
0000
1100
0000
0000
0000
1000
0000
0000
0000
,  // measure 34
0020
0000
0000
0000
0000
0000
0030
0000
0210
0000
0000
0000
0000
0000
0000
0300
1100
0000
0000
0000
0100
0000
0010
0000
0000
0000
0010
0000
1000
0000
0000
0000
,  // measure 35
0100
0000
0000
0000
0010
0000
0000
0000
0120
0000
0000
0000
0000
0000
0000
0030
1010
0000
0000
0000
0110
0000
0000
0000
1100
0000
0000
0000
1000
0000
0000
0000
,  // measure 36
2020
0000
0000
0000
3030
000M
0000
0000
0210
0000
0000
0000
0000
0000
0000
0300
1100
0000
0000
0000
0110
0000
0000
0000
1010
0000
0000
0000
1000
0000
0001
0000
,  // measure 37
1000
0000
0001
0000
0010
0000
0100
0000
0020
0000
0000
0000
0000
0000
0000
0030
1010
0000
0000
0000
0110
0000
0000
0000
1100
0000
0000
0000
1000
0000
0000
0000
,  // measure 38
0002
0000
0000
0003
1000
0000
1000
0001
0010
0001
1000
0001
0100
0010
0100
0001
,  // measure 39
1000
0100
1000
0010
0100
0000
0001
1000
0001
0000
0100
0010
0000
0010
1000
0000
,  // measure 40
1000
0000
0000
0000
0001
0000
0010
0100
0010
0000
0001
1000
0000
1000
0010
0000
,  // measure 41
0010
0000
0000
0000
0100
0000
0001
1000
0001
0000
0010
0100
0000
0100
1000
0000
,  // measure 42
1000
0000
0000
0000
0001
0000
0100
0010
0100
0000
0001
1000
0000
1000
0100
0000
,  // measure 43
0100
0000
0000
0000
0000
0000
0000
0000
0000
0000
0000
0000
0000
0000
0000
0000
1000
0000
0000
0000
0000
0010
0000
0000
0100
0000
0000
0000
0000
0001
0000
0000
1000
0000
0000
0000
0000
0001
0000
0000
0010
0000
0000
0000
0000
0100
0000
0000
1000
0000
0000
0000
0000
0001
0000
0000
0100
0000
0000
0000
0000
0010
0000
0000
,  // measure 44
0100
0000
0000
0000
0000
0001
0000
0000
1000
0000
0000
0000
0000
0100
0000
0000
1000
0000
0000
0000
0000
0001
0000
0000
0100
0000
0000
0000
0000
0010
0000
0000
0100
0000
0000
0000
0000
0001
0000
0000
1000
0000
0000
0000
0000
0001
0000
0000
0010
0000
0000
0000
0000
0100
0000
0000
1000
0000
0000
0000
0000
0001
0000
0000
,  // measure 45
1000
0000
0000
0000
0000
0010
0000
0000
0100
0000
0000
0000
0000
0001
0000
0000
0M10
0000
0000
0000
0000
0000
0000
0000
0000
0000
0000
0000
0000
0000
0000
0000
0000
0000
0000
0000
0000
0000
0000
0000
0000
0000
0000
0000
0000
0000
0000
0000
0000
0000
0000
0000
0000
0000
0000
0000
0000
0000
0000
0000
0000
0000
0000
0000
,  // measure 46
M000
0000
0000
0000
0000
0000
0000
0000
0000
0000
0000
0000
0000
0000
0000
0000
2001
0000
0000
0000
0000
0000
0000
0000
0000
0000
0000
0000
3000
0100
0000
0000
0010
0000
0000
0000
0000
0000
0000
0000
0001
0000
0000
0000
0000
0000
0000
0000
0001
0000
0000
0000
0000
0000
0000
0000
1000
0000
0000
0000
0000
0010
0000
0000
,  // measure 47
0000
0000
0000
0000
0000
0010
0000
0000
0100
0000
0000
0000
0000
0000
0000
0000
0100
0000
0000
0000
0000
0000
0000
0000
0010
0000
0000
0000
0000
1000
0000
0000
0000
0000
0000
0000
0000
1000
0000
0000
0001
0000
0000
0000
0010
0000
0000
0000
0000
0000
0000
0000
0010
0000
0000
0000
0100
0000
0000
0000
0000
1000
0000
0000
,  // measure 48
0000
0000
0000
0000
0000
1000
0000
0000
0001
0000
0000
0000
0000
0000
0000
0000
0001
0000
0000
0000
0000
0000
0000
0000
0100
0000
0000
0000
0000
0010
0000
0000
0000
0000
0000
0000
0000
0010
0000
0000
1000
0000
0000
0000
0000
0000
0000
0000
1000
0000
0000
0000
0200
0000
0000
0000
0000
0000
0000
0000
0300
1000
0000
0000
,  // measure 49
0001
0000
0100
0000
0001
0000
0100
0000
0010
0000
0000
0000
1000
0000
0000
0000
0000
0000
0001
0000
0000
0000
0000
0000
1000
0000
0000
0000
0000
0000
0100
0000
0000
0010
0000
0000
0001
0000
0000
1000
0000
0000
0001
0000
0100
0000
0000
0000
,  // measure 50
0010
0000
0000
0000
0000
0000
0000
0000
1000
0000
0000
0000
0000
0000
0000
0000
1100
0000
0000
0000
0000
0000
0000
0000
0000
0000
0000
0000
0000
0100
0000
0000
0010
0000
0000
0000
0000
0000
0000
0000
0001
0000
0000
0000
0000
0000
0000
0000
0001
0000
0000
0000
0000
0000
0000
0000
0001
0000
0000
0000
0000
0000
0000
0000
,  // measure 51
0001
0000
0000
0000
0000
1000
0000
0000
0001
0000
0000
0000
0000
0000
0000
0000
0001
0000
0000
0000
0000
0000
0000
0000
0100
0000
0000
0000
0000
0010
0000
0000
0000
0000
0000
0000
0000
0010
0000
0000
0100
0000
0000
0000
0001
0000
0000
0000
0000
0000
0000
0000
0001
0000
0000
0000
1000
0000
0000
0000
0000
0100
0000
0000
,  // measure 52
0000
0000
0000
0000
0000
0100
0000
0000
1000
0000
0000
0000
0000
0000
0000
0000
100M
0000
0000
0000
0000
0000
0000
0000
0000
0000
0000
0000
0000
0001
0000
0000
0000
0000
0000
0000
0000
0001
0000
0000
1000
0000
0000
0000
0000
0000
0000
0000
1000
0000
0000
0000
0020
0000
0000
0000
0000
0000
0000
0000
0030
0100
0000
0000
,  // measure 53
0001
0000
1000
0000
0001
0000
1000
0000
0100
0000
0000
0000
0000
0000
0000
0000
0000
0000
1000
0000
0000
0001
0000
0000
0100
0000
0000
0001
0000
0000
1000
0000
0000
0000
0000
0000
0100
0000
0000
0000
0000
0000
1000
0000
0000
0001
0000
0000
,  // measure 54
0000
0000
0100
0000
0001
0000
0010
0000
0210
0000
0000
0000
0000
0000
0000
0300
0101
0000
0000
0000
0110
0000
0000
0000
1100
0000
0000
0000
1000
0000
0000
0000
,  // measure 55
202M
0000
0000
0000
3030
0000
0000
0000
0210
0000
0000
0000
0000
0000
0000
0300
1100
0000
0000
0000
0100
0000
0010
0000
0000
0000
0010
0000
1000
0000
0001
0000
,  // measure 56
1000
0000
0001
0000
0010
0000
0100
0000
0020
0000
0000
0000
0000
0000
0000
0030
1010
0000
0000
0000
0110
0000
0000
0000
0011
0000
0000
0000
0001
0000
0000
0000
,  // measure 57
0200
0000
0000
0000
0000
0000
0300
0000
0120
0000
0000
0000
0000
0000
0000
0030
0011
0000
0000
0000
0010
0000
0100
0000
0000
0000
0100
0000
0001
0000
0000
0000
,  // measure 58
0010
0000
0000
0000
0100
0000
0000
0000
0210
0000
0000
0000
0000
0000
0000
0300
0101
0000
0000
0000
0110
0000
0000
0000
0011
0000
0000
0000
0001
0000
0000
0000
,  // measure 59
0202
0000
0000
0000
0303
M000
0000
0000
0120
0000
0000
0000
0000
0000
0000
0030
0011
0000
0000
0000
0110
0000
0000
0000
0101
0000
0000
0000
0001
0000
1000
0000
,  // measure 60
0001
0000
1000
0000
0100
0000
0010
0000
0200
0000
0000
0000
0000
0000
0000
0300
0101
0000
0000
0000
0110
0000
0000
0000
0011
0000
0000
0000
0001
0000
0000
0000
,  // measure 61
2000
0000
0000
3000
0010
0000
0100
0001
1000
0100
0010
0000
0100
0000
1000
0001
,  // measure 62
0000
0100
0001
0010
0000
0000
0000
0000
0000
0000
0000
0000
0000
0000
0000
0000
;

//---------------dance-single - Feraligatr SH----------------
#NOTEDATA:;
#CHARTNAME:Feraligatr SH;
#STEPSTYPE:dance-single;
#DESCRIPTION:Feraligatr SH;
#CHARTSTYLE:;
#DIFFICULTY:Hard;
#METER:9;
#RADARVALUES:0.477324,0.518229,0.166667,0.444444,0.269841,421.000000,400.000000,21.000000,56.000000,0.000000,0.000000,0.000000,0.000000,0.000000,0.477324,0.518229,0.166667,0.444444,0.269841,421.000000,400.000000,21.000000,56.000000,0.000000,0.000000,0.000000,0.000000,0.000000;
#CREDIT:Feraligatr;
#DISPLAYBPM:124.000000;
#NOTES:
0000
0000
0000
0000
,
0000
0000
0000
0000
,
0000
0000
0000
0000
,
0000
0000
0000
0000
,
2001
0000
3100
0010
0001
0001
0001
0000
,
0102
0000
0000
0000
1003
0000
0100
0010
0000
0010
0001
0000
1000
0000
0010
0000
,
0200
0000
0301
1000
0100
0100
0100
0000
,
0020
0000
0000
0000
0031
0000
1000
0000
0010
0000
0010
0000
0010
0000
0100
0010
,
2000
0000
0000
3001
0020
0000
0130
0000
2000
0000
3000
0000
2000
0000
3000
0000
,
2000
0000
0000
0000
3001
0000
0100
0000
0000
0000
0100
0000
0001
0000
1000
0010
,
0200
0000
0000
0301
2000
0000
3100
0000
0020
0000
0030
0000
0020
0000
0030
0000
,
0020
0000
0000
0000
0130
0000
1000
0000
0010
0000
1000
0000
0001
0000
1000
0010
,
0100
0000
0000
0001
0000
0000
1000
0000
0000
0100
0000
0000
0010
0000
0000
0000
,
0100
0000
0000
1000
0000
0000
0001
0000
0000
0100
0000
0000
0010
0000
0000
0000
,
1000
0000
0000
0001
0000
0000
0010
0000
0000
0100
0000
0000
1000
0000
0001
0000
,
0000
0000
1001
1000
1000
0010
0010
0100
,
0100
0000
0001
0000
0001
0000
1000
0000
1000
0000
0100
0010
0000
0010
0001
0000
,
1000
0010
0010
0100
0100
0001
0001
0010
,
2000
0000
0000
0000
0000
0000
0000
0000
3000
0000
0000
0000
0010
0000
0000
0000
0000
0000
0100
0000
0000
0000
0000
0000
1000
0000
0000
0000
0000
0000
0001
0000
0000
0100
0000
0000
0000
0000
0000
0100
0000
0000
0010
0000
0000
1000
0000
0000
,
0001
0010
0021
0130
0100
1000
1000
0001
,
0001
0000
0100
0000
0100
0000
0010
0000
0010
0000
1000
0001
0000
0001
0010
0000
,
0100
1000
1000
0001
0001
1000
1000
0100
,
0002
0000
0003
0000
0000
0000
0000
0000
0000
0000
0000
0000
,
0000
0000
0100
0010
0000
0000
0001
0000
1000
0000
0010
0000
0100
0000
0001
0000
,
2000
0000
3100
0000
0120
0000
0031
0000
0001
0000
1000
0001
0000
0001
0100
0000
,
0010
0100
0100
0001
0001
1000
1000
0100
,
0002
0000
0000
0000
0000
0000
0000
0000
0003
0000
0000
0000
0100
0000
0000
0000
0000
0000
0010
0000
0000
0000
0000
0000
0001
0000
0000
0000
0000
0000
1000
0000
0000
0010
0000
0000
0000
0000
0000
0010
0000
0000
0100
0000
0000
0000
0000
0000
,
0001
1000
0000
0000
1001
0000
1000
0000
1000
0000
0100
0000
0100
0000
0010
0000
,
0010
0000
0001
0000
0001
0000
1000
0000
1000
0000
0001
0100
0000
0100
0010
0000
,
1000
0001
0001
0010
0010
0001
0001
0100
,
2000
0000
3000
0000
0000
0000
0000
0000
0000
0000
0000
0000
,
0000
0000
0100
0010
0200
0000
0000
0000
1300
0000
0100
0000
0001
0000
0001
0000
,
0022
0000
0033
0000
0210
0000
0000
0000
0301
0000
0100
0000
1000
0000
0001
0100
,
0001
0100
0001
1000
0200
0000
0000
0000
0301
0000
0100
0000
1000
0000
0001
0000
,
0200
0000
0000
0300
0120
0000
0000
0000
0031
0000
0010
0000
1000
0000
0100
0000
,
0001
0100
0120
0000
1030
0010
0001
0001
,
0202
0000
0303
0000
0120
0000
0000
0000
0031
0000
0010
0000
1000
0000
0001
0010
,
0001
0010
0001
1000
0020
0000
0000
0000
0031
0000
0010
0000
1000
0000
0001
0000
,
0020
0000
0000
0030
0210
0000
0000
0000
0301
0000
0100
0000
1000
0000
0000
0000
,
0000
0000
0100
0010
0002
0000
0000
0000
1000
0000
0000
0000
2003
0000
0000
0000
,
0010
3020
0100
0230
,
0001
0000
0000
0000
0301
0000
0000
1000
0000
0000
0100
0000
0000
0010
0000
0000
,
0001
0000
0000
0000
1000
0000
0000
0010
0000
0000
0100
0000
0000
0010
0000
0000
,
1000
0000
0001
0010
0001
0010
0100
1000
,
0100
1000
0001
0100
0001
0100
0010
1000
,
0010
1000
0001
0000
0000
0000
0000
0000
,
0000
0000
0000
0000
0000
0000
0000
0000
0000
0000
0000
0000
0000
0000
0000
0000
1002
0000
0000
0000
0000
0000
0000
0000
0000
0000
0000
0000
0000
0013
0000
0000
0000
0000
0000
0000
0000
0000
0000
0000
0100
0000
0000
0000
0000
0000
0000
0000
0100
0000
0000
0000
0000
0000
0000
0000
1000
0000
0000
0000
0000
0001
0000
0000
,
0000
0000
0000
0000
0000
0001
0000
0000
0100
0000
0000
0000
0000
0000
0000
0000
0100
0000
0000
0000
0000
0000
0000
0000
0000
0000
0000
0000
0000
0010
0000
0000
0000
0000
0000
0000
0000
0010
0000
0000
1000
0000
0000
0000
0000
0000
0000
0000
1000
0000
0000
0000
0000
0000
0000
0000
0000
0000
0000
0000
0000
0001
0000
0000
,
0000
0000
0000
0000
0000
0001
0000
0000
0010
0000
0000
0000
0000
0000
0000
0000
0010
0000
0000
0000
0000
0000
0000
0000
0000
0000
0000
0000
0000
0100
0000
0000
0000
0000
0000
0000
0000
0100
0000
0000
1000
0000
0000
0000
0000
0000
0000
0000
1000
0000
0000
0000
0000
0000
0000
0000
0010
0000
0000
0000
0000
0000
0000
0000
,
0002
0000
0000
0000
0000
0000
0000
0000
0003
0000
0000
0000
0010
0000
0000
0000
0000
0000
0100
0000
0000
0000
0000
0000
0010
0000
0000
0000
0000
0000
1000
0000
0000
0001
0000
0000
0000
0000
0000
0001
0000
0000
0010
0000
0000
0100
0000
0000
,
1000
0000
0000
0000
0000
0000
0000
0000
0001
0000
0000
0000
0000
0000
0000
0000
1001
0000
0000
0000
0000
0000
0000
0000
0000
0000
0000
0000
0000
0001
0000
0000
0100
0000
0000
0000
0000
0000
0000
0000
0010
0000
0000
0000
0000
0000
0000
0000
0010
0000
0000
0000
0000
0000
0000
0000
0010
0000
0000
0000
0000
0000
0000
0000
,
0010
0000
0000
0000
0000
0100
0000
0000
0010
0000
0000
0000
0000
0000
0000
0000
0010
0000
0000
0000
0000
0000
0000
0000
0000
0000
0000
0000
0000
1000
0000
0000
0000
0000
0000
0000
0000
1000
0000
0000
0001
0000
0000
0000
0000
0000
0000
0000
0001
0000
0000
0000
0000
0000
0000
0000
0010
0000
0000
0000
0000
0100
0000
0000
,
0000
0000
0000
0000
0000
0100
0000
0000
1000
0000
0000
0000
0000
0000
0000
0000
1000
0000
0000
0000
0000
0000
0000
0000
0000
0000
0000
0000
0000
0001
0000
0000
0000
0000
0000
0000
0000
0001
0000
0000
1000
0000
0000
0000
0000
0000
0000
0000
1000
0000
0000
0000
0000
0000
0000
0000
0100
0000
0000
0000
0000
0000
0000
0000
,
0002
0000
0003
0000
0000
0000
0000
0000
0000
0000
0000
0000
,
0000
0000
0100
0010
0200
0000
0000
0000
0301
0000
0100
0000
1000
0000
1000
0000
,
2200
0000
3300
0000
0120
0000
0000
0000
1030
0000
0010
0000
0001
0000
1000
0010
,
1000
0010
1000
0001
0020
0000
0000
0000
1030
0000
0010
0000
0001
0000
1000
0000
,
0020
0000
0000
0030
0210
0000
0000
0000
1300
0000
0100
0000
0001
0000
0010
0000
,
1000
0010
0210
0000
0301
0100
1000
1000
,
2020
0000
3030
0000
0210
0000
0000
0000
1300
0000
0100
0000
0001
0000
1000
0100
,
1000
0100
1000
0001
0200
0000
0000
0000
1300
0000
0100
0000
0001
0000
1000
0000
,
0200
0000
0320
0000
0130
1000
0001
0001
,
0001
0000
1000
0010
0000
0000
0000
0000
0000
0000
0000
0000
0000
0000
0000
0000
;

//---------------dance-single - Feraligatr SM----------------
#NOTEDATA:;
#CHARTNAME:Feraligatr SM;
#STEPSTYPE:dance-single;
#DESCRIPTION:Feraligatr SM;
#CHARTSTYLE:;
#DIFFICULTY:Medium;
#METER:7;
#RADARVALUES:0.335601,0.393651,0.214286,0.373016,0.015873,296.000000,269.000000,27.000000,47.000000,0.000000,0.000000,0.000000,0.000000,0.000000,0.335601,0.393651,0.214286,0.373016,0.015873,296.000000,269.000000,27.000000,47.000000,0.000000,0.000000,0.000000,0.000000,0.000000;
#CREDIT:Feraligatr;
#DISPLAYBPM:124.000000;
#NOTES:
0000
0000
0000
0000
,
0000
0000
0000
0000
,
0000
0000
0000
0000
,
0000
0000
0000
0000
,
1002
0000
0003
0010
0001
0001
0001
0000
,
0201
0000
0300
0010
1000
1000
1000
0000
,
0200
0000
0300
0010
0001
0001
0001
0000
,
0200
0000
0300
0010
1000
1000
1000
0000
,
1002
0000
0013
0000
0200
0300
0200
0300
,
0200
0000
0000
0000
0000
1300
0001
0000
,
0200
0000
0310
0000
2000
3000
2000
3000
,
2000
0000
0000
0000
0000
0000
0000
3000
2000
0000
0000
0000
0000
0000
0000
0000
,
3001
0000
0000
1000
0000
0000
0100
0000
0000
0010
0000
0000
0001
0000
0000
0000
,
0001
0000
0000
0100
0000
0000
0010
0000
0000
1000
0000
0000
0001
0000
0000
0000
,
0010
0100
0010
0100
0010
0100
0010
0100
,
0000
0000
1001
0000
1000
0100
0010
0000
,
0010
0000
0010
0000
0010
0001
1000
0000
,
1000
0010
0100
0000
0001
1000
0100
0000
,
0002
0000
0000
0000
0003
0000
0100
0000
0000
0000
0000
0000
0100
0000
0000
0000
0000
0000
0100
0000
0000
0010
0000
0000
,
0001
1000
0010
0000
0100
0001
1000
0000
,
1000
0000
1000
0000
1000
0100
0010
0000
,
0010
0001
0100
0000
0001
1000
0100
0000
,
0002
0000
0003
0000
0000
0000
0000
0000
0000
0000
0000
0000
,
0000
0000
0000
0100
0010
0001
1000
0010
,
0100
0001
1000
0100
0010
0100
1000
0000
,
1000
0000
1000
0000
0001
1000
0010
0000
,
0002
0000
0000
0000
0003
0000
0010
0000
0000
0010
0000
0000
0100
0000
0000
0000
0000
0000
0001
0000
0000
0000
0000
0000
,
1000
0000
1100
0000
0100
0010
0001
0000
,
0001
0000
0001
0000
1000
0010
0100
0000
,
0100
0000
0100
0000
0001
1000
0100
0000
,
0002
0000
0003
0000
0000
0000
0000
0000
0000
0000
0000
0000
,
0000
0000
2001
0000
3100
0100
0100
0000
,
2002
3003
0102
0000
1003
1000
1000
0000
,
0001
0010
0200
0000
1300
1000
1000
0000
,
0020
0000
0000
0030
0102
0000
0000
0000
1003
0000
1000
0000
1000
0000
0100
0000
,
0010
0100
2000
0000
3001
0001
0001
0000
,
0202
0303
0210
0000
0301
0001
0001
0000
,
1000
0100
0020
0000
0130
0100
0100
0000
,
0020
0000
0000
0030
2100
0000
0000
0000
3001
0000
0001
0000
0001
0000
0000
0000
,
0000
1001
0000
1010
,
0000
0110
0000
0101
,
0000
1001
0000
1100
,
0000
0110
0000
0011
,
0000
0010
0010
0100
,
0100
1000
1000
0001
,
0001
0100
0000
0000
,
0000
0000
1001
0000
1000
0010
0100
0100
,
0100
0000
0001
0000
0001
0000
1000
1000
,
1000
0000
0100
0000
0010
0001
0100
0000
,
2000
0000
3000
0100
0000
0000
0100
0000
0000
0100
0000
0000
,
0010
1000
0001
0000
0010
0100
1000
0000
,
1000
0000
1000
0001
1000
0010
0100
0000
,
0100
0000
0001
0000
1000
0001
0010
0000
,
2000
0000
3000
0000
0000
0000
0000
0000
0000
0000
0000
0000
,
0000
0000
1002
0000
0013
0010
0010
0000
,
2002
3003
2010
0000
3001
0001
0001
0000
,
1000
0100
0020
0000
0031
0001
0001
0000
,
0200
0000
0000
0300
2010
0000
0000
0000
3001
0000
0001
0000
0001
0000
0010
0000
,
0100
0010
0002
0000
1003
1000
1000
0000
,
2020
3030
0120
0000
1030
1000
1000
0000
,
0001
0010
0200
0000
0310
0010
0010
0000
,
0200
0000
0000
0300
2000
0000
0000
0000
3001
0000
0100
0000
0010
0000
0010
0000
,
0010
0000
0000
0000
;

//---------------dance-single - Feraligatr SE----------------
#NOTEDATA:;
#CHARTNAME:Feraligatr SE;
#STEPSTYPE:dance-single;
#DESCRIPTION:Feraligatr SE;
#CHARTSTYLE:;
#DIFFICULTY:Easy;
#METER:4;
#RADARVALUES:0.234694,0.270635,0.079365,0.158730,0.000000,207.000000,197.000000,10.000000,20.000000,0.000000,0.000000,0.000000,0.000000,0.000000,0.234694,0.270635,0.079365,0.158730,0.000000,207.000000,197.000000,10.000000,20.000000,0.000000,0.000000,0.000000,0.000000,0.000000;
#CREDIT:Feraligatr;
#DISPLAYBPM:124.000000;
#NOTES:
0000
0000
0000
0000
,
0000
0000
0000
0000
,
0000
0000
0000
0000
,
0000
0000
0000
0000
,
2001
0000
3000
0000
0001
0001
0001
0000
,
0200
0000
0300
0000
0010
0010
0010
0000
,
2000
0000
3000
0000
0001
0001
0001
0000
,
0020
0000
0030
0000
0100
0100
0100
0000
,
1000
0001
0100
0100
,
0100
0000
0000
0010
,
1000
0001
0010
0010
,
0010
0000
0010
0000
,
0100
1000
0000
0100
,
0010
0001
0000
0010
,
0001
0001
1000
1000
,
0000
1001
0001
0100
,
0010
0100
0001
1000
,
0100
1000
0001
0100
,
0020
0000
0030
0100
0000
0000
0100
0000
0000
0100
0000
0000
,
0100
0001
1000
0100
,
0010
0100
1000
0001
,
0100
0010
1000
0001
,
0020
0000
0030
0000
0000
0000
0000
0000
0000
0000
0000
0000
,
0000
0000
0100
0100
,
0100
1100
1000
0001
,
0100
0010
0100
0001
,
2000
0000
3000
0100
0000
0000
0100
0000
0000
0010
0000
0000
,
0010
0001
1000
0010
,
0100
0010
1000
0001
,
0010
0100
1000
0001
,
0200
0000
0300
0000
0000
0000
0000
0000
0000
0000
0000
0000
,
0000
1002
1003
1000
,
2200
3300
0001
0000
0100
0000
0100
0000
,
0010
1000
0001
0001
,
0010
0100
1000
1000
,
0001
0100
0010
0010
,
2020
3030
1000
0000
0001
0000
0001
0000
,
0010
0100
1000
1000
,
0001
0100
0010
0010
,
0000
1000
0000
0001
,
0000
0010
0000
0100
,
0000
0010
0000
0001
,
0000
1000
0000
0010
,
0000
0100
0100
0001
,
0001
1000
1000
0100
,
0100
0010
0000
0000
,
0000
1001
1000
0001
,
0000
0100
0010
1000
,
0000
0001
0010
0100
,
0020
0000
0030
0001
0000
0000
0001
0000
0000
0001
0000
0000
,
0001
0100
0010
1000
,
0000
0001
0010
0100
,
0000
0010
0001
1000
,
0020
0000
0030
0000
0000
0000
0000
0000
0000
0000
0000
0000
,
0000
2001
3001
0001
,
0022
0033
1000
0000
0010
0000
0010
0000
,
0100
0001
1000
1000
,
0100
0010
0001
0001
,
1000
0010
0100
0100
,
0202
0303
0001
0000
1000
0000
1000
0000
,
0100
0010
0001
0001
,
1000
0010
0100
0001
,
1000
0000
0000
0000
;

//---------------dance-single - Feraligatr SB----------------
#NOTEDATA:;
#CHARTNAME:Feraligatr SB;
#STEPSTYPE:dance-single;
#DESCRIPTION:Feraligatr SB;
#CHARTSTYLE:;
#DIFFICULTY:Beginner;
#METER:2;
#RADARVALUES:0.146259,0.196825,0.095238,0.047619,0.000000,129.000000,117.000000,12.000000,6.000000,0.000000,0.000000,0.000000,0.000000,0.000000,0.146259,0.196825,0.095238,0.047619,0.000000,129.000000,117.000000,12.000000,6.000000,0.000000,0.000000,0.000000,0.000000,0.000000;
#CREDIT:Feraligatr;
#DISPLAYBPM:124.000000;
#NOTES:
0000
0000
0000
0000
,
0000
0000
0000
0000
,
0000
0000
0000
0000
,
0000
0000
0000
0000
,
1001
0000
1000
0000
,
0010
0000
0100
0000
,
0001
0000
1000
0000
,
0100
0000
0010
0000
,
1001
0000
0000
0000
,
0001
0000
0000
0000
,
0110
0000
0000
0000
,
0100
0000
0000
0000
,
1001
0000
0000
0000
,
1000
0000
0000
0000
,
0001
0000
0000
0000
,
0000
1001
0000
1000
,
0000
0100
0000
0010
,
0000
0100
0000
1000
,
0020
0000
0030
0000
0000
0000
0000
0000
0000
0000
0000
0000
,
0000
1001
0000
1000
,
0000
0100
0000
0010
,
0000
0001
0000
1000
,
0200
0000
0300
0000
0000
0000
0000
0000
0000
0000
0000
0000
,
0000
0000
0000
0000
,
0000
0110
0000
0010
,
0000
0001
0000
1000
,
0020
0000
0030
0000
0000
0000
0000
0000
0000
0000
0000
0000
,
0000
0110
0000
0100
,
0000
0001
0000
1000
,
0000
0100
0000
0010
,
0002
0000
0003
0000
0000
0000
0000
0000
0000
0000
0000
0000
,
0000
1001
1000
1000
,
0000
0001
0001
0001
,
0000
0010
0010
0010
,
0000
0100
0100
0100
,
0000
1000
1000
1000
,
0000
0001
0001
0001
,
0000
0100
0100
0100
,
0000
0010
0010
0010
,
0000
1000
0000
0001
,
0000
0010
0000
0100
,
0000
0010
0000
0001
,
0000
1000
0000
0010
,
0000
0100
0000
0100
,
0000
0100
0000
0100
,
0000
0100
0000
0000
,
0000
1001
0000
1000
,
0000
0100
0000
0010
,
0000
0001
0000
0010
,
0200
0000
0300
0000
0000
0000
0000
0000
0000
0000
0000
0000
,
0000
0110
0000
0010
,
0000
0001
0000
1000
,
0000
0010
0000
0100
,
0002
0000
0003
0000
0000
0000
0000
0000
0000
0000
0000
0000
,
0000
1001
0001
0001
,
0000
1000
1000
1000
,
0000
0100
0100
0100
,
0000
0010
0010
0010
,
0000
0001
0001
0001
,
0000
1000
1000
1000
,
0000
0010
0010
0010
,
0000
0100
0100
0001
,
1000
0000
0000
0000
;
