#TITLE:Beat Dem Up;
#SUBTITLE:;
#ARTIST:Dirtyphonics X Virtual Riot;
#TITLETRANSLIT:;
#SUBTITLETRANSLIT:;
#ARTISTTRANSLIT:;
#GENRE:EDM;
#CREDIT:;
#BANNER:Beat Dem Up-bn.png;
#BACKGROUND:Beat Dem Up-bg.png;
#LYRICSPATH:;
#CDTITLE:cd-title-Benpai.png;
#MUSIC:Beat Dem Up.ogg;
#OFFSET:0.009000;
#SAMPLESTART:63.991001;
#SAMPLELENGTH:10.666600;
#SELECTABLE:YES;
#DISPLAYBPM:180.000000;
#BPMS:0.000000=180.000000
,123.500000=60.000000
,125.000000=180.000000
,181.000000=270.000000
,187.000000=180.000000
,191.000000=270.000000
,191.750000=90.000000
,192.000000=180.000000
,199.000000=270.000000
,199.750000=90.000000
,200.000000=180.000000
,207.000000=270.000000
,207.750000=90.000000
,208.000000=180.000000
,223.000000=270.000000
,223.750000=90.000000
,224.000000=180.000000
,231.000000=270.000000
,231.750000=90.000000
,232.000000=180.000000
,239.000000=270.000000
,239.750000=90.000000
,240.000000=180.000000
,279.000000=270.000000
,289.000000=180.000000
;
#STOPS:285.000000=0.056000,
285.500000=0.055000,
286.000000=0.056000,
286.500000=0.055000,
287.000000=0.056000,
287.500000=0.055000,
288.000000=0.056000,
288.500000=0.055000
;
#BGCHANGES:;
#KEYSOUNDS:;
#ATTACKS:;

//---------------dance-single - Benpai----------------
#NOTES:
     dance-single:
     Benpai SX:
     Challenge:
     11:
     0.708089,0.922102,0.442421,0.172469,0.247456,661.000000,600.000000,59.000000,23.000000,12.000000,2.000000,0.708089,0.922102,0.442421,0.172469,0.247456,661.000000,600.000000,59.000000,23.000000,12.000000,2.000000:
0000
0000
0000
0000
,
0000
0000
0000
0000
,
0000
0000
0000
0000
,
0000
0000
0000
0000
,
0000
0000
0000
0000
,
0000
0000
0000
0000
,
0000
0000
0000
0000
,
0000
0000
0000
0000
,
0001
0000
0000
0000
0000
0100
0000
0001
,
0000
0000
0000
0000
0000
0000
1000
0100
,
0010
0000
0000
0000
0000
0100
0000
0100
,
0000
0000
0000
0000
0000
1000
0000
0000
,
1001
0000
0000
0000
0000
0001
0000
0010
,
0000
0000
0000
0000
0000
0000
0100
0010
,
0001
0000
0000
0000
0000
1000
0000
1000
,
0001
0000
0100
0000
0010
0000
1000
0000
0100
0000
1000
0001
1000
0000
0010
0000
,
0210
0000
0000
0000
0301
1001
0000
0012
,
0000
1003
0010
0100
0001
1000
0100
0010
,
0120
0000
0031
0001
1000
1010
0000
0201
,
0000
0310
1000
0001
1000
0100
0010
0100
,
2100
0000
0000
0000
3001
0101
0000
1002
,
0000
0013
0100
1000
0001
0100
0010
1000
,
1002
0000
0013
0010
0100
1100
0000
1002
,
0000
0000
0000
0000
0103
0000
0010
0000
1000
0000
0001
1000
0100
0010
0001
1000
,
0020
0000
0000
0000
0130
0101
0000
1002
,
0000
0000
0000
0003
1000
0100
0010
0001
,
1002
0000
0000
0000
0103
0010
0100
0001
1000
0000
1100
0000
0000
0000
0201
0000
,
0000
0310
1000
0001
0010
0100
1000
0010
,
0120
0000
0000
0000
1030
1001
0000
2100
,
0000
0000
0000
3000
0001
0100
0010
1000
,
1200
0000
0310
0100
1000
1001
0000
0102
,
0000
0000
10M3
0000
0001
0010
0000
0000
,
0100
0000
1000
0001
0100
0001
0000
1000
,
0100
0010
0001
0000
0010
0010
0100
1000
,
0000
1000
0000
0001
0100
0010
0100
0001
,
1000
0100
0010
0000
0001
1000
0000
0010
,
0000
0100
0000
0001
0010
0001
1000
0010
,
0100
0001
1000
0100
0010
0001
1000
0010
,
1000
0000
0001
0000
1000
0000
0100
0000
0010
0000
0100
0000
1000
0000
0010
0100
,
0001
0000
1000
0000
1001
0000
0001
0100
0010
0000
0100
0000
0001
0000
1000
0100
,
0010
0000
0100
0000
1000
0000
0001
0100
0010
0000
1000
0000
0001
0000
1000
0100
,
0010
0000
0100
0000
1000
0000
0001
0010
0001
0000
1000
0000
0001
0000
0100
0010
,
0100
0000
0001
0000
1000
0000
0100
0010
0001
0000
1000
0000
0010
0000
0100
0010
,
1000
0001
1000
1000
0100
0010
0010
0001
,
1000
1000
0010
0100
0100
0001
1000
1000
,
0100
0010
M004
0000
0000
0000
0000
0000
,
0000
0000
0000
0000
0000
0003
1000
0001
,
0010
10M0
0001
0010
10M0
0001
1001
0000
,
100M
0000
0000
0000
0010
0000
0000
0000
0100
0000
0010
1000
0001
0000
0100
0000
,
0010
1000
0001
0000
1000
0000
0001
0010
0100
0000
0100
0000
4000
0000
0000
3000
,
00M1
0000
0000
0000
0100
0000
0001
0000
0100
0000
0010
1000
0010
0000
0100
0000
,
0001
1000
0010
0000
1000
0000
0001
0010
0100
0000
1000
0000
1100
0000
0000
0000
,
1M00
0000
0000
0000
0001
0000
0000
0000
1000
0000
0010
0100
0001
0000
0100
0000
,
0010
1000
0010
0000
1000
0000
0001
0010
0100
0000
0100
0000
1000
0000
0001
0000
,
0100
0000
0M00
0000
0100
0000
0010
0000
1000
0000
0001
0000
0200
0300
0020
0030
,
0200
0300
0002
0003
1000
0000
0100
0010
0001
0000
1000
0000
1010
0000
0000
0000
,
M010
0000
0000
0000
0100
0000
0000
0000
0001
0000
0100
0001
1000
0000
0010
0000
,
1000
0001
1000
0000
0001
0000
0010
0100
1000
0000
0100
0000
0040
0000
0000
0030
,
0M01
0000
0000
0000
0100
0000
0010
0000
1000
0000
0001
0100
0001
0000
1000
0000
,
0100
0010
0100
0000
1000
0000
0001
0100
0010
0000
0100
0000
0101
0000
0000
0000
,
0M01
0000
0000
0000
1000
0000
0001
0000
1000
0000
0100
0010
0001
0000
1000
0000
,
0010
0100
0001
0000
1000
0000
0001
0010
0100
0000
1000
0000
0001
0000
0100
0000
,
0010
0010
1000
1000
0001
0001
0010
0100
,
1000
0000
0001
0000
0100
0000
0010
0000
2000
0000
3000
0000
1010
0000
0000
0001
,
1000
0000
0100
0000
0010
0000
0000
0010
0100
0000
1000
0000
0001
0000
0000
0001
,
0100
0000
0010
0000
1000
0000
0000
1000
0001
0000
0010
0000
0100
0000
0000
0100
,
1000
0000
0001
0000
0100
0000
0000
0100
0001
0000
1000
0000
0100
0000
0000
0100
,
0010
0000
0001
0000
1000
0000
0000
1000
0010
0000
0100
0000
0001
1000
0001
1000
,
0100
0010
0001
1000
0001
1000
0010
0100
0010
1000
0001
0010
0100
0000
0100
0000
,
1000
1000
0001
0001
0100
0100
M040
0000
,
0000
0000
0000
0000
,
0000
0030
1000
0001
0010
0100
1000
0010
,
0400
0304
1003
0010
1100
0000
0001
1000
,
0011
0000
0100
0000
0000
0000
0100
0000
0001
1000
0100
0000
0100
0000
0010
0001
,
1000
0010
0400
0310
1100
0001
1000
0000
,
0011
0000
1000
0000
0001
0000
0100
0000
0001
1000
0100
0000
0100
0000
0010
0001
,
1000
0001
0040
0130
1010
0000
0001
1000
,
0101
0000
0010
0000
0000
0000
0010
0000
0100
1000
0001
0000
0001
0000
1000
0010
,
0100
0001
4000
3100
1010
0000
0001
1010
,
0000
0100
0010
0001
1000
0010
0100
0001
,
1000
0100
1000
0001
0400
0000
0310
0000
1100
0000
0000
0000
0010
0000
1000
0000
,
0011
0000
0100
0000
0000
0000
0001
0000
1000
0010
0100
0000
0100
0000
0001
0010
,
0100
1000
0400
0310
0101
1000
0001
0000
,
1010
0000
0001
0000
0000
0000
0010
0000
0100
1000
0001
0000
1000
0000
0001
0100
,
0010
0000
1000
0000
0040
0000
0000
0030
1100
0000
0000
0000
0001
0000
1000
0000
,
0011
0000
0100
0000
0000
0000
0100
0000
0010
1000
0001
0000
0100
0000
0001
1000
,
0100
0010
0001
1000
0100
1000
0100
0010
,
0001
1000
0001
1000
0010
0100
0001
0010
,
0100
1000
0001
0000
1101
0000
0001
0100
,
0011
0000
0100
0001
1100
0000
0010
1000
,
0011
0000
0000
0000
1000
0000
0400
0300
1010
0000
0000
0000
0100
0000
0010
0000
,
0101
0000
0000
0000
0010
0000
0100
0000
1010
0000
0000
0000
0001
1000
0010
0000
,
1100
0000
0010
0000
1101
0000
0010
0100
,
0011
0000
1000
0001
1100
0000
0001
0100
,
0011
0000
0000
0000
1000
0000
0400
0300
1010
0000
0001
0000
1010
0000
0001
0000
,
1010
0000
0100
1000
0002
0000
0000
0000
0000
0000
0000
0000
0000
0000
0000
0000
,
0000
0203
0000
0000
,
0000
0000
0000
0000
,
0000
0000
0000
0300
0000
0000
0000
0000
;

//---------------dance-single - Benpai----------------
#NOTES:
     dance-single:
     Benpai SH:
     Hard:
     9:
     0.585967,0.663913,0.164971,0.209963,0.082485,547.000000,525.000000,22.000000,28.000000,9.000000,0.000000,0.585967,0.663913,0.164971,0.209963,0.082485,547.000000,525.000000,22.000000,28.000000,9.000000,0.000000:
0000
0000
0000
0000
,
0000
0000
0000
0000
,
0000
0000
0000
0000
,
0000
0000
0000
0000
,
0000
0000
0000
0000
,
0000
0000
0000
0000
,
0000
0000
0000
0000
,
0000
0000
0000
0000
,
0001
0000
0000
0000
0000
0100
0000
0001
,
0000
0000
0000
0000
0000
0000
1000
0100
,
0010
0000
0000
0000
0000
0100
0000
0100
,
0000
0000
0000
0000
0000
1000
0000
0000
,
1001
0000
0000
0000
0000
0001
0000
0010
,
0000
0000
0000
0000
0000
0000
0100
0010
,
0001
0000
0000
0000
0000
1000
0000
1000
,
0001
0100
0010
1000
0100
4000
3001
0100
,
0020
0000
0000
0000
1030
0001
0000
0012
,
0000
1003
0010
0100
0000
0001
0000
0010
,
0200
0000
0310
0010
0001
1000
0000
2001
,
0000
3010
0100
0001
0000
1000
0100
1000
,
0002
0000
0000
0000
0103
0010
0000
2010
,
0000
3001
0010
0100
0000
1000
0000
0001
,
0020
0000
0130
0100
1000
0001
0000
1002
,
0000
0000
0103
0010
1000
0100
0010
0001
,
0200
0000
0000
0000
0310
1000
0000
2100
,
0000
0000
0000
3000
0000
0001
0100
0010
,
2000
0000
3000
0000
0001
0100
0000
0210
,
0000
0000
0000
0300
0010
0100
0001
0010
,
0200
0000
0000
0000
1300
0001
0000
0201
,
0000
0000
0000
0300
0000
0001
1000
0100
,
0020
0000
0031
0100
0010
1000
0000
0002
,
0000
0000
10M3
0000
0001
0010
0000
0000
,
0100
0000
1000
0001
0100
0001
0000
1000
,
0100
0010
0001
0000
0010
0010
0100
1000
,
0000
1000
0000
0001
0100
0010
0100
0001
,
1000
0100
0010
0000
0001
1000
0000
0010
,
0000
0100
0000
0001
0010
0001
1000
0010
,
0100
0001
1000
0100
1000
0001
0100
0010
,
1000
0001
1000
0100
0010
0001
0100
0010
,
0100
0001
1000
0100
1000
0010
0100
0001
,
0010
0001
0010
0100
1000
0010
0100
0001
,
1000
0001
1000
0100
0010
0001
0100
0010
,
1000
0010
1000
0001
0010
0100
0010
0001
,
1000
0010
0100
0001
0010
0100
1000
0001
,
1000
0010
0100
0001
0010
0100
1000
0001
,
0100
0010
200M
0000
0000
0000
0000
0000
,
0000
0000
0000
0000
0000
3000
0100
1000
,
0001
0100
0001
1000
0100
0010
0002
0000
,
1M03
0000
1010
0000
0010
0100
0001
1000
,
0100
0000
1000
0000
0001
0000
0100
0010
0100
0000
0001
0000
4000
0000
0000
3000
,
01M0
0000
1000
0001
0100
0010
1000
0001
,
1000
0000
0100
0000
0010
0000
0001
1000
0001
0000
0100
0000
0020
0000
0000
0000
,
103M
0000
1001
0000
0001
0010
0100
1000
,
0001
0000
0100
0000
0010
0000
1000
0001
1000
0000
0001
0000
0100
0000
0010
0000
,
1000
0000
0000
0000
0001
0000
1000
0000
0100
0000
1000
0000
0020
0030
0100
0000
,
0001
0000
0020
0030
0100
0000
1000
0000
0001
0000
1000
0000
0200
0000
0000
0000
,
031M
0000
0011
0000
0001
1000
0010
0100
,
0010
0000
1000
0000
0001
0000
0010
0100
0010
0000
0001
0000
4000
0000
0000
3000
,
0M01
0000
0100
0010
1000
0001
0010
0100
,
1000
0000
0001
0000
0100
0000
0010
1000
0010
0000
0100
0000
0002
0000
0000
0000
,
1M03
0000
0001
0010
0100
1000
0001
0100
,
0010
0000
0100
0000
0001
0000
1000
0100
1000
0000
0001
0000
0200
0000
0310
0000
,
0100
0001
0010
0001
1000
0001
0100
0010
,
1000
0000
0001
0000
0010
0000
0100
0000
2000
0000
3000
0000
1100
0000
0000
0001
,
0000
0000
0100
0000
0010
0000
0000
0100
0000
0000
0001
0000
1000
0000
0000
0001
,
0000
0000
0010
0000
0100
0000
0000
1000
0000
0000
0001
0000
0100
0000
0000
0010
,
0000
0000
0100
0000
0001
0000
0000
1000
0000
0000
0001
0000
0010
0000
0000
0100
,
0000
0000
0010
0000
0001
0000
0000
1000
0000
0000
0010
0000
0100
0000
0001
0000
,
0100
0001
1000
0100
1000
0100
0010
0001
,
0010
0001
1000
0010
1000
0010
020M
0000
,
0000
0000
0000
0000
,
0000
0300
0001
1000
0001
0010
0100
1000
,
0010
0100
0001
1000
1001
0000
0001
0000
,
1000
0000
0100
0000
0000
0000
0100
0000
0000
1000
0001
0000
0100
0000
0010
0000
,
0100
0001
1000
0000
1100
0000
0100
0000
,
0000
0000
0010
0000
0000
0000
0100
0000
0000
1000
0001
0000
0100
0000
0010
0000
,
1000
0100
0010
0001
0011
0000
0001
1000
,
0010
0000
0100
0000
0000
0000
0001
0000
0000
1000
0001
0000
1000
0000
0100
0000
,
0010
0001
1000
0010
0400
0300
0001
0040
,
0130
4000
3001
0100
0001
1000
0100
1000
,
0010
0000
0100
0001
1000
0000
0000
0000
1100
0000
0000
0000
0001
0000
0100
0000
,
0010
0000
1000
0000
0001
0000
1000
0000
0100
0000
0010
0000
0100
0000
1000
0001
,
0100
0001
0400
0310
1000
0000
0100
0000
,
0000
0000
1000
0000
0000
0000
0001
0000
0100
0000
0010
0000
1000
0000
0001
0010
,
0100
1000
0001
0000
0101
0000
0100
0010
,
1000
0000
0001
0000
0000
0000
1000
0000
0100
0000
0010
0000
0001
0000
1000
0010
,
0100
0010
1000
0001
1000
0001
0010
0100
,
0010
0100
1000
0010
0100
0001
1000
0100
,
0010
0001
1000
0000
1001
0000
0001
0100
,
0010
0000
0100
0001
1000
0000
0100
0010
,
0001
0000
0000
0000
1000
0000
0004
0003
0100
0000
0000
0000
0010
0000
1000
0000
,
0001
0000
0000
0000
0010
0000
0100
0000
1000
0000
0000
0000
0001
1000
0010
0000
,
0100
0000
0010
0000
1010
0000
1000
0001
,
0010
0000
0100
1000
0010
0000
0100
0001
,
1000
0000
0400
0310
0011
0000
0011
0000
,
0011
0001
2000
0000
0000
0000
0000
0000
,
0000
3002
0000
0000
,
0000
0000
0000
0000
,
0000
0000
0000
0003
0000
0000
0000
0000
;

//---------------dance-single - Benpai----------------
#NOTES:
     dance-single:
     Benpai SN:
     Beginner:
     1:
     0.061061,0.180437,0.007499,0.052491,0.000000,57.000000,56.000000,1.000000,7.000000,0.000000,0.000000,0.061061,0.180437,0.007499,0.052491,0.000000,57.000000,56.000000,1.000000,7.000000,0.000000,0.000000:
// measure 0
0000
0000
0000
0000
,  // measure 1
0000
0000
0000
0000
,  // measure 2
0000
0000
0000
0000
,  // measure 3
0000
0000
0000
0000
,  // measure 4
0000
0000
0000
0000
,  // measure 5
0000
0000
0000
0000
,  // measure 6
0000
0000
0000
0000
,  // measure 7
0000
0000
0000
0000
,  // measure 8
0001
0000
0000
0000
,  // measure 9
0000
0000
0000
0000
,  // measure 10
1000
0000
0000
0000
,  // measure 11
0000
0000
0000
0000
,  // measure 12
0001
0000
0000
0000
,  // measure 13
0000
0000
0000
0000
,  // measure 14
1000
0000
0000
0000
,  // measure 15
0000
0000
0000
0000
,  // measure 16
1001
0000
0000
0000
,  // measure 17
0000
0000
0000
0000
,  // measure 18
0001
0000
0000
0000
,  // measure 19
0000
0000
0000
0000
,  // measure 20
0100
0000
0000
0000
,  // measure 21
0000
0000
0000
0000
,  // measure 22
0010
0000
0000
0000
,  // measure 23
0000
0000
0000
0000
,  // measure 24
1000
0000
0000
0000
,  // measure 25
0000
0000
0000
0000
,  // measure 26
0001
0000
0000
0000
,  // measure 27
0000
0000
0000
0000
,  // measure 28
0010
0000
0000
0000
,  // measure 29
0000
0000
0000
0000
,  // measure 30
0100
0000
0000
0000
,  // measure 31
0000
1000
0000
0000
,  // measure 32
0000
0000
0000
0000
,  // measure 33
0000
0001
0000
0000
,  // measure 34
0000
0000
0000
0000
,  // measure 35
0000
0100
0000
0000
,  // measure 36
0000
0000
0000
0000
,  // measure 37
0000
0001
0000
0000
,  // measure 38
0000
0000
0000
0000
,  // measure 39
0000
1000
0000
0000
,  // measure 40
0000
1000
0000
0000
,  // measure 41
0000
0001
0000
0000
,  // measure 42
0000
0001
0000
0000
,  // measure 43
0000
0010
0000
0000
,  // measure 44
0000
0010
0000
0000
,  // measure 45
0000
0100
0000
0000
,  // measure 46
0000
0000
0000
1000
,  // measure 47
0000
0000
0000
0000
0000
0000
0000
0000
0000
0000
0000
0000
0002
0000
0000
0003
,  // measure 48
0000
0000
0000
0000
,  // measure 49
0000
0000
0000
0000
0000
0000
0000
0000
0000
0000
0000
0000
0200
0000
0000
0300
,  // measure 50
0000
0000
0000
0000
,  // measure 51
0000
0000
0000
0000
0000
0000
0000
0000
0000
0000
0000
0000
0020
0000
0000
0030
,  // measure 52
0000
0000
0000
0000
,  // measure 53
0000
0000
0000
1000
,  // measure 54
0000
0000
0000
0000
,  // measure 55
0000
0000
0000
0000
0000
0000
0000
0000
0000
0000
0000
0000
0002
0000
0000
0003
,  // measure 56
0000
0000
0000
0000
,  // measure 57
0000
0000
0000
0000
0000
0000
0000
0000
0000
0000
0000
0000
2000
0000
0000
3000
,  // measure 58
0000
0000
0000
0000
,  // measure 59
0000
0000
0000
0000
0000
0000
0000
0000
0000
0000
0000
0000
0200
0000
0000
0300
,  // measure 60
0000
0000
0000
0000
,  // measure 61
0000
0000
0000
1000
,  // measure 62
0000
0000
0000
0000
,  // measure 63
0000
0000
0000
0001
,  // measure 64
0000
0000
0000
0001
,  // measure 65
0000
0000
0000
0100
,  // measure 66
0000
0000
0000
0100
,  // measure 67
0000
0000
0000
0010
,  // measure 68
0000
0010
0000
1000
,  // measure 69
0000
1000
0000
0001
,  // measure 70
0000
0000
0000
0000
,  // measure 71
0000
2000
0000
0000
,  // measure 72
0000
3000
0100
0000
0000
0000
0000
0000
,  // measure 73
0000
0000
0000
0000
,  // measure 74
0000
1000
0000
0000
,  // measure 75
0000
0000
0000
0000
,  // measure 76
0000
0010
0000
0000
,  // measure 77
0000
0000
0000
0000
,  // measure 78
0000
0100
0000
0000
,  // measure 79
0000
0000
0000
0000
,  // measure 80
0000
0001
0000
0000
,  // measure 81
0000
0000
0000
0000
,  // measure 82
0000
1000
0000
0000
,  // measure 83
0000
0000
0000
0000
,  // measure 84
0000
0100
0000
0000
,  // measure 85
0000
0000
0000
0000
,  // measure 86
0000
0010
0000
0000
,  // measure 87
0000
0000
0000
0000
,  // measure 88
0000
0001
0000
0000
,  // measure 89
0000
0000
0000
0000
,  // measure 90
0000
0001
0000
0000
,  // measure 91
0000
0000
0000
0000
,  // measure 92
0000
1000
0000
0000
,  // measure 93
0000
0000
0000
0000
,  // measure 94
0000
1000
0000
0000
,  // measure 95
0000
0010
0000
0000
,  // measure 96
0000
0010
0000
0000
;

//---------------dance-single - Benpai----------------
#NOTES:
     dance-single:
     Benpai SE:
     Easy:
     3:
     0.185324,0.331535,0.089984,0.082485,0.000000,173.000000,161.000000,12.000000,11.000000,0.000000,0.000000,0.185324,0.331535,0.089984,0.082485,0.000000,173.000000,161.000000,12.000000,11.000000,0.000000,0.000000:
0000
0000
0000
0000
,
0000
0000
0000
0000
,
0000
0000
0000
0000
,
0000
0000
0000
0000
,
0000
0000
0000
0000
,
0000
0000
0000
0000
,
0000
0000
0000
0000
,
0000
0000
0000
0000
,
0001
0000
0000
0000
,
0000
0000
0000
1000
,
0100
0000
0000
0000
,
0000
0000
0000
0000
,
1000
0000
0000
0000
,
0000
0000
0000
0010
,
0100
0000
0000
0000
,
0001
0001
1000
0000
,
1001
0000
0000
0000
0000
0001
0000
0010
,
0000
0000
0000
0000
,
0110
0000
0000
0000
0000
1000
0000
0100
,
0000
0000
0000
0000
,
1100
0000
0000
0000
0000
1000
0000
0001
,
0000
0000
0000
0000
,
0011
0000
0000
0000
0000
0010
0000
0100
,
0000
0000
0000
0000
,
2100
0000
0000
3000
0000
0001
0000
0100
,
0000
0000
0001
0000
,
1001
0000
0000
0000
0000
1000
0000
0100
,
0000
0000
0010
0000
,
0110
0000
0000
0000
0000
0001
0000
0100
,
0000
0000
0010
0000
,
1010
0000
0000
0000
0000
1000
0000
0001
,
0000
0100
0000
0000
,
0000
0100
0000
0000
,
0000
0001
0000
0000
,
0000
0001
0000
0000
,
0000
1000
0000
0000
,
0000
1000
0000
0000
,
0000
0100
0000
0000
,
0000
0100
0000
0000
,
0000
0010
0000
0010
,
0000
0001
0000
0001
,
0000
1000
0000
1000
,
0000
0010
0000
0010
,
0000
0100
0100
0010
,
0010
1000
1000
0001
,
0001
0020
0000
0000
,
0000
0000
0000
0130
,
0000
0000
0000
0000
0000
0000
0000
0000
0000
0000
0000
0000
1002
0000
0000
0003
,
0000
0100
0000
0000
,
0000
0000
0000
0000
0010
0000
0000
0000
0000
0000
0000
0000
2000
0000
0000
3000
,
0000
0100
0000
0000
,
0000
0000
0000
0000
1000
0000
0000
0000
0000
0000
0000
0000
0002
0000
0000
0003
,
0000
1000
0000
0000
,
0000
0010
0000
0100
,
0000
0000
0000
0001
,
0000
0000
0001
0000
0000
0000
0000
0000
0000
0000
0000
0000
2001
0000
0000
3000
,
0000
0010
0000
0000
,
0000
0000
0000
0000
0100
0000
0000
0000
0000
0000
0000
0000
0002
0000
0000
0003
,
0000
0010
0000
0000
,
0000
0000
0000
0000
0001
0000
0000
0000
0000
0000
0000
0000
2000
0000
0000
3000
,
0000
0001
0000
0000
,
0000
0100
0000
0010
,
0000
0000
0000
1000
,
0000
0100
0010
0010
,
0000
0001
0000
1000
,
0000
0001
0000
0100
,
0000
0010
0000
1000
,
0000
0010
0000
0100
,
0100
0001
0001
1000
,
1000
0100
0100
0020
,
0000
0000
0000
0000
,
0000
0031
0001
1000
,
1000
0010
0100
0000
,
0100
0000
0001
0000
,
1000
0000
0100
0000
,
1000
0000
0001
0000
,
0100
0000
0040
0030
0100
0000
0000
0000
,
0001
0000
1000
0000
,
0001
0000
0040
0030
0000
0000
0100
0000
,
0000
0000
1000
0000
0000
1000
0000
0000
,
0010
0100
0001
0000
,
1000
0000
0100
0000
,
1000
0000
0001
0000
,
0100
0000
0010
0000
,
0100
0000
0004
0003
1000
0000
0000
0000
,
0001
0000
0010
0000
,
0100
2000
0000
0000
,
0000
0000
0000
0000
,
3000
0101
0100
0000
,
0010
0000
0100
0000
,
0001
0000
1000
0000
,
0100
0000
0010
0000
,
0001
1001
1000
0000
,
0010
0000
0100
0000
,
0001
0000
1000
1000
,
1000
0010
0000
0000
,
0000
0200
0000
0000
,
0000
0000
0000
0000
,
0000
0300
0000
0000
;

//---------------dance-single - Benpai----------------
#NOTES:
     dance-single:
     Benpai SM:
     Medium:
     7:
     0.417783,0.479493,0.067488,0.209963,0.000000,390.000000,381.000000,9.000000,28.000000,2.000000,0.000000,0.417783,0.479493,0.067488,0.209963,0.000000,390.000000,381.000000,9.000000,28.000000,2.000000,0.000000:
0000
0000
0000
0000
,
0000
0000
0000
0000
,
0000
0000
0000
0000
,
0000
0000
0000
0000
,
0000
0000
0000
0000
,
0000
0000
0000
0000
,
0000
0000
0000
0000
,
0000
0000
0000
0000
,
0001
0000
0000
0000
0000
0100
0000
0001
,
0000
0000
0000
0000
0000
0000
1000
0100
,
0010
0000
0000
0000
0000
0100
0000
0100
,
0000
0000
0000
0000
0000
1000
0000
0000
,
1001
0000
0000
0000
0000
0001
0000
0010
,
0000
0000
0000
0000
0000
0000
0100
0010
,
0001
0000
0000
0000
0000
1000
0000
1000
,
0001
0000
0010
0000
0100
1000
0001
0100
,
0020
0000
0000
0000
1030
0001
0000
0020
,
0000
0130
1000
0001
0000
0100
0000
0000
,
0020
0000
1030
0010
0000
0100
0000
0200
,
0000
0310
1000
0001
0000
1000
0100
1000
,
0002
0000
0000
0000
0103
0010
0000
2000
,
0000
3001
0010
0100
0000
1000
0000
0001
,
0020
0000
0430
0000
1300
0001
0000
0002
,
0000
0000
0103
0010
0000
1000
0001
0000
,
0020
0000
0000
0000
0130
1000
0000
0002
,
0000
0000
0000
0003
0000
0100
0010
1000
,
0200
0000
0300
0000
0000
0010
0000
0200
,
0000
0000
0000
0300
1000
0001
0100
0010
,
2000
0000
0000
0000
3000
0001
0000
0200
,
0000
0000
0000
0300
0000
0001
1000
0100
,
0020
0000
0031
0000
0100
0001
0000
2000
,
0000
0000
30M1
0000
1000
0010
0000
0000
,
0000
0000
0000
0100
0001
1000
0000
0100
,
0000
0000
1000
0000
0001
1000
0000
0010
,
0000
0100
0000
0001
0100
0010
0000
1000
,
0001
0010
0100
0000
0010
0001
0000
1000
,
0000
0010
0000
0000
0100
0001
0000
1000
,
0000
0000
0100
0000
0010
0001
1000
0000
,
0010
0000
0010
0000
0100
0001
1000
0000
,
1000
0000
1100
0000
0100
0010
0001
0000
,
0001
0000
0100
0000
0010
1000
0100
0000
,
0100
0000
0010
0000
0001
1000
0010
0000
,
0010
0000
0100
0000
0001
0010
0100
0000
,
0100
0000
1000
0000
1000
0010
0000
0100
,
0001
0000
0001
0000
1000
0100
0000
1000
,
0010
020M
0000
0000
,
0000
0000
0000
0000
0000
0300
0010
0000
,
1000
0010
0000
0100
0001
1000
0200
0000
,
0310
0000
0001
0000
1000
0001
0100
0000
,
0010
0100
0001
0000
0001
0000
0200
0000
,
0310
0000
1000
0000
0001
0010
0100
0000
,
1000
0001
0100
0000
0010
1000
0200
0000
,
0310
0000
0100
0000
1000
0001
0100
0000
,
0010
0100
0001
0000
1000
0001
0010
0000
,
0100
0000
0000
0000
0010
0000
0000
0000
0001
0000
1000
0000
0020
0030
0000
0000
,
0100
0000
0002
0003
0000
0000
1000
0000
0100
0000
1000
0000
0002
0000
0000
0000
,
0103
0000
0010
0000
1000
0001
0010
0000
,
0100
1000
0001
0000
0001
0000
0200
0000
,
0310
0000
1000
0000
0001
1000
0100
0000
,
0010
0001
1000
0000
0010
0100
0002
0000
,
1003
0000
0100
0010
0100
1000
0001
0000
,
0100
0010
1000
0000
0001
1000
0100
0000
,
1000
0010
0100
0001
,
0001
1000
0100
0110
,
0010
0001
1000
0001
,
0100
0010
1000
0001
,
0010
0100
0010
0001
,
1000
0010
0100
0001
,
0001
1000
1000
0100
,
0100
0010
0010
0002
,
0000
0000
0000
0000
,
0000
0003
1000
0000
0010
0000
0100
0000
,
0001
1000
1001
0001
,
0000
0010
0000
0010
0000
0100
1000
0000
,
0001
1000
0000
0000
0010
0000
0100
0000
,
0000
0001
0000
1000
0000
0100
0010
0100
,
1000
0001
0101
0100
,
0000
0010
0000
1000
0000
0001
1000
0000
,
0100
0010
0001
0000
1000
0000
0001
0010
,
0000
0100
1000
0000
0001
1000
0000
0010
,
0100
0001
1000
0000
1100
0000
0100
0000
,
0000
0010
0000
0001
0000
0100
0010
0000
,
1000
0100
0000
0010
0000
0001
1000
0000
,
0000
0001
0000
0100
0000
0010
1000
0000
,
0010
0100
0001
0000
0101
0000
0100
0000
,
0000
0010
0000
1000
0000
0001
1000
0000
,
0100
0010
0001
0000
0001
0000
1000
0000
,
1000
0010
0010
0100
,
0100
0000
0001
0000
1001
0000
1000
0100
,
0010
0000
0100
0000
1000
0000
0001
0100
,
0010
0000
0100
0000
0001
0000
1000
0100
,
0010
0000
0100
0000
1000
0000
0001
1000
,
0010
0000
0100
0000
0101
0000
0001
1000
,
0100
0000
1000
0000
0010
0000
0100
0001
,
1000
0000
0100
0010
0001
0000
0001
0000
,
0001
1000
0020
0000
0000
0000
0000
0000
,
0000
0230
0000
0000
,
0000
0000
0000
0000
,
0000
0000
0000
0300
0000
0000
0000
0000
;
