#TITLE:Armada;
#SUBTITLE:;
#ARTIST:Black Tiger Sex Machine & Lektrique;
#TITLETRANSLIT:;
#SUBTITLETRANSLIT:;
#ARTISTTRANSLIT:;
#GENRE:Trap;
#CREDIT:Feraligatr;
#BANNER:armada-bn.png;
#BACKGROUND:armada-bg.png;
#LYRICSPATH:;
#CDTITLE:FeraligatrV4-cd.png;
#MUSIC:Black Tiger Sex Machine & Lektrique - Armada.ogg;
#OFFSET:0.009000;
#SAMPLESTART:23.990999;
#SAMPLELENGTH:14.400000;
#SELECTABLE:YES;
#DISPLAYBPM:150.000000;
#BPMS:0.000000=150.000000
,129.000000=225.000000
,130.000000=150.000000
,240.000000=112.500000
,241.000000=225.000000
,242.000000=150.000000
,257.000000=225.000000
,258.000000=150.000000
;
#STOPS:129.000000=0.033000,
129.250000=0.034000,
129.500000=0.033000,
129.750000=0.033000,
257.000000=0.034000,
257.250000=0.033000,
257.500000=0.033000,
257.750000=0.034000
;
#BGCHANGES:;
#KEYSOUNDS:;
#ATTACKS:;

//---------------dance-single - Feraligatr----------------
#NOTES:
     dance-single:
     Feraligatr:
     Challenge:
     10:
     0.651036,0.965792,0.709924,0.137405,0.400763,597.000000,504.000000,93.000000,18.000000,12.000000,0.000000,0.651036,0.965792,0.709924,0.137405,0.400763,597.000000,504.000000,93.000000,18.000000,12.000000,0.000000:
// measure 0
0000
0000
0000
0000
,  // measure 1
0000
0000
0000
0000
,  // measure 2
0000
0000
0000
0000
,  // measure 3
0000
0000
0000
0000
,  // measure 4
0000
0000
0000
0000
,  // measure 5
0000
0000
0000
0000
,  // measure 6
0000
0000
0000
0000
,  // measure 7
0000
0000
0000
0000
,  // measure 8
1100
0000
0100
0000
,  // measure 9
0110
0000
0001
1000
,  // measure 10
1010
0000
0010
0000
,  // measure 11
0101
0000
1000
0000
,  // measure 12
0001
0010
0100
0010
,  // measure 13
0001
1000
0010
0100
0010
1000
0001
1000
,  // measure 14
0100
0010
0001
1000
0001
0100
0010
0100
0001
1000
0100
0010
0100
1000
0001
0100
,  // measure 15
0010
0000
0000
0000
0000
0000
0000
0000
0000
0000
1000
0100
0010
0000
0100
0000
,  // measure 16
1100
0000
MM00
0000
1001
0000
0000
1000
,  // measure 17
0001
0000
0100
0000
0100
0000
1000
0000
0100
0000
0100
0000
0020
0000
0000
0030
,  // measure 18
1010
0000
0000
0000
1000
0001
1000
0010
0100
0010
1000
0001
1000
0100
0010
0001
,  // measure 19
0100
0000
0000
0000
0001
1000
0001
0010
0101
1000
0001
1000
0011
0000
0000
0000
,  // measure 20
1001
0000
000M
0000
1010
0000
0010
0100
,  // measure 21
0001
0010
0010
1000
0010
0010
0100
1000
,  // measure 22
0001
0000
0000
0000
0100
0000
0000
0000
0010
0000
0000
0000
1000
0000
0000
0000
0001
0000
0000
0000
1000
0000
0000
0000
0100
0000
0000
0000
0000
0000
0000
0000
0000
0000
0000
0000
0110
0000
0000
0000
0000
0000
0000
0000
0000
0011
0000
0000
,  // measure 23
0000
0000
0110
0000
0000
0011
0000
0000
0110
0000
0100
1010
0000
0100
1010
0000
,  // measure 24
1001
0000
0000
0000
M00M
0000
0000
0000
0101
0000
0000
0000
0000
0000
0100
0001
,  // measure 25
1000
0000
0100
0000
0100
0000
0001
0000
0100
0000
0100
0000
0020
0000
0000
0030
,  // measure 26
0011
0000
0000
0000
0001
1000
0001
0100
0010
0100
0001
1000
0001
0010
0100
1000
,  // measure 27
0010
0000
0000
0000
0100
0001
1000
0010
1100
0001
1000
0100
0000
1010
0100
0000
,  // measure 28
0110
0000
0M00
0010
0011
0000
0001
1000
,  // measure 29
0001
0100
0100
1000
0100
0100
0010
1000
,  // measure 30
1001
0000
0000
0000
0000
0000
0000
0000
1000
0000
0000
0000
0100
0000
0000
0000
0010
0000
0000
0000
0001
0000
0000
0000
0100
0000
0000
0000
0000
0000
0000
0000
0000
0000
0000
0000
0101
0000
0000
0000
0000
0000
0000
0000
0000
1001
0000
0000
,  // measure 31
0000
0000
1100
0000
0000
0110
0000
0000
0011
0000
0010
0101
0000
0010
0101
0000
,  // measure 32
2001
0000
0000
0000
3001
1000
0010
1000
0100
0000
0000
0000
0010
0000
0010
0000
,  // measure 33
1000
0000
0010
0000
0100
0000
0100
0000
1000
0000
0000
0000
0001
0100
0001
0100
,  // measure 34
0010
1000
0000
1000
0001
0000
0010
0010
,  // measure 35
0100
0001
0100
0100
1000
1100
1100
1100
,  // measure 36
000M
0000
1000
0100
0001
0000
0100
0000
0110
0000
0000
0000
1000
0000
0010
0000
,  // measure 37
0010
0000
0001
0000
0010
0000
0010
0000
0100
0000
0000
0000
0001
1000
0001
1000
,  // measure 38
0010
0100
0001
1000
0100
0000
0010
0010
,  // measure 39
1000
0001
0100
0100
1000
0000
0100
0100
,  // measure 40
0120
0000
0000
0030
,  // measure 41
1002
0000
0000
0003
,  // measure 42
0021
0000
0000
0030
,  // measure 43
2001
0000
0000
3000
1020
0030
0210
0300
,  // measure 44
0101
0100
0010
1000
,  // measure 45
1001
0001
0010
0100
,  // measure 46
1100
0000
0000
1000
0000
0000
0001
0000
0000
0100
0000
0000
0010
0000
0100
0000
0001
0000
1000
0000
0100
0000
0010
0000
,  // measure 47
0002
0000
0000
0000
0000
0000
0000
0000
0000
0000
1003
0010
0100
0000
0001
0000
,  // measure 48
1001
0000
M00M
0000
1100
0000
0100
0010
,  // measure 49
0001
0000
0100
0000
0100
0000
1000
0000
0100
0000
0100
0000
0002
0000
0000
0003
,  // measure 50
1001
0000
0000
0000
1000
0001
0100
0010
0100
0001
1000
0010
1000
0001
0010
0001
,  // measure 51
0100
0000
0000
0000
0010
1000
0001
0010
0101
1000
0001
1000
0010
1100
0011
0000
,  // measure 52
1001
0000
1000
1000
0010
0000
0100
0001
,  // measure 53
1000
0100
0100
0001
0100
0100
0010
0001
,  // measure 54
0011
0000
0010
0100
0010
0001
1001
0000
0000
0101
0000
0000
,  // measure 55
0110
0000
0000
0000
1010
0000
0000
0000
1001
0000
0000
0011
0000
0000
0110
0000
,  // measure 56
11MM
0000
0000
0000
0004
0000
0000
0003
0101
0000
0000
0000
0001
0000
1000
0001
,  // measure 57
0010
0000
0100
0000
0100
0000
0001
0000
0100
0000
0100
0000
2000
0000
0000
3000
,  // measure 58
1001
0000
0000
0000
0001
1000
0001
0010
0100
0010
0001
1000
0001
0100
0010
1000
,  // measure 59
0100
0000
0000
0000
0010
0001
1000
0010
1100
0001
1000
0001
1010
0000
0000
0000
,  // measure 60
1001
0000
0M00
0000
0011
0000
0010
0100
,  // measure 61
1000
0010
0010
0001
0010
0010
0100
0001
,  // measure 62
1001
0000
0000
0000
0000
0000
0000
0000
1000
0000
0000
0000
0100
0000
0000
0000
0010
0000
0000
0000
0100
0000
0000
0000
1000
0000
0000
0000
0000
0000
0000
0000
0000
0000
0000
0000
1100
0000
0000
0000
0000
0000
0000
0000
0000
0110
0000
0000
,  // measure 63
0000
0000
0011
0000
0000
1001
0000
0000
1010
0000
0010
1100
0000
0010
1100
0000
,  // measure 64
1002
0000
0000
0000
1003
0001
0010
0001
0100
0000
0000
0000
0010
0000
0010
0000
,  // measure 65
0001
0000
0010
0000
0100
0000
0100
0000
0001
0000
0000
0000
1000
0100
1000
0100
,  // measure 66
0010
0001
0000
0001
1000
0000
0010
0010
,  // measure 67
0100
1000
0100
0100
0001
0101
0101
0100
,  // measure 68
1001
0000
0001
0100
1000
0000
0100
0000
0110
0000
0000
0000
0001
0000
0100
0000
,  // measure 69
0100
0000
1000
0000
0100
0000
0100
0000
0010
0000
0000
0000
1000
0001
1000
0001
,  // measure 70
0010
0000
0100
0000
0000
0000
1000
0001
0100
0000
0000
0000
0010
0000
0010
0000
,  // measure 71
0001
0000
0010
0000
0010
0000
0010
0000
0010
0000
0100
0001
1000
0000
0100
0000
,  // measure 72
0120
0000
0130
1000
0010
0100
0010
1000
,  // measure 73
0001
0010
0100
1000
0010
0000
0000
0000
,  // measure 74
0210
0000
0310
1000
0100
0010
0100
1000
,  // measure 75
0001
0100
0010
1000
0100
0010
0001
1000
,  // measure 76
1002
0000
0103
0001
0010
0100
1000
0001
,  // measure 77
1000
0010
0100
0001
0010
0100
1000
0001
,  // measure 78
1000
0000
0010
0000
0100
0000
0001
1000
0100
0000
0010
0000
0011
0000
0000
1001
,  // measure 79
0000
0000
1010
0000
0000
0110
0000
0000
0101
0000
0100
0011
0000
0100
0011
0000
,  // measure 80
2002
0000
0000
0000
,  // measure 81
0000
0000
0000
0000
0000
3003
0000
0000
;

//---------------dance-single - No Brackets----------------
#NOTES:
     dance-single:
     No Brackets:
     Edit:
     10:
     0.632497,0.872328,0.580153,0.137405,0.400763,580.000000,504.000000,76.000000,18.000000,11.000000,0.000000,0.632497,0.872328,0.580153,0.137405,0.400763,580.000000,504.000000,76.000000,18.000000,11.000000,0.000000:
// measure 0
0000
0000
0000
0000
,  // measure 1
0000
0000
0000
0000
,  // measure 2
0000
0000
0000
0000
,  // measure 3
0000
0000
0000
0000
,  // measure 4
0000
0000
0000
0000
,  // measure 5
0000
0000
0000
0000
,  // measure 6
0000
0000
0000
0000
,  // measure 7
0000
0000
0000
0000
,  // measure 8
1100
0000
0100
0000
,  // measure 9
0110
0000
0001
1000
,  // measure 10
1010
0000
0010
0000
,  // measure 11
0101
0000
1000
0000
,  // measure 12
0001
0010
0100
0010
,  // measure 13
0001
1000
0010
0100
0010
1000
0001
1000
,  // measure 14
0100
0010
0001
1000
0001
0100
0010
0100
0001
1000
0100
0010
0100
1000
0001
0100
,  // measure 15
0010
0000
0000
0000
0000
0000
0000
0000
0000
0000
1000
0100
0010
0000
0100
0000
,  // measure 16
1100
0000
MM00
0000
1001
0000
0000
1000
,  // measure 17
0001
0000
0100
0000
0100
0000
1000
0000
0100
0000
0100
0000
0020
0000
0000
0030
,  // measure 18
1010
0000
0000
0000
1000
0001
1000
0010
0100
0010
1000
0001
1000
0100
0010
0001
,  // measure 19
0100
0000
0000
0000
0001
1000
0001
0010
0100
1000
0001
1000
0010
0000
0000
0000
,  // measure 20
1001
0000
000M
0000
1010
0000
0010
0100
,  // measure 21
0001
0010
0010
1000
0010
0010
0100
1000
,  // measure 22
0001
0000
0000
0000
0100
0000
0000
0000
0010
0000
0000
0000
1000
0000
0000
0000
0001
0000
0000
0000
1000
0000
0000
0000
0100
0000
0000
0000
0000
0000
0000
0000
0000
0000
0000
0000
0110
0000
0000
0000
0000
0000
0000
0000
0000
0011
0000
0000
,  // measure 23
0000
0000
0110
0000
0000
0011
0000
0000
0110
0000
0100
1000
0000
0100
1000
0000
,  // measure 24
1001
0000
0000
0000
M00M
0000
0000
0000
0101
0000
0000
0000
0000
0000
0100
0001
,  // measure 25
1000
0000
0100
0000
0100
0000
0001
0000
0100
0000
0100
0000
0020
0000
0000
0030
,  // measure 26
0011
0000
0000
0000
0001
1000
0001
0100
0010
0100
0001
1000
0001
0010
0100
1000
,  // measure 27
0010
0000
0000
0000
0100
0001
1000
0010
0100
0001
1000
0100
0000
0010
0100
0000
,  // measure 28
0110
0000
0M00
0010
0011
0000
0001
1000
,  // measure 29
0001
0100
0100
1000
0100
0100
0010
1000
,  // measure 30
1001
0000
0000
0000
0000
0000
0000
0000
1000
0000
0000
0000
0100
0000
0000
0000
0010
0000
0000
0000
0001
0000
0000
0000
0100
0000
0000
0000
0000
0000
0000
0000
0000
0000
0000
0000
0101
0000
0000
0000
0000
0000
0000
0000
0000
1001
0000
0000
,  // measure 31
0000
0000
1100
0000
0000
0110
0000
0000
0011
0000
0010
0100
0000
0010
0100
0000
,  // measure 32
2001
0000
0000
0000
3001
1000
0010
1000
0100
0000
0000
0000
0010
0000
0010
0000
,  // measure 33
1000
0000
0010
0000
0100
0000
0100
0000
1000
0000
0000
0000
0001
0100
0001
0100
,  // measure 34
0010
1000
0000
1000
0001
0000
0010
0010
,  // measure 35
0100
0001
0100
0100
1000
1100
1100
1100
,  // measure 36
000M
0000
1000
0100
0001
0000
0100
0000
0110
0000
0000
0000
1000
0000
0100
0000
,  // measure 37
0100
0000
0001
0000
0100
0000
0100
0000
0010
0000
0000
0000
0001
1000
0001
1000
,  // measure 38
0010
0100
0100
1000
0100
0000
0010
0010
,  // measure 39
1000
0001
0100
0100
1000
0000
0100
0100
,  // measure 40
0102
0000
0000
0003
,  // measure 41
1200
0000
0000
0300
,  // measure 42
0012
0000
0000
0003
,  // measure 43
2001
0000
0000
3000
1020
0030
0210
0300
,  // measure 44
0101
0100
0010
1000
,  // measure 45
1001
0001
0010
0100
,  // measure 46
1100
0000
0000
1000
0000
0000
0001
0000
0000
0100
0000
0000
0010
0000
0100
0000
0001
0000
1000
0000
0100
0000
0010
0000
,  // measure 47
0002
0000
0000
0000
0000
0000
0000
0000
0000
0000
1003
0010
0100
0000
0001
0000
,  // measure 48
1001
0000
M00M
0000
1100
0000
0100
0010
,  // measure 49
0001
0000
0100
0000
0100
0000
1000
0000
0100
0000
0100
0000
0002
0000
0000
0003
,  // measure 50
1001
0000
0000
0000
1000
0001
0100
0010
0100
0001
1000
0010
1000
0001
0010
0001
,  // measure 51
0100
0000
0000
0000
0010
1000
0001
0010
0100
1000
0001
1000
0010
0100
0001
0000
,  // measure 52
1001
0000
1000
1000
0010
0000
0100
0001
,  // measure 53
1000
0100
0100
0001
0100
0100
0010
0001
,  // measure 54
0011
0000
0010
0100
0010
0001
1001
0000
0000
0101
0000
0000
,  // measure 55
0110
0000
0000
0000
1010
0000
0000
0000
1001
0000
0000
0011
0000
0000
0110
0000
,  // measure 56
11MM
0000
0000
0000
0004
0000
0000
0003
0101
0000
0000
0000
0001
0000
1000
0001
,  // measure 57
0010
0000
0100
0000
0100
0000
0001
0000
0100
0000
0100
0000
2000
0000
0000
3000
,  // measure 58
1001
0000
0000
0000
0001
1000
0001
0010
0100
0010
0001
1000
0001
0100
0010
1000
,  // measure 59
0100
0000
0000
0000
0010
0001
1000
0010
0100
0001
1000
0001
0010
0000
0000
0000
,  // measure 60
1001
0000
0000
0000
0011
0000
0010
0100
,  // measure 61
1000
0010
0010
0001
0010
0010
0100
0001
,  // measure 62
1001
0000
0000
0000
0000
0000
0000
0000
1000
0000
0000
0000
0100
0000
0000
0000
0010
0000
0000
0000
0100
0000
0000
0000
1000
0000
0000
0000
0000
0000
0000
0000
0000
0000
0000
0000
1100
0000
0000
0000
0000
0000
0000
0000
0000
0110
0000
0000
,  // measure 63
0000
0000
0011
0000
0000
1001
0000
0000
1010
0000
0010
0100
0000
0010
0100
0000
,  // measure 64
1002
0000
0000
0000
1003
0001
0010
0001
0100
0000
0000
0000
0010
0000
0010
0000
,  // measure 65
0001
0000
0010
0000
0100
0000
0100
0000
0001
0000
0000
0000
1000
0100
1000
0100
,  // measure 66
0010
0001
0000
0001
1000
0000
0010
0010
,  // measure 67
0100
1000
0100
0100
0001
0101
0101
0100
,  // measure 68
1001
0000
0001
0100
1000
0000
0100
0000
0110
0000
0000
0000
0001
0000
0100
0000
,  // measure 69
0100
0000
1000
0000
0100
0000
0100
0000
0010
0000
0000
0000
1000
0001
1000
0001
,  // measure 70
0010
0000
0100
0000
0000
0000
1000
0001
0100
0000
0000
0000
0010
0000
0010
0000
,  // measure 71
0001
0000
0010
0000
0010
0000
0010
0000
0010
0000
0100
0001
1000
0000
0100
0000
,  // measure 72
0120
0000
0130
1000
0010
0100
0010
1000
,  // measure 73
0001
0010
0100
1000
0010
0000
0000
0000
,  // measure 74
0210
0000
0310
1000
0100
0010
0100
1000
,  // measure 75
0001
0100
0010
1000
0100
0010
0001
1000
,  // measure 76
1002
0000
0103
0001
0010
0100
1000
0001
,  // measure 77
1000
0010
0100
0001
0010
0100
1000
0001
,  // measure 78
1000
0000
0010
0000
0100
0000
0001
1000
0100
0000
0010
0000
0011
0000
0000
1001
,  // measure 79
0000
0000
1010
0000
0000
0110
0000
0000
0101
0000
0100
0010
0000
0100
0010
0000
,  // measure 80
2002
0000
0000
0000
,  // measure 81
0000
0000
0000
0000
0000
3003
0000
0000
;

//---------------dance-single - Feraligatr SH----------------
#NOTES:
     dance-single:
     Feraligatr SH:
     Hard:
     9:
     0.525627,0.685401,0.236641,0.206107,0.282443,482.000000,451.000000,31.000000,27.000000,0.000000,0.000000,0.525627,0.685401,0.236641,0.206107,0.282443,482.000000,451.000000,31.000000,27.000000,0.000000,0.000000:
// measure 0
0000
0000
0000
0000
,  // measure 1
0000
0000
0000
0000
,  // measure 2
0000
0000
0000
0000
,  // measure 3
0000
0000
0000
0000
,  // measure 4
0000
0000
0000
0000
,  // measure 5
0000
0000
0000
0000
,  // measure 6
0000
0000
0000
0000
,  // measure 7
0000
0000
0000
0000
,  // measure 8
1001
0000
0001
0000
,  // measure 9
0101
0000
0100
0010
,  // measure 10
1010
0000
1000
0000
,  // measure 11
1001
0000
0001
0000
,  // measure 12
1000
0100
0010
0001
,  // measure 13
1000
0010
0100
0001
1000
0100
0010
0001
,  // measure 14
1000
0100
1000
0010
0100
0010
1000
0001
,  // measure 15
0010
0000
0000
0000
0000
0000
0000
0000
0000
0000
0001
1000
0010
0000
0100
0000
,  // measure 16
0001
0000
0000
0000
1001
0000
0000
1000
,  // measure 17
0100
0000
0010
0000
0010
0000
0001
0000
1000
0000
1000
0000
0020
0000
0000
0030
,  // measure 18
0110
0000
0000
0000
0100
0001
0100
0000
0001
1000
0001
0000
1000
0100
1000
0000
,  // measure 19
0001
0000
0000
0000
1000
0000
0010
0100
0001
1000
0001
1000
0100
0000
0000
0000
,  // measure 20
0110
0000
0000
0000
1001
0000
0001
1000
,  // measure 21
0100
0010
0010
0001
1000
1000
0001
0100
,  // measure 22
0010
0000
0000
0000
1000
0000
0000
0000
0010
0000
0000
0000
1000
0000
0000
0000
0010
0000
0000
0000
1000
0000
0000
0000
0001
0000
0000
0000
0000
0000
0000
0000
0000
0000
0000
0000
0010
0000
0000
0000
0000
0000
0000
0000
0000
0110
0000
0000
,  // measure 23
0000
0000
0010
0000
0000
0110
0000
0000
0010
0000
0100
1000
0000
0100
1000
0000
,  // measure 24
1001
0000
0000
0000
0101
0000
0000
0001
,  // measure 25
1000
0000
0010
0000
0010
0000
0100
0000
0001
0000
0001
0000
2000
0000
0000
3000
,  // measure 26
1100
0000
0000
0000
1000
0001
1000
0000
0001
0100
0001
0000
1000
0100
1000
0000
,  // measure 27
0001
0000
0000
0000
0100
0000
0010
1000
0010
0100
0000
0100
0000
0001
1000
0000
,  // measure 28
0100
0000
0000
0100
0110
0000
0010
0001
,  // measure 29
1000
0010
0010
0100
0001
0001
1000
0100
,  // measure 30
0010
0000
0000
0000
0000
0000
0000
0000
0001
0000
0000
0000
1000
0000
0000
0000
0001
0000
0000
0000
1000
0000
0000
0000
0010
0000
0000
0000
0000
0000
0000
0000
0000
0000
0000
0000
0100
0000
0000
0000
0000
0000
0000
0000
0000
0001
0000
0000
,  // measure 31
0000
0000
1000
0000
0000
0100
0000
0000
0010
0000
0001
1000
0000
0001
1000
0000
,  // measure 32
2001
0000
0000
0000
3100
0000
0010
0010
,  // measure 33
0001
0000
1000
0000
0010
0000
0010
0000
0100
0000
0000
0000
0001
1000
0001
1000
,  // measure 34
0100
0010
0000
0010
0001
0000
1000
1000
,  // measure 35
0010
0100
0001
0001
1000
0100
0100
0100
,  // measure 36
0000
0000
0010
0001
0100
0000
0010
0000
1000
0000
0000
0000
0001
0000
0010
0000
,  // measure 37
0010
0000
0100
0000
1000
0000
1000
0000
0001
0000
0000
0000
1000
0010
1000
0010
,  // measure 38
0100
0001
0001
1000
0100
0000
0010
0010
,  // measure 39
0001
1000
0010
0010
0100
0000
0001
0001
,  // measure 40
1002
0000
0000
0003
,  // measure 41
1200
0000
0000
0300
,  // measure 42
0120
0000
0000
0030
,  // measure 43
0012
0000
0000
0003
2001
3000
1020
0030
,  // measure 44
0102
0100
0100
0103
,  // measure 45
2001
0001
0001
3001
,  // measure 46
1000
0000
0000
0100
0000
0000
1000
0000
0000
0100
0000
0000
1000
0000
0001
0000
1000
0000
0001
0000
1000
0000
0001
0000
,  // measure 47
0200
0000
0000
0000
0000
0000
0000
0000
0000
0000
0310
1000
0001
0000
1000
0000
,  // measure 48
0100
0000
0000
0000
0110
0000
0010
0001
,  // measure 49
1000
0000
0010
0000
0010
0000
0100
0000
0001
0000
0001
0000
2000
0000
0000
3000
,  // measure 50
1001
0000
0000
0000
0001
1000
0001
0000
1000
0100
1000
0000
0001
0100
0001
0000
,  // measure 51
1000
0000
0000
0000
0010
0000
0000
0100
0001
0000
0100
0001
1000
0001
1000
0000
,  // measure 52
1001
0000
1000
1000
0100
0000
0010
0001
,  // measure 53
1000
0010
0010
0100
0001
0001
1000
0100
,  // measure 54
0010
0000
0001
1000
0001
1000
0010
0000
0000
0100
0000
0000
,  // measure 55
0001
0000
0000
0000
1000
0000
0000
0000
0100
0000
0000
0010
0000
0000
0001
0000
,  // measure 56
1000
0000
0002
0000
0103
0000
0000
0001
,  // measure 57
0010
0000
0100
0000
0100
0000
1000
0000
0001
0000
0001
0000
0200
0000
0000
0300
,  // measure 58
0110
0000
0000
0000
0010
1000
0010
0000
0100
0001
0100
0000
0001
1000
0001
0000
,  // measure 59
0010
0000
0000
0000
0100
1000
0100
0000
1000
0001
1000
0001
0100
0000
0000
0000
,  // measure 60
0110
0000
0000
0000
1010
0000
0010
0100
,  // measure 61
0001
1000
1000
0100
0010
0010
0001
1000
,  // measure 62
0010
0000
0000
0000
0000
0000
0000
0000
0100
0000
0000
0000
0001
0000
0000
0000
0100
0000
0000
0000
0001
0000
0000
0000
1000
0000
0000
0000
0000
0000
0000
0000
0000
0000
0000
0000
0100
0000
0000
0000
0000
0000
0000
0000
0000
0010
0000
0000
,  // measure 63
0000
0000
0001
0000
0000
1000
0000
0000
0010
0000
0100
0001
0000
0100
0001
0000
,  // measure 64
1002
0000
0000
0000
0013
0000
0100
0100
,  // measure 65
1000
0000
0001
0000
0100
0000
0100
0000
0010
0000
0000
0000
1000
0001
1000
0001
,  // measure 66
0010
0100
0000
0100
1000
0000
0001
0001
,  // measure 67
0100
0010
1000
1000
0001
0010
0010
0010
,  // measure 68
0100
0000
0010
0001
0100
0000
0010
0000
1000
0000
0000
0000
0001
0000
0010
0000
,  // measure 69
0010
0000
0100
0000
1000
0000
1000
0000
0001
0000
0000
0000
0100
0001
0100
0001
,  // measure 70
1000
0000
0001
0000
0000
0000
0001
1000
0100
0000
0000
0000
0010
0000
0010
0000
,  // measure 71
0001
0000
1000
0000
1000
0000
1000
0000
1000
0000
0001
1000
0010
0000
0100
0000
,  // measure 72
0002
0000
1003
0001
0010
0000
0100
0000
,  // measure 73
2000
0000
3001
1000
0010
0000
0000
0000
,  // measure 74
0200
0000
0301
1000
0100
0000
0010
0000
,  // measure 75
0002
0000
1003
0010
0200
0000
0301
0000
,  // measure 76
2000
0000
3001
1000
0100
0000
0010
0000
,  // measure 77
0020
0000
0031
1000
0010
0000
1000
0000
,  // measure 78
2000
0000
0000
0000
3100
0000
0010
0001
0020
0000
0000
0000
0130
0000
0000
1000
,  // measure 79
0000
0000
0001
0000
0000
0100
0000
0000
0010
0000
1000
0001
0000
1000
0001
0000
,  // measure 80
2002
0000
0000
0000
,  // measure 81
0000
0000
0000
0000
0000
3003
0000
0000
;

//---------------dance-single - Feraligatr SM----------------
#NOTES:
     dance-single:
     Feraligatr SM:
     Medium:
     6:
     0.342421,0.467319,0.152672,0.236641,0.041985,314.000000,294.000000,20.000000,31.000000,0.000000,0.000000,0.342421,0.467319,0.152672,0.236641,0.041985,314.000000,294.000000,20.000000,31.000000,0.000000,0.000000:
0000
0000
0000
0000
,
0000
0000
0000
0000
,
0000
0000
0000
0000
,
0000
0000
0000
0000
,
0000
0000
0000
0000
,
0000
0000
0000
0000
,
0000
0000
0000
0000
,
0000
0000
0000
0000
,
0001
0000
0100
0000
,
0010
0000
1000
0001
,
1000
0000
0100
0000
,
0010
0000
0100
0000
,
1000
0001
1000
0001
,
0100
0010
0100
0010
,
1000
0001
1000
0001
1000
0001
1000
0001
,
0010
0000
0000
0000
,
0110
0000
1001
0000
,
1000
0010
1000
0000
0001
1000
0200
0000
,
0310
0000
0000
0001
1000
0000
0010
0000
,
0110
0000
0000
0100
0001
1000
0001
0000
,
1001
0000
0000
0000
1100
0000
1000
0100
,
0010
0001
0010
0000
0001
1000
0010
0100
,
0002
0000
0000
0000
0000
0000
0000
0000
1003
0000
0000
0000
0001
0000
0000
0010
,
0000
0000
0001
0000
0000
0010
0000
0000
0001
0000
0000
0010
0000
0000
0010
0000
,
0100
0000
1100
0000
,
0001
1000
0001
0000
1000
0010
0200
0000
,
0301
0000
0000
1000
0100
0000
0010
0000
,
0011
0000
0000
0000
0000
0000
1000
0000
0010
0000
0000
0100
0000
0000
0001
0000
,
1000
0000
0000
0000
1100
0000
0100
0010
,
0001
1000
0001
0000
1000
0010
0100
0001
,
2000
0000
0000
0000
0000
0000
0000
0000
3100
0000
0000
0000
1000
0000
0000
0001
,
0000
0000
1000
0000
0000
0001
0000
0000
1000
0000
0000
0001
0000
0000
1000
0000
,
0020
0000
0000
0000
0130
0000
0001
1000
,
0001
0000
1000
0100
1000
0000
0001
0001
,
0100
0010
0000
0010
1000
0000
0001
1000
,
0100
0000
0010
0100
0010
0001
0001
0001
,
0000
0000
1000
0010
,
0100
0000
0001
0000
1000
0000
0100
0010
,
0100
1000
0001
0100
,
0010
0000
1000
0000
0001
0000
0010
0010
,
0200
0000
0000
0300
,
2000
0000
0000
3000
,
0002
0000
0000
0003
,
0200
0000
0000
0300
0020
0030
2000
3000
,
0002
0003
1000
0000
0001
0000
1000
0000
,
0010
0100
0010
0100
,
0001
1000
0001
1000
0002
0000
0000
0000
,
0023
0000
0000
0000
0000
0000
0000
0030
,
0110
0000
1001
1000
,
0100
0010
0100
0000
1000
0001
0200
0000
,
0310
1000
0001
1000
,
1100
0000
0001
0000
1000
0000
0001
0010
,
0100
0000
1000
1000
0001
0000
0100
0000
,
0010
1000
0010
0100
0001
1000
0100
0010
,
0002
1000
1003
1010
,
0110
0000
0000
0000
0101
0000
0000
0000
1001
0000
0000
1000
0000
0000
0001
0000
,
1000
0000
1100
0000
,
0100
0010
0100
0000
1000
0001
0200
0000
,
0310
0000
0000
1000
0001
0000
0010
0000
,
0110
0000
0000
0100
1000
0001
1000
0000
,
0110
0000
1001
1000
,
0001
0100
0001
0000
1000
0100
0010
0001
,
2000
0000
0000
0000
0000
0000
0000
0000
3010
0000
0000
0000
0100
0000
0000
0001
,
0000
0000
0100
0000
0000
0001
0000
0000
0100
0000
0000
0001
0000
0000
1000
0000
,
0200
0000
0000
0000
0310
0000
0001
1000
,
0001
0000
1000
0100
1000
0000
0001
0001
,
0100
0010
0000
0010
1000
0000
0001
1000
,
0100
0000
0010
0100
0010
0001
0001
0001
,
0000
0000
0000
0000
1000
0000
0010
0100
,
0010
0000
1000
0001
0010
0000
0100
1000
,
0001
0100
0000
0010
1000
0000
0100
0010
,
0100
0000
1000
0000
0001
0000
0100
0010
,
2000
0000
0000
0000
0001
0000
0000
3000
,
0002
0000
0000
0000
0010
0000
0000
0003
,
0020
0000
0000
0000
0100
0000
0000
0030
,
0200
0000
0000
0000
2300
0000
0000
3000
,
0002
0000
0000
0000
1000
0000
0000
0003
,
2000
0000
0000
0000
0010
0000
0000
3000
,
0020
0000
0000
0030
0200
0000
0000
0300
,
0002
0000
0000
0000
0000
0000
0000
0003
,
2002
0000
0000
0000
,
0000
0000
0000
0000
0000
3003
0000
0000
;

//---------------dance-single - Feraligatr SE----------------
#NOTES:
     dance-single:
     Feraligatr SE:
     Easy:
     4:
     0.199564,0.280391,0.038168,0.267176,0.000000,183.000000,178.000000,5.000000,35.000000,0.000000,0.000000,0.199564,0.280391,0.038168,0.267176,0.000000,183.000000,178.000000,5.000000,35.000000,0.000000,0.000000:
0000
0000
0000
0000
,
0000
0000
0000
0000
,
0000
0000
0000
0000
,
0000
0000
0000
0000
,
0000
0000
0000
0000
,
0000
0000
0000
0000
,
0000
0000
0000
0000
,
0000
0000
0000
0000
,
1000
0000
0000
0000
,
0100
0000
0000
0000
,
0010
0000
0000
0000
,
0001
0000
0000
0000
,
1000
0000
1000
0000
,
0001
0000
0001
0000
,
0100
0000
0100
0000
,
0010
0000
0000
0000
,
1001
0000
1000
0000
,
0100
0010
0100
2000
,
3001
1000
0010
1000
,
0001
0010
0001
1000
,
0010
0000
0100
0001
,
1000
0100
1000
0002
,
0203
0000
0310
1000
,
0000
0000
0001
0000
,
1001
0000
1000
0000
,
0100
0010
0100
2000
,
3001
0100
0010
0100
,
0001
1000
0100
0010
,
0001
0000
1000
0010
,
0100
0001
1000
0200
,
0320
0000
0031
0000
,
0000
0000
1000
0000
,
1002
0000
0103
0000
,
0010
0000
1000
0000
,
0001
0000
0010
0000
,
0100
0000
0010
0000
,
0000
0001
1000
1000
,
0100
0100
0010
0010
,
0001
0001
1000
1000
,
0010
0010
0100
0100
,
0002
0000
0000
0003
,
2000
0000
0000
3000
,
0200
0000
0000
0300
,
0020
0000
0000
0030
0002
0003
2000
3000
,
0020
0000
0000
0030
,
0200
0000
0000
0300
,
0002
0000
2003
0000
,
3200
0000
0000
0000
,
0310
0000
0001
0001
,
0100
0100
0010
0010
,
1000
1000
0001
0001
,
0010
0010
0100
0100
,
1000
0000
0010
0010
,
0100
0100
0001
0001
,
1000
1000
0100
0010
,
0001
1000
0010
0000
,
0100
0002
1003
0000
,
0100
0010
0100
2000
,
3001
0100
0010
0100
,
0001
1000
0100
0010
,
0001
0000
1000
0010
,
0100
0001
1000
0200
,
0320
0000
0031
1000
,
0000
0000
0001
0000
,
2001
0000
3100
0000
,
0010
0000
0001
0000
,
1000
0000
0010
0000
,
0100
0000
0010
0000
,
1000
0000
0001
0000
,
0010
0000
0100
0000
,
1000
0000
0001
0000
,
0100
0100
0100
0100
,
0020
0000
0000
0000
0000
0000
0000
0030
,
2000
0000
0000
0000
0000
0000
0000
3000
,
0002
0000
0000
0000
0000
0000
0000
0003
,
0020
0000
0000
0000
0230
0000
0000
0300
,
2000
0000
0000
0000
0000
0000
0000
3000
,
0002
0000
0000
0000
0000
0000
0000
0003
,
0200
0000
0000
0300
0020
0000
0000
0030
,
2000
0000
0000
0000
0000
0000
0000
3000
,
2002
0000
0000
0000
,
0000
0000
0000
0000
0000
3003
0000
0000
;

//---------------dance-single - Feraligatr SN----------------
#NOTES:
     dance-single:
     Feraligatr SN:
     Beginner:
     2:
     0.130862,0.218082,0.053435,0.053435,0.000000,120.000000,113.000000,7.000000,7.000000,0.000000,0.000000,0.130862,0.218082,0.053435,0.053435,0.000000,120.000000,113.000000,7.000000,7.000000,0.000000,0.000000:
0000
0000
0000
0000
,
0000
0000
0000
0000
,
0000
0000
0000
0000
,
0000
0000
0000
0000
,
0000
0000
0000
0000
,
0000
0000
0000
0000
,
0000
0000
0000
0000
,
0000
0000
0000
0000
,
1000
0000
0000
0000
,
0100
0000
0000
0000
,
0010
0000
0000
0000
,
0001
0000
0000
0000
,
1000
0000
0000
0000
,
0010
0000
0000
0000
,
0100
0000
0000
0000
,
0001
0000
0000
0000
,
1001
0000
1000
0000
,
0100
0000
0010
0000
,
0100
0000
1000
0000
,
0001
0000
0100
0000
,
0010
0000
0100
0000
,
0001
0000
1000
0000
,
0100
0000
0010
0000
,
0000
0000
0000
0000
,
1001
0000
1000
0000
,
0001
0000
1000
0000
,
0100
0000
0010
0000
,
0001
0000
1000
0000
,
0010
0000
0100
0000
,
0001
0000
1000
0000
,
0100
0000
0010
0000
,
0000
0000
0000
0000
,
2002
0000
3003
0000
,
0001
0000
1000
0000
,
0010
0000
0100
0000
,
0001
0000
1000
0000
,
0100
0000
0010
0000
,
0001
0000
1000
0000
,
0010
0000
0100
0000
,
0001
0000
1000
0000
,
0100
0000
0000
0000
,
0010
0000
0000
0000
,
0001
0000
0000
0000
,
1000
0000
0000
0000
,
0010
0000
0000
0000
,
0100
0000
0000
0000
,
0001
0000
0000
0000
,
1000
0000
0000
0000
,
1001
0000
1000
0000
,
0100
0000
0010
0000
,
0100
0000
1000
0000
,
0001
0000
0100
0000
,
0010
0000
1000
0000
,
0001
0000
0010
0000
,
0100
0000
1000
1000
,
1000
1000
2000
0000
,
3000
0000
1001
0000
,
0001
0000
0100
0000
,
0010
0000
0100
0000
,
0001
0000
1000
0000
,
0100
0000
0010
0000
,
0001
0000
1000
0000
,
0010
0000
0100
0000
,
0000
0000
0000
0000
,
2002
0000
3003
0000
,
1000
0000
0100
0000
,
0010
0000
0001
0000
,
1000
0000
0010
0000
,
0100
0000
0010
0000
,
1000
0000
0001
0000
,
0010
0000
0100
0000
,
1000
0000
0000
0000
,
0001
0000
0000
0000
,
0100
0000
0000
0000
,
0010
0000
0000
0000
,
1000
0000
0000
0000
,
0001
0000
0000
0000
,
0010
0000
0000
0000
,
0100
0000
0000
0000
,
1000
0000
0000
0000
,
2002
0000
0000
0000
,
0000
0000
0000
0000
0000
3003
0000
0000
;
