#TITLE:Armada;
#SUBTITLE:(Sullivan King Remix);
#ARTIST:Black Tiger Sex Machine & Lektrique;
#TITLETRANSLIT:;
#SUBTITLETRANSLIT:;
#ARTISTTRANSLIT:;
#GENRE:Trap;
#CREDIT:Feraligatr;
#BANNER:armadaSK-bn.png;
#BACKGROUND:ArmadaSK-bg.png;
#LYRICSPATH:;
#CDTITLE:FeraligatrV4-cd.png;
#MUSIC:Armada SK remix.ogg;
#OFFSET:0.009000;
#SAMPLESTART:75.191002;
#SAMPLELENGTH:14.400000;
#SELECTABLE:YES;
#DISPLAYBPM:150.000000;
#BPMS:0.000000=150.000000
;
#STOPS:
;
#BGCHANGES:;
#KEYSOUNDS:;
#ATTACKS:;

//---------------dance-single - Feraligatr----------------
#NOTES:
     dance-single:
     Feraligatr:
     Challenge:
     12:
     0.828808,1.131405,0.785124,0.537190,0.785124,702.000000,599.000000,95.000000,65.000000,4.000000,18.000000,0.828808,1.131405,0.785124,0.537190,0.785124,702.000000,599.000000,95.000000,65.000000,4.000000,18.000000:
// measure 0
0000
0000
0000
0000
,  // measure 1
0000
0000
0000
0000
,  // measure 2
0000
0000
0000
0000
,  // measure 3
0000
0000
0000
0000
,  // measure 4
1001
1001
1010
0110
0101
0000
1001
0000
,  // measure 5
0000
1100
0000
0110
,  // measure 6
0011
0000
0000
0011
0000
0000
1001
0000
0000
1010
0000
0000
0110
0000
0000
0000
0000
0000
0101
0000
0000
1000
0001
1000
,  // measure 7
0200
0000
0000
0000
0000
0000
0000
0000
0340
0000
0000
0000
0000
0000
0000
0030
,  // measure 8
0110
0000
0000
0100
0000
0000
0100
0000
0000
0100
0000
0000
0100
0000
0000
0100
0000
0000
0100
0000
0000
0100
1000
0001
,  // measure 9
0100
0100
0100
0100
0100
0100
0100
0100
,  // measure 10
0110
0010
0010
0010
0010
0010
0010
0010
,  // measure 11
1010
0000
0000
0000
0000
0000
1000
0000
0000
0000
0000
0000
1000
0000
0000
0000
0000
0000
1000
0000
0000
0000
0000
0000
1000
0000
0000
0000
0000
0000
0010
0000
0100
0000
0001
0000
1000
0000
0000
0001
0000
0000
0010
0000
0000
0100
0000
0000
,  // measure 12
1000
1000
1010
0000
0110
0000
0101
0000
,  // measure 13
1001
0000
0000
1000
0000
0000
0100
0000
0000
0010
0000
0000
0001
0000
1000
0001
,  // measure 14
0100
0001
1000
0100
0010
0100
1000
0001
0100
0001
0010
0100
1000
0010
1000
0001
,  // measure 15
0010
0000
0000
00MM
,  // measure 16
2002
3003
1010
0000
0011
0000
0110
0000
,  // measure 17
1100
0000
0000
1001
0001
0000
0101
0000
0110
0100
0000
0001
0020
0000
0031
1000
,  // measure 18
2200
3300
0011
0000
1010
0000
0110
0000
,  // measure 19
0101
0000
0000
0000
0000
0000
0000
0000
0000
1001
0000
0000
0001
0000
0000
0000
0000
0000
0101
0000
0000
0000
0000
0000
0100
0000
0000
0000
0010
0000
0000
0000
1000
0000
0001
0000
0020
0000
0000
0000
0000
0000
0130
0000
0000
0000
0000
0000
,  // measure 20
2120
0000
0000
3030
0001
0010
0001
1000
0100
1000
0001
0100
0010
0100
0001
1000
,  // measure 21
0202
0000
0313
0001
1000
0000
0020
0000
1030
0001
0100
0010
1000
0100
1000
0001
,  // measure 22
2200
3310
0100
0001
1001
0000
1000
0000
,  // measure 23
1100
0000
0000
1001
0000
0000
0101
0000
0100
0010
0100
0001
0020
0000
0130
0000
,  // measure 24
2120
0000
0000
3030
0100
0000
1000
0000
0010
0000
0100
0000
0001
0000
0100
0000
,  // measure 25
0010
0000
1000
0000
1000
0001
1000
0100
0000
0100
0010
0001
0400
0000
0000
0300
,  // measure 26
0122
0000
1033
0001
0010
0000
0010
0100
1000
0000
0010
0000
0100
0000
0100
0000
,  // measure 27
0001
0000
1000
0000
0001
0000
0100
0000
0010
0000
1000
0000
0001
0000
0100
0000
0001
0000
1000
0000
0100
0000
0010
0000
0001
0000
1000
0000
0001
0000
0100
0000
0010
0000
1000
0000
0200
0000
0000
0000
0000
0000
0000
0000
0000
0300
0000
0000
,  // measure 28
2120
0000
0000
3030
0001
1000
0010
1000
0001
0010
0100
1000
0001
0100
0001
1000
,  // measure 29
0202
0000
0313
0100
1000
0000
0002
0000
0103
0001
1000
0100
0010
0100
1000
0001
,  // measure 30
2200
0000
0000
3300
0010
0000
1000
0000
0100
0000
0010
0000
0001
0000
0010
0000
,  // measure 31
0110
0000
0000
0000
0000
0000
0000
0000
0000
0100
0000
0000
0000
0000
0000
0000
0000
0000
1000
0000
0000
0000
0000
0000
0000
0000
0000
0001
0000
0000
1000
0000
0100
0000
1000
0000
0020
0000
0000
0000
0000
0000
0130
0000
0000
0000
0000
0000
,  // measure 32
1001
1001
0011
0110
1100
0000
0000
0000
,  // measure 33
0001
0000
0010
0000
,  // measure 34
0100
0000
0000
0000
,  // measure 35
1000
0000
0000
0000
0000
0000
0000
0000
0001
0000
0000
0000
0000
0000
1000
0001
,  // measure 36
0101
0101
0110
1010
1001
0000
0011
0000
,  // measure 37
1000
1001
0001
0101
,  // measure 38
0110
0000
0000
0110
0000
0000
1010
0000
0000
1001
0000
0000
0011
0000
0000
0000
0000
0000
0110
0000
0000
0001
1000
0001
,  // measure 39
0200
0000
0000
0000
0000
0000
0000
0000
0340
0000
0000
0000
0000
0000
0000
0030
,  // measure 40
0110
0000
0000
0100
0000
0000
0100
0000
0000
0100
0000
0000
0100
0000
0000
0100
0000
0000
0100
0000
0000
0100
0001
1000
,  // measure 41
0100
0100
0100
0100
0100
0100
0100
0100
,  // measure 42
0110
0010
0010
0010
0010
0010
0010
0010
,  // measure 43
0011
0000
0000
0000
0000
0000
0001
0000
0000
0000
0000
0000
0001
0000
0000
0000
0000
0000
0001
0000
0000
0000
0000
0000
0001
0000
0000
0000
0000
0000
0010
0000
0100
0000
1000
0000
0001
0000
0000
1000
0000
0000
0010
0000
0000
0100
0000
0000
,  // measure 44
0001
0000
1000
0000
0100
0000
1000
0000
0001
0000
0100
0000
0010
0000
1000
0001
,  // measure 45
0010
0100
1000
0001
0100
0010
1000
0001
,  // measure 46
0010
0001
1000
0010
0100
0001
1000
0100
1000
0001
0010
0001
0100
0010
1000
0100
,  // measure 47
0010
0000
0000
0000
0000
0000
0001
0000
0000
0000
0000
0000
0001
0000
0000
1000
0001
0100
M01M
0000
0000
0000
0000
0000
,  // measure 48
2002
0000
3003
0000
1000
0100
1000
0001
0100
0010
1000
0001
0010
0100
0010
0001
,  // measure 49
1000
0010
1000
0100
0010
0001
0100
0010
1000
0001
0100
0001
0020
0000
0130
0000
,  // measure 50
2200
0000
3300
0000
0001
0100
0001
1000
0100
0010
0001
1000
0010
1000
0001
0010
,  // measure 51
0100
0010
0001
0100
0010
1000
0100
1000
0001
0100
0010
1000
0200
0000
0310
0000
,  // measure 52
0212
0000
1303
0000
0001
1000
0010
1000
0001
0100
0001
1000
0100
0010
0001
1000
,  // measure 53
0022
0000
0000
0000
0000
0000
0133
0000
0000
0001
0000
0000
1000
0000
0000
0000
0000
0000
0100
0000
0000
0010
0000
0000
0100
0000
0000
1000
0000
0000
0001
0000
0000
0100
0000
0000
0010
0000
1000
0000
0001
0000
1000
0000
0100
0000
0010
0000
,  // measure 54
0202
0000
1303
0000
0001
0000
0000
0010
0110
0000
1000
0000
1000
0000
0000
0001
,  // measure 55
1000
0000
0000
0000
0000
0000
0000
0000
0000
0010
0000
0000
0110
0000
0000
0000
0000
0000
0001
0000
0000
1000
0000
0000
0001
0000
0000
0000
0000
0000
1000
0000
0100
0000
1000
0000
0020
0000
0000
0000
0000
0000
0130
0000
0000
0000
0000
0000
,  // measure 56
0122
0033
0100
0001
0010
0100
1000
0100
,  // measure 57
0010
0000
0001
0000
0001
1000
0001
0100
0000
0100
0010
1000
0400
0000
0000
0300
,  // measure 58
2120
0000
3031
1000
0010
0000
0010
0100
0001
0000
0010
0000
0100
0000
0100
0000
,  // measure 59
1000
0000
0001
0000
1000
0000
0100
0000
0010
0000
0001
0000
1000
0000
0010
0000
0100
0000
0010
0000
1000
0000
0001
0000
0010
0000
0001
0000
1000
0000
0010
0000
0100
0000
0001
0000
0020
0000
0000
0000
0000
0000
0000
0000
0000
0030
0000
0000
,  // measure 60
0212
0000
1303
0000
0001
0010
0001
1000
0010
1000
0001
0010
0100
0010
0001
1000
,  // measure 61
0022
0000
0000
0000
0000
0000
0133
0000
0000
0001
0000
0000
1000
0000
0000
0000
0000
0000
0100
0000
0000
0010
0000
0000
0100
0000
0000
1000
0000
0000
0001
0000
0000
1000
0000
0000
0010
0000
0100
0000
0001
0000
1000
0000
0001
0000
0010
0000
,  // measure 62
0202
0000
0000
0303
0010
0000
0001
0000
0100
0000
0010
0000
1000
0000
0010
0000
,  // measure 63
0110
0000
0000
0000
0000
0000
0000
0000
0000
0100
0000
0000
0000
0000
0000
0000
0000
0000
0001
0000
0000
0000
0000
0000
0000
0000
0000
1000
0000
0000
0001
0000
0100
0000
0001
0000
0020
0000
0000
0000
0000
0000
0130
0000
0000
0000
0000
0000
,  // measure 64
2100
0000
0000
0000
0000
0000
3001
0000
0101
0000
0000
0000
1000
0000
0000
1000
,  // measure 65
0200
0000
0000
0000
0000
0000
0000
0310
0012
0000
0000
0000
0003
1000
0001
0000
,  // measure 66
0201
0000
0000
0000
0000
0000
0310
0000
1010
0000
0000
0000
0001
0000
0001
0010
,  // measure 67
0200
0000
0000
0000
0000
0000
0000
1300
0010
1000
0100
0010
0100
1000
0001
0100
,  // measure 68
0210
0000
0000
0000
0000
0000
0301
0000
1001
0000
0000
0000
1000
0000
0000
1000
,  // measure 69
0200
0000
0000
0000
0000
0000
0000
0310
0012
0000
0000
0000
0000
1003
0001
0000
,  // measure 70
0201
0000
0000
0310
1010
0000
1000
1000
,  // measure 71
0400
0000
0000
0000
0000
0000
0000
0310
0001
0010
0000
0000
0001
0100
0010
1000
,  // measure 72
2200
0000
0000
0000
,  // measure 73
0000
0000
0000
0000
,  // measure 74
3300
0000
0000
0000
;

//---------------dance-single - Feraligatr----------------
#NOTES:
     dance-single:
     Feraligatr SH:
     Hard:
     10:
     0.657615,0.917355,0.322314,0.504132,0.673554,557.000000,518.000000,39.000000,61.000000,10.000000,0.000000,0.657615,0.917355,0.322314,0.504132,0.673554,557.000000,518.000000,39.000000,61.000000,10.000000,0.000000:
// measure 0
0000
0000
0000
0000
,  // measure 1
0000
0000
0000
0000
,  // measure 2
0000
0000
0000
0000
,  // measure 3
0000
0000
0000
0000
,  // measure 4
1000
1000
1100
0100
0010
0000
0001
0000
,  // measure 5
0000
1000
0000
0001
,  // measure 6
0100
0000
0100
0000
0110
0000
0010
0000
1000
0000
0000
0000
0001
0000
1000
0100
,  // measure 7
0020
0000
0000
0000
0000
0000
0000
0000
0032
0000
0000
0000
0000
0000
0000
0003
,  // measure 8
4001
0000
0000
0000
0000
0000
0000
0000
0000
0000
0000
0000
0000
0000
3001
0100
,  // measure 9
0040
0000
0000
0000
0000
0000
0000
0000
0000
0000
0000
0000
0000
0000
0000
0030
,  // measure 10
4010
0000
0000
0000
0000
0000
0000
0000
0000
0000
0000
0000
0000
0000
0000
3000
,  // measure 11
1400
0000
0000
0000
0000
0000
0000
0000
0000
0000
1300
0001
0100
0001
0010
0100
,  // measure 12
1000
1000
0010
0000
0100
0000
0001
0000
,  // measure 13
1000
0000
0000
0100
0000
0000
0010
0000
0000
0001
0000
0000
1000
0000
0001
0100
,  // measure 14
0010
0100
0001
1000
0100
1000
0001
0100
0010
1000
0010
1000
0001
0010
0001
0010
,  // measure 15
0100
0000
0000
0MM0
,  // measure 16
2002
3003
0011
0000
0110
0000
1100
0000
,  // measure 17
1001
0000
0000
0001
0100
0000
0001
0000
1000
0100
0000
1000
0020
0000
0130
0001
,  // measure 18
2000
3000
1100
0000
0110
0000
0011
0000
,  // measure 19
1001
0000
0000
0000
0000
0000
0000
0000
0000
0001
0000
0000
0010
0000
0000
0000
0000
0000
0001
0000
0000
0000
0000
0000
1000
0000
0000
0000
0010
0000
0000
0000
0100
0000
0000
0000
0002
0000
0000
0000
0000
0000
0013
0000
0000
0000
0000
0000
,  // measure 20
0220
0000
0000
0330
1000
0100
1000
0100
0010
0001
0010
0001
1000
0010
1000
0010
,  // measure 21
0200
0000
0301
1000
0001
0000
0020
0000
0130
1000
0100
1000
0001
0100
0010
1000
,  // measure 22
0200
0310
0100
1000
1001
0000
0001
0000
,  // measure 23
0101
0000
0000
0110
0000
0000
1010
0000
1000
0001
1000
0001
0020
0000
0130
0000
,  // measure 24
2200
0000
0000
3300
1000
0000
0010
0000
0100
0000
0001
0000
0100
0000
0001
0000
,  // measure 25
1000
0000
0100
0000
1000
0001
1000
0100
00M0
0100
0001
1000
0200
0000
0000
0300
,  // measure 26
0120
0000
0031
1000
0010
0M00
0010
0000
0001
0000
1000
0000
0010
0M00
0010
0000
,  // measure 27
0001
0100
1000
0100
0001
0010
1000
0010
0001
1000
0001
0100
0020
0000
0000
0030
,  // measure 28
2020
0000
0000
3030
0001
0100
0001
0100
0010
1000
0010
1000
0001
0010
0001
0010
,  // measure 29
0200
0000
1300
0001
1000
0000
0020
0000
0130
0001
0100
0001
1000
0100
1000
0100
,  // measure 30
0020
0000
0000
0030
0100
0000
1000
0000
0001
0000
0100
0000
0001
0000
0100
0000
,  // measure 31
1020
0000
0000
0100
0000
0000
1000
0000
0000
0130
0001
1000
0200
0000
0310
0000
,  // measure 32
0001
0001
0101
0100
0010
0000
0000
0000
,  // measure 33
1000
0000
0100
0000
,  // measure 34
0010
0000
0000
0000
,  // measure 35
0001
0000
0000
0000
0000
0000
0000
0000
1000
0000
0000
0000
0000
0000
0001
1000
,  // measure 36
0010
0010
0110
0100
0001
0000
1000
0000
,  // measure 37
0100
0010
0001
1000
,  // measure 38
0010
0000
0010
0000
0110
0000
0100
0000
0001
0000
0000
0000
1000
0000
0001
0010
,  // measure 39
0200
0000
0000
0000
0000
0000
0000
0000
2300
0000
0000
0000
0000
0000
0000
3000
,  // measure 40
1004
0000
0000
0000
0000
0000
0000
0000
0000
0000
0000
0000
0000
0000
1003
0010
,  // measure 41
0400
0000
0000
0000
0000
0000
0000
0000
0000
0000
0000
0000
0000
0000
0000
0300
,  // measure 42
0104
0000
0000
0000
0000
0000
0000
0000
0000
0000
0000
0000
0000
0000
0000
0003
,  // measure 43
0041
0000
0000
0000
0000
0000
0000
0000
0000
0000
0031
1000
0010
1000
0100
0010
,  // measure 44
0001
0000
1000
0000
0010
0000
1000
0000
0001
0000
0010
0000
0100
0000
0010
0001
,  // measure 45
1000
0010
0100
0001
1000
0100
0010
0001
,  // measure 46
1000
0010
1000
0010
0100
0001
0100
0001
1000
0100
1000
0100
0010
0001
0010
0001
,  // measure 47
1000
0000
0000
0000
0001
0000
0000
0000
0001
0000
1000
0010
M10M
0000
0000
0000
,  // measure 48
2002
0000
3003
0000
0001
0100
0001
0100
0010
1000
0010
1000
0001
0010
0001
0010
,  // measure 49
0100
1000
0001
0100
0001
1000
0100
1000
0001
0100
0001
1000
0200
0000
0310
0000
,  // measure 50
0022
0000
0033
0000
1000
0010
1000
0010
0100
0001
0100
0001
1000
0100
1000
0100
,  // measure 51
0010
0001
1000
0010
1000
0001
0010
0001
1000
0010
0100
0001
2000
0000
3100
0000
,  // measure 52
0220
0000
0330
0000
0010
0001
0010
0001
1000
0010
1000
0010
0100
0001
0100
0001
,  // measure 53
2000
0000
3100
0010
0100
0000
2000
0000
3001
0100
0001
0100
0010
1000
0010
1000
,  // measure 54
0001
0000
1000
0000
0100
0000
0000
1000
0010
0000
0100
0000
0001
0000
0000
1000
,  // measure 55
0001
0000
0000
1000
0100
0000
0010
0001
1000
0000
0001
0100
0020
0000
1030
0000
,  // measure 56
2002
3003
0001
0010
0100
1000
0100
1000
,  // measure 57
0001
0000
0100
0000
0001
1000
0001
0100
00M0
0100
1000
0001
0020
0000
0000
0030
,  // measure 58
0210
0000
1300
0001
0010
0M00
0010
0000
1000
0000
0001
0000
0010
0M00
0010
0000
,  // measure 59
1000
0100
0001
0100
1000
0010
0001
0010
1000
0001
1000
0100
0020
0000
0000
0030
,  // measure 60
0022
0000
0033
0000
1000
0010
1000
0010
0100
0001
0100
0001
1000
0100
1000
0100
,  // measure 61
0020
0000
0031
1000
0001
0000
0200
0000
0310
1000
0010
1000
0001
0010
0001
0010
,  // measure 62
0200
0000
0000
0300
0010
0000
0001
0000
1000
0000
0010
0000
1000
0000
0010
0000
,  // measure 63
0210
0000
0000
0001
0000
0000
0010
0000
0000
0301
1000
0100
0020
0000
0031
0000
,  // measure 64
2001
0000
0000
0000
0000
0000
0100
0000
0010
0000
0000
0000
0001
0000
0000
3001
,  // measure 65
0200
0000
0000
0000
0000
0000
0000
0310
2000
0000
0000
0000
0000
3001
1000
0000
,  // measure 66
1200
0000
0000
0000
0000
0000
0010
0000
1000
0000
0000
0000
0010
0000
0310
0001
,  // measure 67
2000
0000
0000
0000
0000
0000
0000
3001
1000
0010
1000
0010
0100
0001
0100
0001
,  // measure 68
2000
0000
0000
0000
0000
0000
0100
0000
0010
0000
0000
0000
0001
0000
0000
3001
,  // measure 69
0200
0000
0000
0000
0000
0000
0000
0310
2000
0000
0000
0000
0000
3001
0010
0000
,  // measure 70
0120
0000
0000
0100
0001
0000
0100
0100
,  // measure 71
0032
0000
0000
0000
0000
0000
0000
0103
0010
0100
0000
0000
0001
0100
0010
1000
,  // measure 72
0200
0000
0000
0000
,  // measure 73
0000
0000
0000
0000
,  // measure 74
0300
0000
0000
0000
;

//---------------dance-single - Feraligatr----------------
#NOTES:
     dance-single:
     Feraligatr SM:
     Medium:
     7:
     0.420307,0.611570,0.256198,0.363636,0.169421,356.000000,325.000000,31.000000,44.000000,4.000000,0.000000,0.420307,0.611570,0.256198,0.363636,0.169421,356.000000,325.000000,31.000000,44.000000,4.000000,0.000000:
0000
0000
0000
0000
,
0000
0000
0000
0000
,
0000
0000
0000
0000
,
0000
0000
0000
0000
,
1000
1000
0010
0100
0001
0000
0000
0000
,
0000
0000
0000
0000
,
1000
1000
0010
0100
0001
0000
0000
0000
,
0000
0000
0000
0000
0000
0000
0000
0000
0020
0000
0000
0000
0000
0000
0000
0030
,
1001
0000
0000
0000
0000
0000
0000
1000
,
1100
0000
0000
0000
,
0101
0000
0000
0000
,
0011
0000
0000
0000
0000
0001
1000
0100
,
0010
0001
1000
0000
0010
0000
0100
0000
,
0001
0000
0000
1000
0000
0000
0100
0000
0000
0010
0000
0000
0001
0000
1000
0000
,
0010
0010
0100
0100
0001
0001
0010
0010
,
0100
0000
0000
0MM0
,
2002
3003
1000
0000
0010
0000
0100
0000
,
0001
0000
0000
1000
0000
0000
0100
0000
0000
0010
0000
0000
0001
0000
0100
0000
,
0110
1000
0001
0010
,
0001
0000
0000
0000
0000
0000
0000
0000
0000
0100
0000
0000
0000
0000
0000
0000
0000
0000
0010
0000
0000
0000
0000
0000
1000
0000
0000
0000
0001
0000
0000
0000
1000
0000
0000
0000
0200
0000
0000
0000
0000
0000
0300
0000
0000
0000
0000
0000
,
0220
0000
0330
0000
0001
0000
0000
0000
0100
0000
0000
0010
0000
0000
1000
0000
,
2002
0000
3003
0000
0001
0000
0000
0000
0010
0000
0000
0100
0000
0000
1000
0000
,
2002
3003
0000
1000
0010
0000
0100
0000
,
0001
0000
0000
0001
0000
0000
0001
0000
1000
0000
0000
0000
0100
0000
0010
0000
,
0022
0033
0001
1000
0010
0100
0010
0100
,
0000
0000
0001
0000
1000
0100
0000
1000
0001
0000
0100
0000
0020
0000
0000
0030
,
2020
3030
0001
0001
0010
0100
1000
1000
,
0004
0000
0000
0000
0000
0000
4003
0000
0000
0000
0000
0000
3020
0000
0000
0030
,
0220
0000
0330
0100
0001
0000
1000
0000
0100
0000
0010
0100
0000
0000
1000
0000
,
2002
0000
3003
0001
0100
0000
0010
0000
1000
0000
0001
0010
0000
0000
0001
0000
,
2002
3003
1000
0010
0100
0001
0100
0001
,
1000
0000
0000
0100
0000
0000
0010
0000
0000
0001
0000
0000
0100
0000
0010
0000
,
1000
1000
0100
0010
0001
0000
0000
0000
,
0000
0000
0000
0000
,
0000
0000
0000
0000
,
0000
0000
0000
0000
0000
0000
0000
0100
,
0001
0001
0010
0100
1000
0000
0000
0000
,
0000
0000
0000
0000
,
0001
0001
0010
0100
1000
0000
0000
0000
,
0000
0000
0000
0000
0000
0000
0000
0000
0020
0000
0000
0000
0000
0000
0000
0030
,
1001
0000
0000
0000
0000
0000
0000
0001
,
0011
0000
0000
0000
,
1010
0000
0000
0000
,
1100
0000
0000
0000
0000
1000
0001
0010
,
0100
1000
0100
1000
0001
0100
0001
0100
,
0010
1000
0010
1000
0001
0010
0001
0010
,
0100
0100
1000
1000
0010
0010
0100
0100
,
0001
0000
0000
0M0M
,
2002
3003
1000
0000
0100
0000
0010
0000
,
0001
0000
0000
0100
0000
0000
0010
0000
0000
1000
0000
0000
0100
0000
0010
0000
,
0022
0033
0001
0000
1000
0000
0010
0000
,
0100
0000
0000
0000
0000
0000
0000
0000
0000
0001
0000
0000
0000
0000
0000
0000
0000
0000
1000
0000
0000
0000
0000
0000
0001
0000
0000
0000
0100
0000
0000
0000
0001
0000
0000
0000
2000
0000
0000
0000
0000
0000
3000
0000
0000
0000
0000
0000
,
2200
3300
1000
0001
0100
0001
1000
0100
,
0220
0000
0330
0010
0001
0000
1000
0000
0001
0000
0100
0000
0001
0000
1000
0000
,
0100
0000
0010
0000
0001
0000
0000
1000
0010
0000
0100
0000
0001
0000
0000
1000
,
0100
0000
0000
0010
0001
0000
1000
0000
0010
0000
0000
0000
0100
0000
0001
0000
,
2002
3003
0001
1000
0100
0010
0100
0010
,
0000
0000
0001
0000
1000
0010
0000
1000
0001
0000
0010
0000
0200
0000
0000
0300
,
2200
3300
0001
0001
0100
0010
1000
1000
,
0400
0000
0000
0000
0000
0000
0340
0000
0000
0000
0000
0000
0032
0000
0000
0003
,
2002
3003
1000
0010
0100
0001
1000
0100
,
0220
0000
0330
0010
0001
0000
1000
0000
0010
0000
0100
0000
0001
0000
1000
0000
,
0100
0000
0010
0001
1000
0010
1000
0010
,
0100
0000
0000
0001
0000
0000
1000
0000
0000
0100
0000
0000
0010
0000
0001
0000
,
1001
0000
0000
0000
0000
0000
1000
0000
0010
0000
0000
0000
0100
0000
0000
0100
,
0000
0000
0000
0000
0000
0000
0000
0001
1000
0000
0000
0000
0000
0100
0010
0000
,
0011
0000
0000
0001
1000
0000
0010
0010
,
0000
0000
0000
0000
0000
0000
0000
0100
0001
0000
1000
0000
0100
0000
0010
0000
,
0011
0000
0000
0000
0000
0000
0001
0000
1000
0000
0000
0000
0010
0000
0000
0010
,
0000
0000
0000
0000
0000
0000
0000
0100
0001
0000
0000
0000
0000
1000
0100
0000
,
0110
0000
0000
0100
1000
0000
0001
0001
,
0000
0000
0000
0000
0000
0000
0000
0100
0010
0100
0000
0000
0001
0000
1000
0000
,
2200
0000
0000
0000
,
0000
0000
0000
0000
,
3300
0000
0000
0000
;

//---------------dance-single - Feraligatr----------------
#NOTES:
     dance-single:
     Feraligatr SE:
     Easy:
     4:
     0.236128,0.305785,0.247934,0.049587,0.000000,200.000000,170.000000,30.000000,6.000000,0.000000,0.000000,0.236128,0.305785,0.247934,0.049587,0.000000,200.000000,170.000000,30.000000,6.000000,0.000000,0.000000:
0000
0000
0000
0000
,
0000
0000
0000
0000
,
0000
0000
0000
0000
,
0000
0000
0000
0000
,
1000
1010
0010
0000
,
0000
0000
0000
0000
,
1000
1001
0001
0000
,
0000
0000
0000
0000
0000
0000
0000
0000
0020
0000
0000
0000
0000
0000
0000
0030
,
0011
0000
0000
0000
,
1001
0000
0000
0000
,
1010
0000
0000
0000
,
0110
0000
0000
0000
,
0001
0001
1000
1000
,
0100
0100
0010
0010
,
0001
1000
0001
1000
,
0010
0000
0000
0000
,
1001
1000
0100
0010
,
0100
0000
0100
1000
,
1001
0001
0100
0010
,
0100
0000
0100
0010
,
1010
0000
0001
0010
,
0011
0000
1000
0100
,
1100
0000
0001
0000
,
0100
0100
0100
0000
,
1010
0000
0001
0000
,
1000
1000
1000
0000
,
1100
0000
0001
0000
,
0010
0010
0010
0000
,
0110
0100
1000
0001
,
0100
0010
1000
0001
,
0010
0000
0100
0000
,
2000
0000
0000
3000
,
0001
0101
0100
0000
,
0000
0000
0000
0000
,
0000
0000
0000
0000
,
0000
0000
0000
0000
,
0001
1001
1000
0000
,
0000
0000
0000
0000
,
0010
0110
0100
0000
,
0000
0000
0000
0000
0000
0000
0000
0000
0020
0000
0000
0000
0000
0000
0000
0030
,
1001
0000
0000
0000
,
1100
0000
0000
0000
,
0110
0000
0000
0000
,
0011
0000
0000
0000
,
1000
1000
0001
0001
,
0100
0100
0010
0010
,
1000
0001
1000
0001
,
0010
0000
0000
0000
,
1001
1000
0010
0100
,
0001
1000
0100
0010
,
0001
1000
0010
0100
,
0001
1000
0100
1000
,
1001
0000
0001
0100
,
0101
0000
1000
0010
,
1010
0000
0001
0000
,
0010
0010
0010
0000
,
1100
0000
0001
0000
,
0100
0100
0100
0000
,
0110
0000
0001
0000
,
1000
1000
1000
0000
,
1100
0100
0010
0001
,
1000
0010
0100
0001
,
1000
0000
0100
0000
,
0020
0000
0000
0030
,
0011
0000
0001
1000
,
1000
0000
0010
0100
,
0100
0000
0001
1000
,
1000
0000
0100
0010
,
0010
0000
0001
1000
,
1000
0000
0010
0100
,
0100
0000
0001
1000
,
1000
0000
0010
0100
,
2200
0000
0000
0000
,
0000
0000
0000
0000
,
3300
0000
0000
0000
;

//---------------dance-single - Feraligatr----------------
#NOTES:
     dance-single:
     Feraligatr SN:
     Beginner:
     2:
     0.118064,0.214050,0.107438,0.082645,0.000000,100.000000,87.000000,13.000000,10.000000,0.000000,0.000000,0.118064,0.214050,0.107438,0.082645,0.000000,100.000000,87.000000,13.000000,10.000000,0.000000,0.000000:
0000
0000
0000
0000
,
0000
0000
0000
0000
,
0000
0000
0000
0000
,
0000
0000
0000
0000
,
1000
0000
0001
0000
,
0000
0000
0000
0000
,
0010
0000
0100
0000
,
0000
0000
0000
0000
0000
0000
0000
0000
0020
0000
0000
0000
0000
0000
0000
0030
,
1001
0000
0000
0000
,
1001
0000
0000
0000
,
0110
0000
0000
0000
,
0110
0000
0000
0000
,
1000
0000
0100
0000
,
0010
0000
0001
0000
,
2000
0000
0000
0000
,
3010
0000
0000
0000
,
1001
0000
0000
0000
,
1000
0000
0010
0000
,
0100
0000
0000
0000
,
0001
0000
1000
0000
,
0100
0000
0000
0000
,
0010
0000
0001
0000
,
1000
0000
0000
0000
,
0010
0000
0100
0000
,
0001
0000
0000
0000
,
1000
0000
0001
0000
,
0010
0000
0000
0000
,
0200
0000
0000
0300
,
1000
0000
0000
0000
,
0001
0000
0100
0000
,
0010
0000
0000
0000
,
2000
0000
0000
3000
,
0010
0000
0100
0000
,
0000
0000
0000
0000
,
0000
0000
0000
0000
,
0000
0000
0000
0000
,
0001
0000
1000
0000
,
0000
0000
0000
0000
,
0001
0000
1000
0000
,
0000
0000
0000
0000
0000
0000
0000
0000
0020
0000
0000
0000
0000
0000
0000
0030
,
1001
0000
0000
0000
,
1001
0000
0000
0000
,
0110
0000
0000
0000
,
0110
0000
0000
0000
,
0001
0000
0010
0000
,
0100
0000
1000
0000
,
0002
0000
0000
0000
,
0103
0000
0000
0000
,
1001
0000
0000
0000
,
1000
1000
1000
1000
,
0001
0000
0000
0000
,
0010
0010
0010
0010
,
0100
0000
0000
0000
,
1000
0000
0000
0000
,
0001
0000
0100
0000
,
0010
0000
1000
0000
,
1001
0000
1000
0000
,
0100
0000
0010
0000
,
0001
0000
1000
0000
,
0020
0000
0000
0030
,
0110
0000
0000
0000
,
1000
0000
0000
0000
,
0001
0000
0010
0000
,
0200
0000
0000
0000
,
1300
0000
0000
0000
,
0000
0000
0000
0000
,
0001
0000
0000
0000
,
0000
0000
0000
0000
,
0100
0000
0000
0000
,
0000
0000
0000
0000
,
0010
0000
0000
0000
,
0000
0000
0000
0000
,
2002
0000
0000
0000
,
0000
0000
0000
0000
,
3003
0000
0000
0000
;
