#TITLE:Aiwa;
#SUBTITLE:;
#ARTIST:RIOT;
#TITLETRANSLIT:;
#SUBTITLETRANSLIT:;
#ARTISTTRANSLIT:;
#GENRE:Riddim;
#CREDIT:;
#BANNER:aiwa-bn.png;
#BACKGROUND:aiwa-bg.png;
#LYRICSPATH:;
#CDTITLE:bengatr-cd.png;
#MUSIC:Aiwa.ogg;
#OFFSET:0.009000;
#SAMPLESTART:47.991001;
#SAMPLELENGTH:12.800000;
#SELECTABLE:YES;
#DISPLAYBPM:150.000000;
#BPMS:0.000000=150.000000
,78.000000=171.360001
,78.750000=69.000000
,79.000000=150.000000
,118.000000=225.000000
,118.750000=75.000000
,119.000000=150.000000
,177.000000=225.000000
,177.750000=112.500000
,178.500000=150.000000
,195.500000=75.000000
,196.000000=150.000000
,213.000000=225.000000
,213.750000=75.000000
,214.000000=150.000000
,304.000000=225.000000
,305.000000=112.500000
,306.000000=150.000000
,313.000000=155.000000
,313.500000=160.000000
,314.000000=165.000000
,314.500000=170.000000
,315.000000=175.000000
,315.500000=180.000000
,316.000000=185.000000
,316.500000=190.000000
,317.000000=195.000000
,317.500000=200.000000
,318.000000=210.000000
,318.500000=215.000000
,319.000000=75.000000
;
#STOPS:78.000000=0.320000,
195.500000=0.200000
;
#BGCHANGES:;
#KEYSOUNDS:;
#ATTACKS:;

//---------------dance-single - Benpai & Feraligatr----------------
#NOTES:
     dance-single:
     Benpai & Feraligatr SX:
     Challenge:
     13:
     0.839811,1.045934,0.594040,0.516892,1.037640,762.000000,685.000000,77.000000,67.000000,42.000000,2.000000,0.839811,1.045934,0.594040,0.516892,1.037640,762.000000,685.000000,77.000000,67.000000,42.000000,2.000000:
// measure 0
0000
0000
0000
0000
,  // measure 1
0000
0000
0000
0000
,  // measure 2
0000
0000
0000
0000
,  // measure 3
0000
0000
0000
0000
,  // measure 4
0000
0000
0000
0000
,  // measure 5
1001
0000
0000
0001
0000
0000
0100
0000
0000
0010
0000
0000
1000
0001
1000
0100
0000
0000
0010
0000
0000
0001
0000
0000
,  // measure 6
1001
1000
0010
1000
0020
0000
0130
0000
,  // measure 7
0001
0000
0000
0000
0000
0000
0000
0000
1000
0000
0000
0000
0000
0000
0000
0000
0001
0000
0000
0000
0000
0000
0000
0000
1000
0000
0000
0000
0000
0000
0000
0000
0000
0000
0000
0000
0000
0000
0000
0000
0000
0000
0000
0000
0000
0000
0000
0000
1000
0000
0000
0000
0000
0000
0000
0000
0000
0000
0000
0000
0000
0000
0000
0000
0000
0000
0000
0000
0100
0000
0000
0000
0000
0000
0000
0000
0000
0000
0000
0000
0000
0000
0000
0000
0000
0000
0000
0000
0000
0000
0000
0000
0000
0000
0000
0000
0010
0000
0000
0000
0000
0000
0000
0000
0000
0000
0000
0000
0001
0000
0000
0000
0000
0000
0010
0000
0000
0000
0000
0000
0001
0000
0000
0000
0000
0000
0000
0000
0000
0000
0000
0000
1000
0000
0000
0000
0000
0000
0000
0000
0000
0000
0000
0000
0010
0000
0000
0000
0000
0000
0000
0000
0000
0000
0000
0000
0000
0000
0000
0000
0000
0000
0000
0000
0000
0000
0000
0000
0000
0000
0000
0000
0000
0000
0000
0000
0000
0000
0000
0000
0000
0000
0000
0000
0000
0000
0000
0000
0000
0000
0000
0000
,  // measure 8
0101
0001
1000
0001
0010
0100
0010
0001
,  // measure 9
2000
0000
3100
1000
0010
0100
0001
1000
,  // measure 10
1010
0000
0000
0000
0000
0000
0010
0000
0000
0000
0000
0000
0100
0000
0000
0000
0000
0000
0010
0000
0000
0000
0000
0000
1000
0000
0000
0000
0000
0001
0000
0000
0000
0000
0000
0000
1000
0000
0000
0000
0000
0001
0000
0000
0000
0000
0000
0000
,  // measure 11
0010
0000
0000
0000
0000
0000
0001
0000
1000
0000
0001
0000
0100
0000
0000
0000
0000
0010
0000
0000
0000
0000
0000
0000
1000
0000
0000
0001
0000
0000
1000
0000
0000
0000
0000
0000
0100
0000
0000
0000
0000
0000
0010
0000
0000
0000
0000
0000
,  // measure 12
0011
0001
0010
0100
1000
0010
0100
0001
,  // measure 13
0101
0000
0100
0000
0010
0000
1000
0000
0001
0000
0010
0000
0400
0000
0000
0300
,  // measure 14
1001
0000
0001
0100
0001
1000
0100
0000
0010
0000
0001
1000
0001
0100
0010
0000
,  // measure 15
1010
0000
1000
0001
1000
0100
0010
0000
0001
0000
0001
1000
0010
0100
0001
0000
,  // measure 16
1001
0000
1000
0100
0010
0100
1000
0000
0001
0000
0100
0010
1000
0001
0100
0000
,  // measure 17
0110
0000
0010
1000
0001
1000
0100
0000
0010
0000
0100
0000
1000
0000
0010
0000
,  // measure 18
0110
0000
0100
0001
1000
0001
0010
0000
0100
0000
1000
0010
0100
0001
1000
0000
,  // measure 19
1001
0000
0001
0100
0010
1000
0100
0000
0010
MMMM
0000
0000
1100
0000
1000
0001
,  // measure 20
0100
0010
1000
0000
0100
0000
0010
0001
1000
0001
0100
0000
0120
0000
0000
2030
,  // measure 21
0000
0000
3002
0000
0013
0100
0000
0100
1000
0000
0010
0000
0101
0000
0001
1000
,  // measure 22
0100
1000
0010
0000
0100
0001
0000
1000
0001
0000
0010
0100
1000
0000
0100
1000
,  // measure 23
0001
1000
0010
0000
0100
0010
1000
0001
0010
0000
0100
1000
0001
0000
1000
0001
,  // measure 24
0100
0001
0010
0000
0100
1000
0000
0010
0100
0000
0001
1000
0200
0000
0000
0000
,  // measure 25
0000
0000
0000
0000
0000
0000
0000
0000
0000
0000
0000
0000
1300
0001
1000
0001
1000
0000
0010
0000
0100
0000
0001
0000
1000
0000
0100
0000
0010
0000
0100
0000
,  // measure 26
1000
0000
0000
0000
0001
1000
0001
0000
0100
0000
0010
0000
1000
0000
0000
0000
0100
0000
0010
0000
0001
0000
1000
0000
0001
0000
0100
0000
0010
0000
0100
0000
,  // measure 27
0001
0000
0000
0000
1000
0001
1000
0000
0100
0000
0010
0000
0001
0000
0000
0000
1000
0001
1000
0000
0010
0000
0100
0000
0001
0000
0010
0000
0100
0000
1000
0000
,  // measure 28
0001
0100
0010
1000
0100
0010
0001
0100
0001
1000
0010
1000
0100
0010
0000
0001
,  // measure 29
0100
0001
0010
0000
0100
1000
0000
0001
02M0
0000
0000
0300
2002
0000
3003
0000
,  // measure 30
0002
0000
0000
0000
0000
0000
0000
0000
0000
0000
0000
0000
0000
0000
0000
0000
0000
0000
0000
0000
0000
0000
0000
0000
0003
0000
0000
0000
0000
0000
0000
0000
0000
0000
0000
0000
0000
0000
0000
0000
0000
0000
0000
0000
0000
0000
0000
0000
0022
0000
0000
0000
0000
0000
0000
0000
0000
0000
0000
0000
0000
0000
0000
0000
0000
0000
0000
0000
0000
0000
0000
0000
0033
0000
0000
0000
0000
0000
0000
0000
0000
0000
0000
0000
0000
0000
0000
0000
0000
0000
0000
0000
0000
0000
0000
0000
2000
0000
0000
0000
0000
0000
0000
0000
0000
0000
0000
0000
0000
0000
0000
0000
0000
0000
0000
0000
0000
0000
0000
0000
3000
0000
0000
0000
0000
0000
0000
0000
0000
0000
0000
0000
0000
0000
0000
0000
0000
0000
0000
0000
0000
0000
0000
0000
1010
0000
0000
0000
0000
0000
0000
0000
0000
0000
0000
0000
0000
0000
0000
0000
0000
0000
0000
0000
0000
0000
0000
0000
0000
0000
0000
0000
0000
0010
0000
0000
0000
0000
0000
0000
0000
0000
0000
0000
0000
0000
0000
0000
0000
0000
0000
0000
,  // measure 31
0100
0000
0202
0303
0002
0003
4100
3000
,  // measure 32
0002
0000
0000
0000
0000
0000
0000
0000
0000
0000
0000
0000
0000
0000
0000
0000
0000
0000
0000
0000
0000
0000
0000
0000
0003
0000
0000
0000
0000
0000
0000
0000
0000
0000
0000
0000
0000
0000
0000
0000
0000
0000
0000
0000
0000
0000
0000
0000
0022
0000
0000
0000
0000
0000
0000
0000
0000
0000
0000
0000
0000
0000
0000
0000
0000
0000
0000
0000
0000
0000
0000
0000
0033
0000
0000
0000
0000
0000
0000
0000
0000
0000
0000
0000
0000
0000
0000
0000
0000
0000
0000
0000
0000
0000
0000
0000
2000
0000
0000
0000
0000
0000
0000
0000
0000
0000
0000
0000
0000
0000
0000
0000
0000
0000
0000
0000
0000
0000
0000
0000
3000
0000
0000
0000
0000
0000
0000
0000
0000
0000
0000
0000
0000
0000
0000
0000
0000
0000
0000
0000
0000
0000
0000
0000
0101
0000
0000
0000
0000
0000
0000
0000
0000
0000
0000
0000
0000
0000
0000
0000
0000
0000
0000
0000
0000
0000
0000
0000
0000
0000
0000
0000
0000
0001
0000
0000
0000
0000
0000
0000
0000
0000
0000
0000
0000
0000
0000
0000
0000
0000
0000
0000
,  // measure 33
2000
3000
1100
0100
0110
0000
2002
3003
,  // measure 34
1000
0000
0000
0000
0000
0000
0000
0000
0000
0000
0000
0000
0000
0000
0000
0000
0000
0000
0000
0000
0000
0000
0000
0000
0000
0000
0000
0000
0000
0000
0000
0000
0000
0000
0000
0000
0000
0000
0000
0000
0000
0000
0000
0000
0000
0000
0000
0000
0022
0000
0000
0000
0000
0000
0000
0000
0000
0000
0000
0000
0000
0000
0000
0000
0000
0000
0000
0000
0000
0000
0000
0000
0033
0000
0000
0000
0000
0000
0000
0000
0000
0000
0000
0000
0000
0000
0000
0000
0000
0000
0000
0000
0000
0000
0000
0000
2000
0000
0000
0000
0000
0000
0000
0000
0000
0000
0000
0000
0000
0000
0000
0000
0000
0000
0000
0000
0000
0000
0000
0000
3000
0000
0000
0000
0000
0000
0000
0000
0000
0000
0000
0000
0000
0000
0000
0000
0000
0000
0000
0000
0000
0000
0000
0000
2200
0000
0000
0000
0000
0000
0000
0000
0000
0000
0000
0000
3300
0000
0000
0000
0000
0000
0000
0000
0000
0000
0000
0000
0000
0000
0000
0000
0000
0001
0000
0000
0000
0000
0000
0000
0000
0000
0000
0000
0000
0000
0000
0000
0000
0000
0000
0000
,  // measure 35
0010
0000
0000
0000
0000
0000
0000
0000
0000
0000
0000
0000
0000
0000
0000
0000
0000
0000
0000
0000
0000
0000
0000
0000
0000
0000
0000
0000
0000
0001
0000
0000
0000
0000
0000
0000
0000
0000
0000
0000
0000
0000
0000
0000
0000
0000
0000
0000
0202
0000
0000
0000
0000
0000
0000
0000
0000
0000
0000
0000
0000
0000
0000
0000
0000
0000
0000
0000
0000
0000
0000
0000
0303
0000
0000
0000
0000
0000
0000
0000
0000
0000
0000
0000
0000
0000
0000
0000
0000
0000
0000
0000
0000
0000
0000
0000
2000
0000
0000
0000
0000
0000
0000
0000
0000
0000
0000
0000
0000
0000
0000
0000
0000
0000
0000
0000
0000
0000
0000
0000
3000
0000
0000
0000
0000
0000
0000
0000
0000
0000
0000
0000
0000
0000
0000
0000
0000
0000
0000
0000
0000
0000
0000
0000
4010
0000
0000
0000
0000
0000
0000
0000
0000
0000
0000
0000
0000
0000
0000
0000
0000
0000
0000
0000
0000
0000
0000
0000
3000
0000
0000
0000
0000
0000
0000
0000
0000
0000
0000
0000
0000
0000
0000
0000
0000
0000
0000
0000
0000
0000
0000
0000
,  // measure 36
0100
0000
0010
0000
0001
1000
0001
0000
0101
0000
1000
0000
1010
0000
0010
0000
,  // measure 37
0010
1000
0000
0000
0000
0000
0010
0000
0000
0000
0000
0000
1001
0000
0000
0000
0000
0000
1000
0000
0000
0000
0000
0000
0100
0000
0000
0000
0000
0000
0010
0000
0000
0000
0000
0000
0022
0000
0000
0000
0000
0000
0033
0000
0000
0000
0000
0000
,  // measure 38
2000
0000
0000
0000
0000
0000
0000
0000
0000
0000
0000
0000
0000
0000
0000
0000
0000
0000
0000
0000
0000
0000
0000
0000
3000
0000
0000
0000
0000
0000
0000
0000
0000
0000
0000
0000
0000
0000
0000
0000
0000
0000
0000
0000
0000
0000
0000
0000
2002
0000
0000
0000
0000
0000
0000
0000
0000
0000
0000
0000
0000
0000
0000
0000
0000
0000
0000
0000
0000
0000
0000
0000
3003
0000
0000
0000
0000
0000
0000
0000
0000
0000
0000
0000
0000
0000
0000
0000
0000
0000
0000
0000
0000
0000
0000
0000
0002
0000
0000
0000
0000
0000
0000
0000
0000
0000
0000
0000
0000
0000
0000
0000
0000
0000
0000
0000
0000
0000
0000
0000
0003
0000
0000
0000
0000
0000
0000
0000
0000
0000
0000
0000
0000
0000
0000
0000
0000
0000
0000
0000
0000
0000
0000
0000
0101
0000
0000
0000
0000
0000
0000
0000
0000
0000
0000
0000
0000
0000
0000
0000
0000
0000
0000
0000
0000
0000
0000
0000
0000
0000
0000
0000
0000
0100
0000
0000
0000
0000
0000
0000
0000
0000
0000
0000
0000
0000
0000
0000
0000
0000
0000
0000
,  // measure 39
0020
0030
2020
3030
0002
0003
0022
0033
,  // measure 40
2000
0000
3000
0000
2200
0000
3300
0000
0001
0000
0010
0100
0000
0100
1000
0000
,  // measure 41
0001
0100
0110
0010
0101
0000
2002
3003
,  // measure 42
1000
0000
0000
0000
0000
0000
0000
0000
0100
0000
0000
0000
0000
0000
0000
0000
1000
0000
0000
0000
0000
0000
0000
0000
0001
0000
0000
0000
0000
0000
0000
0000
0100
0000
0000
0000
0000
0000
0000
0000
0001
0000
0000
0000
0000
0000
0000
0000
1000
0000
0000
0000
0000
0000
0000
0000
0000
0000
0000
0000
0000
0000
0000
0000
0000
0000
0000
0000
0000
0000
0000
0000
0000
0000
0000
0000
0000
0000
0000
0000
0000
0000
0000
0000
0000
0000
0000
0000
0000
0000
0000
0000
0000
0000
0000
0000
0002
0000
0000
0000
0000
0000
0000
0000
0000
0000
0000
0000
0000
0000
0000
0000
0000
0000
0000
0000
0000
0000
0000
0000
0003
0000
0000
0000
0000
0000
0000
0000
0000
0000
0000
0000
0000
0000
0000
0000
0000
0000
0000
0000
0000
0000
0000
0000
0010
0000
0000
0000
0000
0000
0000
0000
0000
0000
0000
0000
0000
0000
0000
0000
0000
0000
0000
0000
0000
0000
0000
0000
0000
0000
0000
0000
0000
0001
0000
0000
0000
0000
0000
0000
0000
0000
0000
0000
0000
0000
0000
0000
0000
0000
0000
0000
,  // measure 43
0100
0000
0000
0000
0000
0000
0000
0000
0000
0000
0000
0000
0000
0000
0000
0000
0000
0000
0000
0000
0000
0000
0000
0000
0000
0000
0000
0000
0000
0010
0000
0000
0000
0000
0000
0000
0000
0000
0000
0000
0000
0000
0000
0000
0000
0000
0000
0000
1010
0000
0000
0000
0000
0000
0000
0000
0000
0000
0000
0000
0000
0000
0000
0000
0000
0000
0000
0000
0000
0000
0000
0000
0000
0000
0000
0000
0000
0000
0000
0000
0000
0000
0000
0000
0000
0000
0000
0000
0000
0000
0000
0000
0000
0000
0000
0000
0001
0000
0000
0000
0000
0000
0000
0000
0000
0000
0000
0000
0000
0000
0000
0000
0000
0000
0000
0000
0000
0000
0000
0000
0000
0000
0000
0000
0000
0000
0000
0000
0000
0000
0000
0000
0000
0000
0000
0000
0000
0000
0000
0000
0000
0000
0000
0000
0101
0000
0000
0000
0000
0000
0000
0000
0000
0000
0000
0000
0000
0000
0000
0000
0000
0000
0000
0000
0000
0000
0000
0000
0001
0000
0000
0000
0000
0000
0000
0000
0000
0000
0000
0000
1000
0000
0000
0000
0000
0000
0000
0000
0000
0000
0000
0000
,  // measure 44
0000
0100
1000
0000
00M4
0000
0000
0000
0000
0000
0003
0000
1001
0000
0000
0000
,  // measure 45
0000
0000
0000
0000
0000
0000
0000
0000
0000
0000
0000
0000
1000
0001
1000
0001
1000
0000
0100
0000
0010
0000
0001
0000
1000
0000
0000
0000
0100
0000
1000
0000
,  // measure 46
0010
0000
0100
0000
0001
0010
0000
0001
1000
0000
0010
0100
0001
0000
0000
1000
,  // measure 47
0100
0000
1000
0000
0010
0100
0000
0001
1000
0000
0100
0010
0001
0000
0000
1000
,  // measure 48
0010
0000
0100
0000
0001
1000
0000
0000
0100
0000
0000
1000
0001
0000
00M0
0000
,  // measure 49
0020
0000
0000
0000
0031
1000
0001
1000
0001
0000
0100
0000
0000
0000
0000
0000
0001
0000
1000
0000
0100
0000
0010
0000
0100
0000
0000
0000
1000
0001
1000
0000
,  // measure 50
0010
0000
0100
0000
0001
0000
0000
0000
1000
0000
0001
0000
0010
0000
0100
0000
1000
0000
0001
0000
0100
0000
0010
0000
0100
0000
0000
0000
0001
1000
0001
0000
,  // measure 51
0010
0000
0100
0000
1000
0000
0000
0000
0001
0100
0001
0000
0100
0000
0010
0000
1000
0000
0100
0000
0010
0000
0001
0000
1000
0000
0010
0000
0100
0000
0001
0000
,  // measure 52
0010
0100
1000
0010
1000
0001
0010
0001
0100
0010
0100
0010
0100
0001
1000
0001
,  // measure 53
0010
0100
1000
0010
010M
0000
0000
0000
0202
0000
0303
0000
0001
0000
0000
0000
,  // measure 54
1000
0000
0000
0010
0000
0000
0100
0000
0000
0001
0000
0000
0010
0000
0000
0100
0000
0000
1000
0000
0001
0000
0100
0000
0001
0000
0000
1000
0000
0000
0010
0000
0000
0100
0000
0000
0001
0000
1000
0000
0100
0000
1000
0000
0000
0001
0000
0000
,  // measure 55
0100
0010
0100
0001
0020
0000
0000
0030
0110
0000
0000
0000
0200
0000
1300
0000
,  // measure 56
0001
0000
1000
0000
0010
0000
1000
0000
0001
0000
0100
0000
0001
0000
1000
0000
0100
0000
0010
0000
0001
0000
1000
0000
0001
0000
0000
1000
0000
0000
0010
0000
0000
0100
0000
0000
0001
0000
0000
0010
0000
0000
0100
0000
0000
0000
0000
0000
,  // measure 57
1001
1100
0110
0010
,  // measure 58
0001
1000
0010
1000
0200
0000
0000
0000
1300
0001
0100
0001
0010
0100
1000
0001
,  // measure 59
1000
0010
0100
0001
0020
0000
0000
0030
0210
0000
0000
0000
1300
0001
0100
0001
,  // measure 60
0010
0100
1000
0010
0100
0001
0010
0100
1010
0000
0001
1010
0000
0001
1010
0000
,  // measure 61
0101
0000
1000
0011
0000
1000
0011
0000
2001
0000
0000
0000
3100
0000
0000
0000
,  // measure 62
1400
0000
0010
0000
,  // measure 63
1010
0000
0000
0000
0000
0000
0000
0300
0120
0000
0000
0000
0031
0000
0000
0000
,  // measure 64
0101
0100
0010
1000
0001
1000
1040
0000
0000
0000
0000
0030
,  // measure 65
1001
0000
1000
0100
0010
0001
0100
0010
1200
0000
0000
0000
030M
0000
00M0
0000
,  // measure 66
1004
0000
0000
0000
0000
0000
0000
0000
0013
0000
0100
1000
0040
0000
0000
0000
,  // measure 67
1100
0000
0000
0000
0000
0000
0000
0030
2010
0000
0000
0000
3001
0000
0010
0000
,  // measure 68
0110
0000
0000
0000
0000
0000
0100
0000
0000
0000
0000
0000
1100
0000
0000
1000
0000
0000
0001
0000
0000
0000
0000
0000
0101
0000
0000
0000
0000
0000
0100
0000
0000
0000
0000
0000
0100
0001
0000
0000
0000
0000
0100
0000
0000
0000
0000
0000
,  // measure 69
1001
0001
1000
0100
1200
0000
0310
0000
,  // measure 70
0001
1000
0001
0010
0100
1000
0001
1000
0010
0100
0001
1000
0100
0010
0001
1000
0100
1000
0001
0100
0001
1000
0010
0100
,  // measure 71
0001
0000
2001
3020
,  // measure 72
0130
0000
0001
0000
1000
0000
0100
0000
0000
0010
0000
0000
0M00
0000
0000
0010
0000
0000
1000
0000
0000
0001
0000
0000
0010
0000
0000
0100
0000
0000
1000
0000
0000
0010
0000
0000
0M00
0000
0000
0010
0000
0000
0100
0000
0000
1000
0000
0000
,  // measure 73
0001
0000
0101
0000
2001
0000
3100
0010
,  // measure 74
0001
1000
0010
0100
0002
0000
0000
0000
0013
0100
0010
0001
1000
0010
0100
0001
,  // measure 75
1000
0100
1000
0001
0100
0000
0000
0000
1001
0000
1000
0001
0000
1000
0100
0000
,  // measure 76
004M
0000
0000
0000
0000
0000
0000
0000
0000
0000
0000
0000
0000
0000
0000
0000
0000
0000
0000
0000
0000
0030
0000
0000
0011
0000
0000
0000
0001
0000
0000
0000
1000
0000
0000
0000
0010
0000
0000
0000
0100
0000
0000
0000
0001
0000
0000
0000
,  // measure 77
1000
0000
0000
0000
0001
0100
0001
0100
0001
0000
1000
0000
0000
0000
1000
0000
0200
0000
0000
0000
0000
0000
0000
0000
0000
0000
0000
0000
0000
0000
0000
0000
,  // measure 78
0000
0000
0000
0000
0000
0000
0000
0000
0000
0000
0000
0000
00M0
0000
0000
0000
00M0
0000
0000
0000
00M0
0000
0000
0000
00M0
0000
0000
00M0
0000
0000
00M0
0000
0000
00M0
0000
0000
00M0
0000
0000
00M0
0000
0000
00M0
0000
0000
00M0
0000
0000
,  // measure 79
00M0
00M0
00M0
00M0
00M0
00M0
00M0
00M0
00M0
00M0
00M0
00M0
00M0
00M0
00M0
00M0
00M0
00M0
0300
0000
0000
0000
0000
0000
;

//---------------dance-single - 32nds----------------
#NOTES:
     dance-single:
     32nds:
     Edit:
     14:
     0.848628,1.107459,0.594040,0.516892,1.068500,770.000000,693.000000,77.000000,67.000000,42.000000,2.000000,0.848628,1.107459,0.594040,0.516892,1.068500,770.000000,693.000000,77.000000,67.000000,42.000000,2.000000:
// measure 0
0000
0000
0000
0000
,  // measure 1
0000
0000
0000
0000
,  // measure 2
0000
0000
0000
0000
,  // measure 3
0000
0000
0000
0000
,  // measure 4
0000
0000
0000
0000
,  // measure 5
1001
0000
0000
0001
0000
0000
0100
0000
0000
0010
0000
0000
1000
0001
1000
0100
0000
0000
0010
0000
0000
0001
0000
0000
,  // measure 6
1001
1000
0010
1000
0020
0000
0130
0000
,  // measure 7
0001
0000
0000
0000
0000
0000
0000
0000
1000
0000
0000
0000
0000
0000
0000
0000
0001
0000
0000
0000
0000
0000
0000
0000
1000
0000
0000
0000
0000
0000
0000
0000
0000
0000
0000
0000
0000
0000
0000
0000
0000
0000
0000
0000
0000
0000
0000
0000
1000
0000
0000
0000
0000
0000
0000
0000
0000
0000
0000
0000
0000
0000
0000
0000
0000
0000
0000
0000
0100
0000
0000
0000
0000
0000
0000
0000
0000
0000
0000
0000
0000
0000
0000
0000
0000
0000
0000
0000
0000
0000
0000
0000
0000
0000
0000
0000
0010
0000
0000
0000
0000
0000
0000
0000
0000
0000
0000
0000
0001
0000
0000
0000
0000
0000
0010
0000
0000
0000
0000
0000
0001
0000
0000
0000
0000
0000
0000
0000
0000
0000
0000
0000
1000
0000
0000
0000
0000
0000
0000
0000
0000
0000
0000
0000
0010
0000
0000
0000
0000
0000
0000
0000
0000
0000
0000
0000
0000
0000
0000
0000
0000
0000
0000
0000
0000
0000
0000
0000
0000
0000
0000
0000
0000
0000
0000
0000
0000
0000
0000
0000
0000
0000
0000
0000
0000
0000
0000
0000
0000
0000
0000
0000
,  // measure 8
0101
0001
1000
0001
0010
0100
0010
0001
,  // measure 9
2000
0000
3100
1000
0010
0100
0001
1000
,  // measure 10
1010
0000
0000
0000
0000
0000
0010
0000
0000
0000
0000
0000
0100
0000
0000
0000
0000
0000
0010
0000
0000
0000
0000
0000
1000
0000
0000
0000
0000
0001
0000
0000
0000
0000
0000
0000
1000
0000
0000
0000
0000
0001
0000
0000
0000
0000
0000
0000
,  // measure 11
0010
0000
0000
0000
0000
0000
0001
0000
1000
0000
0001
0000
0100
0000
0000
0000
0000
0010
0000
0000
0000
0000
0000
0000
1000
0000
0000
0001
0000
0000
1000
0000
0000
0000
0000
0000
0100
0000
0000
0000
0000
0000
0010
0000
0000
0000
0000
0000
,  // measure 12
0011
0001
0010
0100
1000
0010
0100
0001
,  // measure 13
0101
0000
0100
0000
0010
0000
1000
0000
0001
0000
0010
0000
0400
0000
0000
0300
,  // measure 14
1001
0000
0001
0100
0001
1000
0100
0000
0010
0000
0001
1000
0001
0100
0010
0000
,  // measure 15
1010
0000
1000
0001
1000
0100
0010
0000
0001
0000
0001
1000
0010
0100
0001
0000
,  // measure 16
1001
0000
1000
0100
0010
0100
1000
0000
0001
0000
0100
0010
1000
0001
0100
0000
,  // measure 17
0110
0000
0010
1000
0001
1000
0100
0000
0010
0000
0100
0000
1000
0000
0010
0000
,  // measure 18
0110
0000
0100
0001
1000
0001
0010
0000
0100
0000
1000
0010
0100
0001
1000
0000
,  // measure 19
1001
0000
0001
0100
0010
1000
0100
0000
0010
MMMM
0000
0000
1100
0000
1000
0001
,  // measure 20
0100
0010
1000
0000
0100
0000
0010
0001
1000
0001
0100
0000
0120
0000
0000
2030
,  // measure 21
0000
0000
3002
0000
0013
0100
0000
0100
1000
0000
0010
0000
0101
0000
0001
1000
,  // measure 22
0100
1000
0010
0000
0100
0001
0000
1000
0001
0000
0010
0100
1000
0000
0100
1000
,  // measure 23
0001
1000
0010
0000
0100
0010
1000
0001
0010
0000
0100
1000
0001
0000
1000
0001
,  // measure 24
0100
0001
0010
0000
0100
1000
0000
0010
0100
0000
0001
1000
0200
0000
0000
0000
,  // measure 25
0000
0000
0000
0000
0000
0000
0000
0000
0000
0000
0000
0000
1300
0001
1000
0001
1000
0000
0010
0000
0100
0000
0001
0000
1000
0000
0100
0000
0010
0000
0100
0000
,  // measure 26
1000
0000
0000
0000
0001
1000
0001
0000
0100
0000
0010
0000
1000
0000
0000
0000
0100
0000
0010
0000
0001
0000
1000
0000
0001
0000
0100
0000
0010
0000
0100
0000
,  // measure 27
0001
0000
0000
0000
1000
0001
1000
0000
0100
0000
0010
0000
0001
0000
0000
0000
1000
0001
1000
0000
0010
0000
0100
0000
0001
0000
0010
0000
0100
0000
1000
0000
,  // measure 28
0001
0100
0010
1000
0100
0010
0001
0100
0001
1000
0010
1000
0100
0010
0000
0001
,  // measure 29
0100
0001
0010
0000
0100
1000
0000
0001
02M0
0000
0000
0300
2002
0000
3003
0000
,  // measure 30
0002
0000
0000
0000
0000
0000
0000
0000
0000
0000
0000
0000
0000
0000
0000
0000
0000
0000
0000
0000
0000
0000
0000
0000
0003
0000
0000
0000
0000
0000
0000
0000
0000
0000
0000
0000
0000
0000
0000
0000
0000
0000
0000
0000
0000
0000
0000
0000
0022
0000
0000
0000
0000
0000
0000
0000
0000
0000
0000
0000
0000
0000
0000
0000
0000
0000
0000
0000
0000
0000
0000
0000
0033
0000
0000
0000
0000
0000
0000
0000
0000
0000
0000
0000
0000
0000
0000
0000
0000
0000
0000
0000
0000
0000
0000
0000
2000
0000
0000
0000
0000
0000
0000
0000
0000
0000
0000
0000
0000
0000
0000
0000
0000
0000
0000
0000
0000
0000
0000
0000
3000
0000
0000
0000
0000
0000
0000
0000
0000
0000
0000
0000
0000
0000
0000
0000
0000
0000
0000
0000
0000
0000
0000
0000
1010
0000
0000
0000
0000
0000
0000
0000
0000
0000
0000
0000
0000
0000
0000
0000
0000
0000
0000
0000
0000
0000
0000
0000
0000
0000
0000
0000
0000
0010
0000
0000
0000
0000
0000
0000
0000
0000
0000
0000
0000
0000
0000
0000
0000
0000
0000
0000
,  // measure 31
0100
0000
0202
0303
0002
0003
4100
3000
,  // measure 32
0002
0000
0000
0000
0000
0000
0000
0000
0000
0000
0000
0000
0000
0000
0000
0000
0000
0000
0000
0000
0000
0000
0000
0000
0003
0000
0000
0000
0000
0000
0000
0000
0000
0000
0000
0000
0000
0000
0000
0000
0000
0000
0000
0000
0000
0000
0000
0000
0022
0000
0000
0000
0000
0000
0000
0000
0000
0000
0000
0000
0000
0000
0000
0000
0000
0000
0000
0000
0000
0000
0000
0000
0033
0000
0000
0000
0000
0000
0000
0000
0000
0000
0000
0000
0000
0000
0000
0000
0000
0000
0000
0000
0000
0000
0000
0000
2000
0000
0000
0000
0000
0000
0000
0000
0000
0000
0000
0000
0000
0000
0000
0000
0000
0000
0000
0000
0000
0000
0000
0000
3000
0000
0000
0000
0000
0000
0000
0000
0000
0000
0000
0000
0000
0000
0000
0000
0000
0000
0000
0000
0000
0000
0000
0000
0101
0000
0000
0000
0000
0000
0000
0000
0000
0000
0000
0000
0000
0000
0000
0000
0000
0000
0000
0000
0000
0000
0000
0000
0000
0000
0000
0000
0000
0001
0000
0000
0000
0000
0000
0000
0000
0000
0000
0000
0000
0000
0000
0000
0000
0000
0000
0000
,  // measure 33
2000
3000
1100
0100
0110
0000
2002
3003
,  // measure 34
1000
0000
0000
0000
0000
0000
0000
0000
0000
0000
0000
0000
0000
0000
0000
0000
0000
0000
0000
0000
0000
0000
0000
0000
0000
0000
0000
0000
0000
0000
0000
0000
0000
0000
0000
0000
0000
0000
0000
0000
0000
0000
0000
0000
0000
0000
0000
0000
0022
0000
0000
0000
0000
0000
0000
0000
0000
0000
0000
0000
0000
0000
0000
0000
0000
0000
0000
0000
0000
0000
0000
0000
0033
0000
0000
0000
0000
0000
0000
0000
0000
0000
0000
0000
0000
0000
0000
0000
0000
0000
0000
0000
0000
0000
0000
0000
2000
0000
0000
0000
0000
0000
0000
0000
0000
0000
0000
0000
0000
0000
0000
0000
0000
0000
0000
0000
0000
0000
0000
0000
3000
0000
0000
0000
0000
0000
0000
0000
0000
0000
0000
0000
0000
0000
0000
0000
0000
0000
0000
0000
0000
0000
0000
0000
2200
0000
0000
0000
0000
0000
0000
0000
0000
0000
0000
0000
3300
0000
0000
0000
0000
0000
0000
0000
0000
0000
0000
0000
0000
0000
0000
0000
0000
0001
0000
0000
0000
0000
0000
0000
0000
0000
0000
0000
0000
0000
0000
0000
0000
0000
0000
0000
,  // measure 35
0010
0000
0000
0000
0000
0000
0000
0000
0000
0000
0000
0000
0000
0000
0000
0000
0000
0000
0000
0000
0000
0000
0000
0000
0000
0000
0000
0000
0000
0001
0000
0000
0000
0000
0000
0000
0000
0000
0000
0000
0000
0000
0000
0000
0000
0000
0000
0000
0202
0000
0000
0000
0000
0000
0000
0000
0000
0000
0000
0000
0000
0000
0000
0000
0000
0000
0000
0000
0000
0000
0000
0000
0303
0000
0000
0000
0000
0000
0000
0000
0000
0000
0000
0000
0000
0000
0000
0000
0000
0000
0000
0000
0000
0000
0000
0000
2000
0000
0000
0000
0000
0000
0000
0000
0000
0000
0000
0000
0000
0000
0000
0000
0000
0000
0000
0000
0000
0000
0000
0000
3000
0000
0000
0000
0000
0000
0000
0000
0000
0000
0000
0000
0000
0000
0000
0000
0000
0000
0000
0000
0000
0000
0000
0000
4010
0000
0000
0000
0000
0000
0000
0000
0000
0000
0000
0000
0000
0000
0000
0000
0000
0000
0000
0000
0000
0000
0000
0000
3000
0000
0000
0000
0000
0000
0000
0000
0000
0000
0000
0000
0000
0000
0000
0000
0000
0000
0000
0000
0000
0000
0000
0000
,  // measure 36
0100
0000
0010
0000
0001
1000
0001
0000
0101
0000
1000
0000
1010
0000
0010
0000
,  // measure 37
0010
1000
0000
0000
0000
0000
0010
0000
0000
0000
0000
0000
1001
0000
0000
0000
0000
0000
1000
0000
0000
0000
0000
0000
0100
0000
0000
0000
0000
0000
0010
0000
0000
0000
0000
0000
0022
0000
0000
0000
0000
0000
0033
0000
0000
0000
0000
0000
,  // measure 38
2000
0000
0000
0000
0000
0000
0000
0000
0000
0000
0000
0000
0000
0000
0000
0000
0000
0000
0000
0000
0000
0000
0000
0000
3000
0000
0000
0000
0000
0000
0000
0000
0000
0000
0000
0000
0000
0000
0000
0000
0000
0000
0000
0000
0000
0000
0000
0000
2002
0000
0000
0000
0000
0000
0000
0000
0000
0000
0000
0000
0000
0000
0000
0000
0000
0000
0000
0000
0000
0000
0000
0000
3003
0000
0000
0000
0000
0000
0000
0000
0000
0000
0000
0000
0000
0000
0000
0000
0000
0000
0000
0000
0000
0000
0000
0000
0002
0000
0000
0000
0000
0000
0000
0000
0000
0000
0000
0000
0000
0000
0000
0000
0000
0000
0000
0000
0000
0000
0000
0000
0003
0000
0000
0000
0000
0000
0000
0000
0000
0000
0000
0000
0000
0000
0000
0000
0000
0000
0000
0000
0000
0000
0000
0000
0101
0000
0000
0000
0000
0000
0000
0000
0000
0000
0000
0000
0000
0000
0000
0000
0000
0000
0000
0000
0000
0000
0000
0000
0000
0000
0000
0000
0000
0100
0000
0000
0000
0000
0000
0000
0000
0000
0000
0000
0000
0000
0000
0000
0000
0000
0000
0000
,  // measure 39
0020
0030
2020
3030
0002
0003
0022
0033
,  // measure 40
2000
0000
3000
0000
2200
0000
3300
0000
0001
0000
0010
0100
0000
0100
1000
0000
,  // measure 41
0001
0100
0110
0010
0101
0000
2002
3003
,  // measure 42
1000
0000
0000
0000
0000
0000
0001
0000
0000
0000
0000
0000
1000
0000
0000
0000
0000
0000
0001
0000
0000
0000
0000
0000
1000
0000
0000
0000
0000
0000
0001
0000
0000
0000
0000
0000
1000
0000
0000
0000
0000
0000
0001
0000
0000
0000
0000
0000
1000
0000
0000
0000
0000
0000
0000
0000
0000
0000
0000
0000
0000
0000
0000
0000
0000
0000
0000
0000
0000
0000
0000
0000
0000
0000
0000
0000
0000
0000
0000
0000
0000
0000
0000
0000
0000
0000
0000
0000
0000
0000
0000
0000
0000
0000
0000
0000
0002
0000
0000
0000
0000
0000
0000
0000
0000
0000
0000
0000
0000
0000
0000
0000
0000
0000
0000
0000
0000
0000
0000
0000
0003
0000
0000
0000
0000
0000
0000
0000
0000
0000
0000
0000
0000
0000
0000
0000
0000
0000
0000
0000
0000
0000
0000
0000
0010
0000
0000
0000
0000
0000
0000
0000
0000
0000
0000
0000
0000
0000
0000
0000
0000
0000
0000
0000
0000
0000
0000
0000
0000
0000
0000
0000
0000
0001
0000
0000
0000
0000
0000
0000
0000
0000
0000
0000
0000
0000
0000
0000
0000
0000
0000
0000
,  // measure 43
0100
0000
0000
0000
0000
0000
0000
0000
0000
0000
0000
0000
0000
0000
0000
0000
0000
0000
0000
0000
0000
0000
0000
0000
0000
0000
0000
0000
0000
0010
0000
0000
0000
0000
0000
0000
0000
0000
0000
0000
0000
0000
0000
0000
0000
0000
0000
0000
1010
0000
0000
0000
0000
0000
0000
0000
0000
0000
0000
0000
0000
0000
0000
0000
0000
0000
0000
0000
0000
0000
0000
0000
0000
0000
0000
0000
0000
0000
0000
0000
0000
0000
0000
0000
0000
0000
0000
0000
0000
0000
0000
0000
0000
0000
0000
0000
0001
0000
0000
0000
0000
0000
0000
0000
0000
0000
0000
0000
0000
0000
0000
0000
0000
0000
0000
0000
0000
0000
0000
0000
0000
0000
0000
0000
0000
0000
0000
0000
0000
0000
0000
0000
0000
0000
0000
0000
0000
0000
0000
0000
0000
0000
0000
0000
0101
0000
0000
0000
0000
0000
0000
0000
0000
0000
0000
0000
0000
0000
0000
0000
0000
0000
0000
0000
0000
0000
0000
0000
0001
0000
0000
0000
0000
0000
0000
0000
0000
0000
0000
0000
1000
0000
0000
0000
0000
0000
0000
0000
0000
0000
0000
0000
,  // measure 44
0000
0100
1000
0000
00M4
0000
0000
0000
0000
0000
0003
0000
1001
0000
0000
0000
,  // measure 45
0000
0000
0000
0000
0000
0000
0000
0000
0000
0000
0000
0000
1000
0001
1000
0001
1000
0000
0100
0000
0010
0000
0001
0000
1000
0000
0000
0000
0100
0000
1000
0000
,  // measure 46
0010
0000
0100
0000
0001
0010
0000
0001
1000
0000
0010
0100
0001
0000
0000
1000
,  // measure 47
0100
0000
1000
0000
0010
0100
0000
0001
1000
0000
0100
0010
0001
0000
0000
1000
,  // measure 48
0010
0000
0100
0000
0001
1000
0000
0000
0100
0000
0000
1000
0001
0000
00M0
0000
,  // measure 49
0020
0000
0000
0000
0031
1000
0001
1000
0001
0000
0100
0000
0000
0000
0000
0000
0001
0000
1000
0000
0100
0000
0010
0000
0100
0000
0000
0000
1000
0001
1000
0000
,  // measure 50
0010
0000
0100
0000
0001
0000
0000
0000
1000
0000
0001
0000
0010
0000
0100
0000
1000
0000
0001
0000
0100
0000
0010
0000
0100
0000
0000
0000
0001
1000
0001
0000
,  // measure 51
0010
0000
0100
0000
1000
0000
0000
0000
0001
0100
0001
0000
0100
0000
0010
0000
1000
0000
0100
0000
0010
0000
0001
0000
1000
0000
0010
0000
0100
0000
0001
0000
,  // measure 52
0010
0100
1000
0010
1000
0001
0010
0001
0100
0010
0100
0010
0100
0001
1000
0001
,  // measure 53
0010
0100
1000
0010
010M
0000
0000
0000
0202
0000
0303
0000
0001
0000
0000
0000
,  // measure 54
1000
0000
0010
0000
0100
0000
0001
0000
0010
0000
0100
0000
1000
0001
1000
0001
1000
0000
0010
0000
0100
0000
0001
0000
1000
0100
1000
0100
1000
0000
0001
0000
,  // measure 55
0100
0010
0100
0001
0020
0000
0000
0030
0110
0000
0000
0000
0200
0000
1300
0000
,  // measure 56
0001
1000
0001
0010
0100
1000
0001
1000
0010
0100
0001
1000
0100
0010
0001
1000
0100
0000
1000
0000
0001
0000
0100
0000
0001
0000
0010
0000
0100
0000
0000
0000
,  // measure 57
1100
1010
0110
0001
,  // measure 58
1000
0001
0010
0001
0200
0000
0000
0000
0301
1000
0100
1000
0010
0100
0001
1000
,  // measure 59
0001
0010
0100
1000
0020
0000
0000
0030
0210
0000
0000
0000
0301
1000
0100
1000
,  // measure 60
0010
0100
0001
0010
0100
1000
0010
0100
0011
0000
1000
0011
0000
1000
0011
0000
,  // measure 61
1100
0000
0001
1010
0000
0001
1010
0000
2001
0000
0000
0000
3100
0000
0000
0000
,  // measure 62
1400
0000
0010
0000
,  // measure 63
1010
0000
0000
0000
0000
0000
0000
0300
0120
0000
0000
0000
0031
0000
0000
0000
,  // measure 64
0101
0100
0010
1000
0001
1000
1040
0000
0000
0000
0000
0030
,  // measure 65
1001
0000
1000
0100
0010
0001
0100
0010
1200
0000
0000
0000
030M
0000
00M0
0000
,  // measure 66
1004
0000
0000
0000
0000
0000
0000
0000
0013
0000
0100
1000
0040
0000
0000
0000
,  // measure 67
1100
0000
0000
0000
0000
0000
0000
0030
2010
0000
0000
0000
3001
0000
0010
0000
,  // measure 68
0110
0000
0000
0000
0000
0000
0100
0000
0000
0000
0000
0000
1100
0000
0000
1000
0000
0000
0001
0000
0000
0000
0000
0000
0101
0000
0000
0000
0000
0000
0100
0000
0000
0000
0000
0000
0100
0001
0000
0000
0000
0000
0100
0000
0000
0000
0000
0000
,  // measure 69
1001
0001
1000
0100
1200
0000
0310
0000
,  // measure 70
0001
1000
0001
0010
0100
1000
0001
1000
0010
0100
0001
1000
0100
0010
0001
1000
0100
1000
0001
0100
0001
1000
0010
0100
,  // measure 71
0001
0000
2001
3020
,  // measure 72
0130
0000
0001
0000
1000
0000
0100
0000
0000
0010
0000
0000
0M00
0000
0000
0010
0000
0000
1000
0000
0000
0001
0000
0000
0010
0000
0000
0100
0000
0000
1000
0000
0000
0010
0000
0000
0M00
0000
0000
0010
0000
0000
0100
0000
0000
1000
0000
0000
,  // measure 73
0001
0000
0101
0000
2001
0000
3100
0010
,  // measure 74
0001
1000
0010
0100
0002
0000
0000
0000
0013
0100
0010
0001
1000
0010
0100
0001
,  // measure 75
1000
0100
1000
0001
0100
0000
0000
0000
1001
0000
1000
0001
0000
1000
0100
0000
,  // measure 76
004M
0000
0000
0000
0000
0000
0000
0000
0000
0000
0000
0000
0000
0000
0000
0000
0000
0000
0000
0000
0000
0030
0000
0000
0011
0000
0000
0000
0001
0000
0000
0000
1000
0000
0000
0000
0010
0000
0000
0000
0100
0000
0000
0000
0001
0000
0000
0000
,  // measure 77
1000
0000
0000
0000
0001
0100
0001
0100
0001
0000
1000
0000
0000
0000
1000
0000
0200
0000
0000
0000
0000
0000
0000
0000
0000
0000
0000
0000
0000
0000
0000
0000
,  // measure 78
0000
0000
0000
0000
0000
0000
0000
0000
0000
0000
0000
0000
00M0
0000
0000
0000
00M0
0000
0000
0000
00M0
0000
0000
0000
00M0
0000
0000
00M0
0000
0000
00M0
0000
0000
00M0
0000
0000
00M0
0000
0000
00M0
0000
0000
00M0
0000
0000
00M0
0000
0000
,  // measure 79
00M0
00M0
00M0
00M0
00M0
00M0
00M0
00M0
00M0
00M0
00M0
00M0
00M0
00M0
00M0
00M0
00M0
00M0
0300
0000
0000
0000
0000
0000
;

//---------------dance-single - Benpai----------------
#NOTES:
     dance-single:
     Benpai SN:
     Beginner:
     2:
     0.127845,0.215339,0.046289,0.030859,0.000000,116.000000,110.000000,6.000000,4.000000,1.000000,0.000000,0.127845,0.215339,0.046289,0.030859,0.000000,116.000000,110.000000,6.000000,4.000000,1.000000,0.000000:
// measure 0
0000
0000
0000
0000
,  // measure 1
0000
0000
0000
0000
,  // measure 2
0000
0000
0000
0000
,  // measure 3
0000
0000
0000
0000
,  // measure 4
0000
0000
0000
0000
,  // measure 5
0000
0000
0000
0000
,  // measure 6
0001
0000
0001
0000
,  // measure 7
1000
0000
1000
0000
,  // measure 8
0010
0000
0010
0000
,  // measure 9
0100
0000
0100
0000
,  // measure 10
0001
0000
0001
0000
,  // measure 11
1000
0000
1000
0000
,  // measure 12
0100
0000
0100
0000
,  // measure 13
0010
0000
0000
0000
,  // measure 14
1001
0000
0000
0000
,  // measure 15
1000
0000
0000
0000
,  // measure 16
0001
0000
0000
0000
,  // measure 17
0100
0000
0000
0000
,  // measure 18
1001
0000
0000
0000
,  // measure 19
0001
0000
0000
1000
,  // measure 20
0000
0000
0000
0010
,  // measure 21
0000
0000
0000
0100
,  // measure 22
0000
0000
0000
0100
,  // measure 23
0000
0000
0000
0100
,  // measure 24
0000
0000
0000
0001
,  // measure 25
0000
0000
0000
1000
,  // measure 26
0000
1000
0000
0100
,  // measure 27
0000
0100
0000
0020
,  // measure 28
0000
0000
0000
0031
,  // measure 29
0000
0000
0000
0001
,  // measure 30
0000
0000
0000
0100
,  // measure 31
0000
0000
0000
0001
,  // measure 32
0000
0000
0000
1000
,  // measure 33
0000
0000
0000
0100
,  // measure 34
0000
0000
0000
1000
,  // measure 35
0000
0000
0000
0001
,  // measure 36
0000
0000
0000
0010
,  // measure 37
0000
0100
0000
0100
,  // measure 38
0000
0000
0000
1000
,  // measure 39
0000
0000
0000
0001
,  // measure 40
0000
0000
0000
0000
,  // measure 41
0000
0100
0100
0100
,  // measure 42
0000
0000
0000
0001
,  // measure 43
0000
0000
0000
1000
,  // measure 44
0000
0000
0000
0010
,  // measure 45
0000
0000
0000
1000
,  // measure 46
0000
1000
0000
0001
,  // measure 47
0000
0001
0000
0100
,  // measure 48
0000
0100
0000
0010
,  // measure 49
0000
0000
1001
0000
,  // measure 50
1000
0000
0100
0000
,  // measure 51
0100
0000
0020
0000
,  // measure 52
0000
0000
0031
0000
,  // measure 53
0000
0000
0001
0000
,  // measure 54
0100
0000
0100
0000
,  // measure 55
0010
0000
1000
0000
,  // measure 56
0001
0000
0001
0000
,  // measure 57
0100
0100
0100
0000
,  // measure 58
0010
0000
0100
0000
,  // measure 59
0001
0000
2000
0000
,  // measure 60
0000
0000
3000
0000
,  // measure 61
0000
0000
1001
0000
,  // measure 62
0001
0000
0100
0000
,  // measure 63
0001
0000
1000
0000
,  // measure 64
0010
0000
0010
0000
,  // measure 65
0100
0000
0110
0000
,  // measure 66
0010
0000
1000
0000
,  // measure 67
0001
0000
1000
0000
,  // measure 68
0100
0000
0010
0000
,  // measure 69
0100
0000
1000
0000
,  // measure 70
0002
0000
0000
0000
,  // measure 71
1003
0000
0110
0000
,  // measure 72
0001
0000
0001
0000
,  // measure 73
0100
0100
0100
0000
,  // measure 74
0010
0000
1000
0000
,  // measure 75
1000
0000
0001
0000
,  // measure 76
0000
0000
0100
0000
,  // measure 77
0000
0000
0010
0000
,  // measure 78
0000
0000
0000
0000
,  // measure 79
0000
0000
0000
10M0
;

//---------------dance-single - Benpai----------------
#NOTES:
     dance-single:
     Benpai SE:
     Easy:
     4:
     0.213810,0.307628,0.069433,0.084863,0.000000,194.000000,185.000000,9.000000,11.000000,1.000000,0.000000,0.213810,0.307628,0.069433,0.084863,0.000000,194.000000,185.000000,9.000000,11.000000,1.000000,0.000000:
// measure 0
0000
0000
0000
0000
,  // measure 1
0000
0000
0000
0000
,  // measure 2
0000
0000
0000
0000
,  // measure 3
0000
0000
0000
0000
,  // measure 4
0000
0000
0000
0000
,  // measure 5
0000
0000
0000
0000
,  // measure 6
0001
0000
0001
0000
,  // measure 7
1000
0000
1000
0100
,  // measure 8
0010
0000
0010
0000
,  // measure 9
0001
0000
0100
0010
,  // measure 10
1000
0000
1000
0000
,  // measure 11
0010
0000
0100
0001
,  // measure 12
1000
0000
0100
0000
,  // measure 13
0110
0000
0000
0000
,  // measure 14
1001
0000
0001
0000
,  // measure 15
0100
0000
0100
0000
,  // measure 16
0110
0000
0010
0000
,  // measure 17
1000
0000
0100
0000
,  // measure 18
1100
0000
1000
0000
,  // measure 19
0001
0000
0100
0001
,  // measure 20
0000
0001
0000
0010
,  // measure 21
0000
0100
0100
1000
,  // measure 22
0000
0001
0100
0010
,  // measure 23
0000
1000
0001
0010
,  // measure 24
0000
0100
0010
0001
,  // measure 25
0000
0000
0000
1001
,  // measure 26
1000
0010
0010
0100
,  // measure 27
0100
0001
0001
0020
,  // measure 28
0000
0000
0000
0130
,  // measure 29
0000
1000
0002
1003
,  // measure 30
0000
0010
0000
0100
,  // measure 31
0100
0001
0000
1000
,  // measure 32
0000
0010
0000
1000
,  // measure 33
1000
0100
0010
0100
,  // measure 34
0000
1000
0000
1000
,  // measure 35
0000
0001
0000
0100
,  // measure 36
0000
0010
0010
1000
,  // measure 37
0000
0100
0010
0001
,  // measure 38
0000
1000
0000
0001
,  // measure 39
0001
0100
0000
0010
,  // measure 40
0100
0001
1000
1000
,  // measure 41
1000
0100
0010
0100
,  // measure 42
2000
3001
0000
0100
,  // measure 43
0100
0010
0000
2000
,  // measure 44
0000
3002
0000
0013
,  // measure 45
0000
0000
0000
0110
,  // measure 46
0100
1000
1000
0001
,  // measure 47
0001
0100
0100
0010
,  // measure 48
0010
1000
1000
0001
,  // measure 49
0000
0000
1001
1000
,  // measure 50
0100
0100
0010
0010
,  // measure 51
0001
0001
0200
0000
,  // measure 52
0000
0000
0302
0000
,  // measure 53
0000
2003
3100
0000
,  // measure 54
0010
0100
1000
0001
,  // measure 55
1000
0010
0100
0000
,  // measure 56
0001
0000
0001
0000
,  // measure 57
0010
0100
0010
0000
,  // measure 58
0001
1000
0001
0100
,  // measure 59
0001
0010
0200
0000
,  // measure 60
1300
0001
0020
0000
,  // measure 61
0000
0000
0000
0030
0001
0000
0000
0000
,  // measure 62
0100
0000
0100
0000
,  // measure 63
0100
0000
0001
0000
,  // measure 64
0010
0000
0010
0000
,  // measure 65
0100
1000
0001
0000
,  // measure 66
0100
0000
0010
0000
,  // measure 67
0100
0000
0001
0000
,  // measure 68
0010
0010
0100
0000
,  // measure 69
1000
0001
0100
0000
,  // measure 70
0040
0000
0000
0000
,  // measure 71
1030
0000
1001
0000
,  // measure 72
0001
0000
1000
0000
,  // measure 73
0100
0010
0100
0000
,  // measure 74
1000
0100
1000
0000
,  // measure 75
0001
0100
0010
0000
,  // measure 76
2000
0000
3001
0000
,  // measure 77
0000
0000
1001
0000
,  // measure 78
0000
0000
0000
0000
,  // measure 79
0000
0000
0000
10M0
;

//---------------dance-single - Feraligatr----------------
#NOTES:
     dance-single:
     Feraligatr SM:
     Medium:
     7:
     0.473909,0.553730,0.169726,0.123437,0.100292,430.000000,408.000000,22.000000,16.000000,1.000000,0.000000,0.473909,0.553730,0.169726,0.123437,0.100292,430.000000,408.000000,22.000000,16.000000,1.000000,0.000000:
// measure 0
0000
0000
0000
0000
,  // measure 1
0000
0000
0000
0000
,  // measure 2
0000
0000
0000
0000
,  // measure 3
0000
0000
0000
0000
,  // measure 4
0000
0000
0000
0000
,  // measure 5
0001
0100
0010
1000
0100
0010
0001
1000
,  // measure 6
0010
0100
0001
1000
0200
0000
0310
0000
,  // measure 7
0001
1000
0010
1000
0100
0010
0001
0000
,  // measure 8
1000
1000
0010
0100
0001
0010
0100
1000
,  // measure 9
0002
0000
0103
0010
1000
0100
0010
0001
,  // measure 10
1000
0010
0100
0001
1000
0100
1000
0100
,  // measure 11
0010
0001
1000
0010
0100
0001
1000
0000
,  // measure 12
0100
1000
0001
0100
0001
0010
0100
1000
,  // measure 13
0001
0000
0100
0000
0010
0000
1000
0000
0100
0000
0010
0000
0200
0000
0000
0300
,  // measure 14
1100
1000
0000
1000
0000
1000
0010
1000
,  // measure 15
0100
0100
0010
0100
1000
1000
0010
1000
,  // measure 16
0100
1000
0000
1000
0000
1000
0010
1000
,  // measure 17
0100
1000
0001
0100
0010
1000
0100
0010
,  // measure 18
0011
0001
0000
0001
0000
0001
0100
0001
,  // measure 19
0010
0000
0010
0000
0100
0000
0010
0000
0001
000M
0000
0000
1001
0000
0001
0000
,  // measure 20
0000
0001
0000
0001
0010
0001
0100
0010
,  // measure 21
0100
0000
0001
0000
0010
0000
0100
0000
1000
0000
0010
0000
0100
0000
0000
0001
,  // measure 22
0000
0000
1000
0000
0000
0100
0000
0000
0010
0000
0000
0100
1000
0000
0000
0001
,  // measure 23
0000
0000
0100
0000
0000
0010
0000
0000
1000
0000
0000
0001
0010
0000
0000
0100
,  // measure 24
0000
0000
1000
0000
0000
0001
0000
0000
0100
0000
0000
0010
2000
0000
0000
0000
,  // measure 25
0000
0000
0000
0000
0000
0000
3001
0100
,  // measure 26
0001
0100
0010
1000
0010
1000
0001
0010
,  // measure 27
0001
0010
0100
1000
0100
1000
0004
0000
,  // measure 28
0403
0340
4030
3001
,  // measure 29
0100
0000
0000
0000
0001
1000
0000
1000
0200
0000
0000
0300
0110
0000
0000
0000
,  // measure 30
0001
0000
1000
0000
0010
0000
0100
0001
,  // measure 31
1000
0100
0010
0001
,  // measure 32
1000
0000
0010
0000
0100
0000
0001
1000
,  // measure 33
0100
0110
0011
1001
,  // measure 34
1000
0000
0010
0000
0100
0000
0001
1000
,  // measure 35
0100
1000
0001
0000
0100
0000
0010
0000
,  // measure 36
1000
0000
0001
0000
0010
0000
0100
1000
,  // measure 37
0001
0100
0001
1000
0100
0010
0001
0000
,  // measure 38
1000
0000
0010
0000
0100
0000
0001
1000
,  // measure 39
0100
0010
0001
1000
,  // measure 40
0010
0000
0100
0000
0001
0010
0100
1000
,  // measure 41
0001
0100
0110
0000
1010
0000
1001
0000
,  // measure 42
0004
0000
0013
0000
0010
0000
0100
1000
,  // measure 43
0001
1000
0010
0000
0100
0000
0002
0000
,  // measure 44
0000
0003
0000
1000
,  // measure 45
0000
0000
0000
0000
0000
0000
0000
0000
0000
0000
0000
0000
0001
0000
0000
0100
,  // measure 46
0000
0000
0010
0000
0000
1000
0000
0000
0001
0000
0000
0010
0100
0000
0000
1000
,  // measure 47
0000
0000
0001
0000
0000
0100
0000
0000
0010
0000
0000
1000
0001
0000
0000
0010
,  // measure 48
0000
0000
0100
0000
0000
1000
0000
0000
0001
0000
0000
0100
0010
0000
0000
0000
,  // measure 49
0000
0000
0000
0000
1000
0100
1000
0100
,  // measure 50
0010
0001
0010
0001
1000
0010
1000
0010
,  // measure 51
0100
0001
0100
0001
4000
0000
3400
0000
,  // measure 52
0340
0000
0000
0000
0034
0000
0000
0000
4003
0040
0000
0000
0000
0000
0000
0000
,  // measure 53
0000
0000
0000
3000
0130
0000
0000
0000
1001
0000
0000
0000
1000
0000
0000
0000
,  // measure 54
0001
0100
1000
0100
0001
0010
1000
0010
,  // measure 55
0001
0000
0100
0000
0020
0000
0000
0030
1010
0000
0000
0000
1000
0000
0010
0000
,  // measure 56
1000
0100
0001
0100
1000
0010
0001
0010
,  // measure 57
1000
1001
0011
0001
,  // measure 58
0100
0001
0020
0000
0031
0100
1000
0100
,  // measure 59
0001
0000
0010
0000
0200
0000
0000
0300
1100
0000
0000
0000
0004
0000
0000
0000
,  // measure 60
0403
0000
0000
0000
0340
0000
0000
0000
1030
0000
0001
1000
0000
0001
1000
0000
,  // measure 61
0100
0000
1000
0001
0000
1000
0001
0000
0101
0000
0000
0000
0100
0000
0000
0000
,  // measure 62
0001
1000
0001
1000
0010
0100
0010
0100
,  // measure 63
0001
1000
0001
1000
0200
0000
0310
0000
,  // measure 64
0004
0000
0000
0000
1003
0010
1000
0010
,  // measure 65
0100
0000
0101
0000
,  // measure 66
0001
1000
0001
1000
0100
0010
0001
1000
,  // measure 67
0010
0100
0001
1000
0200
0000
1300
0000
,  // measure 68
1100
0000
1001
0000
0001
0100
0001
0100
,  // measure 69
0010
1000
0100
0010
0001
0000
1000
0000
,  // measure 70
0020
0000
0000
0000
,  // measure 71
1030
0000
1001
1000
,  // measure 72
0001
0010
1000
0010
0001
0100
1000
0100
,  // measure 73
0001
1001
1100
0001
,  // measure 74
0100
0001
0020
0000
0031
0010
1000
0010
,  // measure 75
0001
0100
0020
0000
2030
0000
0000
0000
,  // measure 76
3000
0000
0004
0000
,  // measure 77
0000
0000
0000
0003
2000
0000
0000
0000
,  // measure 78
0000
0000
0000
0000
,  // measure 79
0000
0000
0000
3000
;

//---------------dance-single - Feraligatr----------------
#NOTES:
     dance-single:
     Feraligatr SH:
     Hard:
     10:
     0.730702,0.953646,0.401170,0.154296,0.709762,663.000000,611.000000,52.000000,20.000000,5.000000,0.000000,0.730702,0.953646,0.401170,0.154296,0.709762,663.000000,611.000000,52.000000,20.000000,5.000000,0.000000:
// measure 0
0000
0000
0000
0000
,  // measure 1
0000
0000
0000
0000
,  // measure 2
0000
0000
0000
0000
,  // measure 3
0000
0000
0000
0000
,  // measure 4
0000
0000
0000
0000
,  // measure 5
0001
0000
1000
0000
0100
0000
1000
0000
0010
0100
0001
0000
0010
0000
0100
0000
,  // measure 6
1100
1000
0001
1000
0002
0000
0103
0000
,  // measure 7
0010
1000
0001
0000
0010
0000
0100
0000
1000
0000
0010
0000
0100
0000
0000
0000
,  // measure 8
0001
0001
1000
0100
0001
1000
0001
0100
,  // measure 9
2000
0000
3010
0100
0001
0010
0100
1000
,  // measure 10
0001
0100
0010
1000
0100
0010
0100
0010
,  // measure 11
0001
0000
1000
0010
0100
0000
0001
0000
0010
0000
0100
0000
1000
0000
0000
0000
,  // measure 12
0001
0001
1000
0010
0001
1000
0001
0010
,  // measure 13
1000
0000
0100
0000
0010
0000
0001
0000
1000
0000
0010
0000
2000
0000
0000
3000
,  // measure 14
1001
0000
0001
0100
0000
0100
0001
0000
1000
0000
0100
0010
0001
1000
0010
0000
,  // measure 15
0100
0000
0001
1000
0001
0100
0010
0000
0100
0000
0001
1000
0100
0010
0001
0000
,  // measure 16
1000
0000
0001
0010
0000
0010
0001
0000
1000
0000
0010
0100
0001
1000
0100
0000
,  // measure 17
0010
0000
0001
1000
0010
0100
0001
0000
1000
0001
0010
0000
0100
0000
1000
0000
,  // measure 18
1001
0000
0001
0100
0000
0100
0001
0000
1000
0000
0010
1000
0001
0010
0100
0000
,  // measure 19
1000
0000
0001
0100
0010
0100
0001
0000
0010
00MM
0000
0000
1001
0000
1000
0010
,  // measure 20
0000
0010
1000
0000
0001
0000
0010
0001
1000
0010
0100
0000
0002
0000
0023
0000
,  // measure 21
0230
0000
2300
0000
3001
0100
0000
0100
0010
0000
1000
0000
0001
0000
0000
0010
,  // measure 22
0100
0000
1000
0000
0001
0100
0000
0000
0010
0000
0000
0100
0001
0000
0000
1000
,  // measure 23
0100
0000
0010
0000
0001
1000
0000
0000
0010
0000
0000
0100
0001
0000
0000
1000
,  // measure 24
0100
0000
0010
0000
0001
1000
0000
0000
0010
0000
0000
0100
0002
0000
0000
0000
,  // measure 25
0000
0000
0000
0000
0000
0000
1003
0100
1000
0010
0000
0000
0100
0001
0100
0001
,  // measure 26
1000
0000
0010
1000
0001
0010
0100
0000
1000
0001
0100
0010
0100
0001
1000
0100
,  // measure 27
0010
0000
0100
1000
0001
0100
0010
0000
1000
0001
0010
0001
0100
0010
1000
0001
,  // measure 28
1000
0100
0010
0100
1000
0010
0100
0001
0010
0100
0010
0001
0100
0010
0000
0010
,  // measure 29
1000
0000
0001
0000
1000
0100
0000
1000
0020
0000
0000
0030
0110
0000
0000
0000
,  // measure 30
0100
0000
0000
0000
0000
0000
0000
0000
0000
0000
0000
0000
0000
0000
0000
0000
0000
0000
0000
0000
0000
0000
0000
0000
0000
0000
0000
0000
0000
0000
0000
0000
0000
0000
0000
0000
0000
0000
0000
0000
0000
0000
0000
0000
0000
0000
0000
0000
0101
0000
0000
0000
0000
0000
0000
0000
0000
0000
0000
0000
0000
0000
0000
0000
0000
0000
0000
0000
0000
0000
0000
0000
0000
0000
0000
0000
0000
0000
0000
0000
0000
0000
0000
0000
0000
0000
0000
0000
0000
0000
0000
0000
0000
0000
0000
0000
1000
0000
0000
0000
0000
0000
0000
0000
0000
0000
0000
0000
0000
0000
0000
0000
0000
0000
0000
0000
0000
0000
0000
0000
0000
0000
0000
0000
0000
0000
0000
0000
0000
0000
0000
0000
0000
0000
0000
0000
0000
0000
0000
0000
0000
0000
0000
0000
1001
0000
0000
0000
0000
0000
0000
0000
0000
0000
0000
0000
0000
0000
0000
0000
0000
0000
0000
0000
0000
0000
0000
0000
0000
0000
0000
0000
0000
1000
0000
0000
0000
0000
0000
0000
0000
0000
0000
0000
0000
0000
0000
0000
0000
0000
0000
0000
,  // measure 31
0100
0110
0001
2010
,  // measure 32
3010
0000
0000
0000
0000
0000
0000
0000
0000
0000
0000
0000
0000
0000
0000
0000
0000
0000
0000
0000
0000
0000
0000
0000
0000
0000
0000
0000
0000
0000
0000
0000
0000
0000
0000
0000
0000
0000
0000
0000
0000
0000
0000
0000
0000
0000
0000
0000
1001
0000
0000
0000
0000
0000
0000
0000
0000
0000
0000
0000
0000
0000
0000
0000
0000
0000
0000
0000
0000
0000
0000
0000
0000
0000
0000
0000
0000
0000
0000
0000
0000
0000
0000
0000
0000
0000
0000
0000
0000
0000
0000
0000
0000
0000
0000
0000
1000
0000
0000
0000
0000
0000
0000
0000
0000
0000
0000
0000
0000
0000
0000
0000
0000
0000
0000
0000
0000
0000
0000
0000
0000
0000
0000
0000
0000
0000
0000
0000
0000
0000
0000
0000
0000
0000
0000
0000
0000
0000
0000
0000
0000
0000
0000
0000
1100
0000
0000
0000
0000
0000
0000
0000
0000
0000
0000
0000
0000
0000
0000
0000
0000
0000
0000
0000
0000
0000
0000
0000
0000
0000
0000
0000
0000
0001
0000
0000
0000
0000
0000
0000
0000
0000
0000
0000
0000
0000
0000
0000
0000
0000
0000
0000
,  // measure 33
0100
0110
1010
1001
,  // measure 34
0001
0000
0000
0000
0000
0000
0000
0000
0000
0000
0000
0000
0000
0000
0000
0000
0000
0000
0000
0000
0000
0000
0000
0000
0000
0000
0000
0000
0000
0000
0000
0000
0000
0000
0000
0000
0000
0000
0000
0000
0000
0000
0000
0000
0000
0000
0000
0000
0011
0000
0000
0000
0000
0000
0000
0000
0000
0000
0000
0000
0000
0000
0000
0000
0000
0000
0000
0000
0000
0000
0000
0000
0000
0000
0000
0000
0000
0000
0000
0000
0000
0000
0000
0000
0000
0000
0000
0000
0000
0000
0000
0000
0000
0000
0000
0000
1000
0000
0000
0000
0000
0000
0000
0000
0000
0000
0000
0000
0000
0000
0000
0000
0000
0000
0000
0000
0000
0000
0000
0000
0000
0000
0000
0000
0000
0000
0000
0000
0000
0000
0000
0000
0000
0000
0000
0000
0000
0000
0000
0000
0000
0000
0000
0000
1010
0000
0000
0000
0000
0000
0000
0000
0000
0000
0000
0000
0000
0000
0000
0000
0000
0000
0000
0000
0000
0000
0000
0000
0000
0000
0000
0000
0000
0010
0000
0000
0000
0000
0000
0000
0000
0000
0000
0000
0000
0000
0000
0000
0000
0000
0000
0000
,  // measure 35
0100
0000
0000
0000
0000
0000
0000
0000
0000
0000
0000
0000
0000
0000
0000
0000
0000
0000
0000
0000
0000
0000
0000
0000
0000
0000
0000
0000
0000
0100
0000
0000
0000
0000
0000
0000
0000
0000
0000
0000
0000
0000
0000
0000
0000
0000
0000
0000
0001
0000
0000
0000
0000
0000
0000
0000
0000
0000
0000
0000
0000
0000
0000
0000
0000
0000
0000
0000
0000
0000
0000
0000
0000
0000
0000
0000
0000
0000
0000
0000
0000
0000
0000
0000
0000
0000
0000
0000
0000
0000
0000
0000
0000
0000
0000
0000
1000
0000
0000
0000
0000
0000
0000
0000
0000
0000
0000
0000
0000
0000
0000
0000
0000
0000
0000
0000
0000
0000
0000
0000
0000
0000
0000
0000
0000
0000
0000
0000
0000
0000
0000
0000
0000
0000
0000
0000
0000
0000
0000
0000
0000
0000
0000
0000
1100
0000
0000
0000
0000
0000
0000
0000
0000
0000
0000
0000
0000
0000
0000
0000
0000
0000
0000
0000
0000
0000
0000
0000
0000
0000
0000
0000
0000
0000
0000
0000
0000
0000
0000
0000
0000
0000
0000
0000
0000
0000
0000
0000
0000
0000
0000
0000
,  // measure 36
0001
0000
0100
0000
0001
1000
0001
0000
0010
0000
0100
0000
1000
0000
1000
0000
,  // measure 37
0001
0100
0010
1000
0100
0010
0011
0000
,  // measure 38
1000
0000
0000
0000
0000
0000
0000
0000
0000
0000
0000
0000
0000
0000
0000
0000
0000
0000
0000
0000
0000
0000
0000
0000
0000
0000
0000
0000
0000
0000
0000
0000
0000
0000
0000
0000
0000
0000
0000
0000
0000
0000
0000
0000
0000
0000
0000
0000
1010
0000
0000
0000
0000
0000
0000
0000
0000
0000
0000
0000
0000
0000
0000
0000
0000
0000
0000
0000
0000
0000
0000
0000
0000
0000
0000
0000
0000
0000
0000
0000
0000
0000
0000
0000
0000
0000
0000
0000
0000
0000
0000
0000
0000
0000
0000
0000
0001
0000
0000
0000
0000
0000
0000
0000
0000
0000
0000
0000
0000
0000
0000
0000
0000
0000
0000
0000
0000
0000
0000
0000
0000
0000
0000
0000
0000
0000
0000
0000
0000
0000
0000
0000
0000
0000
0000
0000
0000
0000
0000
0000
0000
0000
0000
0000
1001
0000
0000
0000
0000
0000
0000
0000
0000
0000
0000
0000
0000
0000
0000
0000
0000
0000
0000
0000
0000
0000
0000
0000
0000
0000
0000
0000
0000
1000
0000
0000
0000
0000
0000
0000
0000
0000
0000
0000
0000
0000
0000
0000
0000
0000
0000
0000
,  // measure 39
0100
0110
0001
1001
,  // measure 40
1000
0000
0000
0000
1010
0000
0000
0000
0010
0000
0100
0001
0000
0001
1000
0000
,  // measure 41
0100
0010
0011
0000
1001
0000
1010
0000
,  // measure 42
1000
0000
0000
0000
0000
0000
0000
0000
0000
0000
0000
0000
0100
0000
0000
0000
0000
0000
0000
0000
0000
0000
0000
0000
0001
0000
0000
0000
0000
0000
0000
0000
0000
0000
0000
0000
0100
0000
0000
0000
0000
0000
0000
0000
0000
0000
0000
0000
1000
0000
0000
0000
0000
0000
0000
0000
0000
0000
0000
0000
0000
0000
0000
0000
0000
0000
0000
0000
0000
0000
0000
0000
0000
0000
0000
0000
0000
0000
0000
0000
0000
0000
0000
0000
0000
0000
0000
0000
0000
0000
0000
0000
0000
0000
0000
0000
1000
0000
0000
0000
0000
0000
0000
0000
0000
0000
0000
0000
0000
0000
0000
0000
0000
0000
0000
0000
0000
0000
0000
0000
0000
0000
0000
0000
0000
0000
0000
0000
0000
0000
0000
0000
0000
0000
0000
0000
0000
0000
0000
0000
0000
0000
0000
0000
1001
0000
0000
0000
0000
0000
0000
0000
0000
0000
0000
0000
0000
0000
0000
0000
0000
0000
0000
0000
0000
0000
0000
0000
0000
0000
0000
0000
0000
0001
0000
0000
0000
0000
0000
0000
0000
0000
0000
0000
0000
0000
0000
0000
0000
0000
0000
0000
,  // measure 43
0100
0000
0000
0000
0000
0000
0000
0000
0000
0000
0000
0000
0000
0000
0000
0000
0000
0000
0000
0000
0000
0000
0000
0000
0000
0000
0000
0000
0000
0100
0000
0000
0000
0000
0000
0000
0000
0000
0000
0000
0000
0000
0000
0000
0000
0000
0000
0000
0010
0000
0000
0000
0000
0000
0000
0000
0000
0000
0000
0000
0000
0000
0000
0000
0000
0000
0000
0000
0000
0000
0000
0000
0000
0000
0000
0000
0000
0000
0000
0000
0000
0000
0000
0000
0000
0000
0000
0000
0000
0000
0000
0000
0000
0000
0000
0000
1000
0000
0000
0000
0000
0000
0000
0000
0000
0000
0000
0000
0000
0000
0000
0000
0000
0000
0000
0000
0000
0000
0000
0000
0000
0000
0000
0000
0000
0000
0000
0000
0000
0000
0000
0000
0000
0000
0000
0000
0000
0000
0000
0000
0000
0000
0000
0000
1001
0000
0000
0000
0000
0000
0000
0000
0000
0000
0000
0000
0000
0000
0000
0000
0000
0000
0000
0000
0000
0000
0000
0000
1000
0000
0000
0000
0000
0000
0000
0000
0000
0000
0000
0000
0100
0000
0000
0000
0000
0000
0000
0000
0000
0000
0000
0000
,  // measure 44
0000
0100
0010
0000
0002
0000
0000
0000
0000
0000
0003
0000
1001
0000
0000
0000
,  // measure 45
0000
0000
0000
0000
0000
0000
1000
0100
1000
0010
0000
0000
1000
0000
0000
0100
,  // measure 46
0010
0000
0001
0000
1000
0010
0000
0000
0100
0000
0000
0001
1000
0000
0000
0100
,  // measure 47
0010
0000
0001
0000
1000
0010
0000
0000
0100
0000
0000
0001
1000
0000
0000
0001
,  // measure 48
0010
0000
0100
0000
1000
0001
0000
0000
0100
0000
0000
0010
1000
0000
0M00
0000
,  // measure 49
0001
0000
1000
0100
1000
0010
0000
0000
0100
0001
0100
0001
1000
0000
0001
0010
,  // measure 50
0100
0010
0001
0000
1000
0010
0100
0001
1000
0100
1000
0001
0100
0000
0010
1000
,  // measure 51
0001
1000
0100
0000
1000
0001
0100
0001
0010
0100
1000
0001
1000
0010
0100
0001
,  // measure 52
0010
0001
1000
0010
0100
0001
1000
0100
0040
0004
0000
0000
0000
0000
0000
0000
,  // measure 53
0000
0000
0000
0030
1003
0000
0000
0000
1001
0000
0000
0000
0001
0000
0000
0000
,  // measure 54
1000
0100
0010
0100
1000
0010
0100
0001
1000
0100
0010
0100
1000
0010
0100
0001
,  // measure 55
1000
0100
0010
0001
0200
0000
0000
0300
0110
0000
0000
0000
0001
0000
1000
0000
,  // measure 56
0001
0100
0010
0100
0001
0010
0100
1000
0001
0100
0010
0100
0001
0010
0100
1000
,  // measure 57
0010
0110
0101
0001
,  // measure 58
1000
0100
1000
0010
0200
0000
0000
0000
0301
0100
0010
0100
0001
0010
0100
1000
,  // measure 59
0001
0100
0010
1000
0200
0000
0000
0300
0110
0000
0000
0000
0001
1000
0001
0100
,  // measure 60
0010
1000
0100
1000
0001
0100
0010
1000
0100
0000
1000
0100
0000
1000
0100
0000
,  // measure 61
1001
0000
0001
0100
0000
0001
0100
0000
0110
0000
0000
0000
1000
0000
0000
0000
,  // measure 62
1100
0100
0100
0100
0010
0010
0010
0010
,  // measure 63
0011
0001
0001
0001
2001
0000
3010
0000
,  // measure 64
1000
0000
0010
0000
0100
0000
0001
0000
0100
0000
0010
0000
1000
0000
0000
1000
0000
0000
1000
0000
0000
1000
0000
0000
,  // measure 65
1001
0000
0001
0010
0001
1000
0010
1000
0200
0000
0000
0000
03M0
0000
000M
0000
,  // measure 66
0110
0000
0010
0000
0010
0000
0010
0000
0001
0000
1000
0010
0100
0000
0001
0000
,  // measure 67
1001
1000
0100
0010
0012
0000
1003
0010
,  // measure 68
0110
0100
0101
0001
1001
1000
0100
1000
,  // measure 69
1001
0001
0100
0010
1010
0000
0001
0000
,  // measure 70
4000
0400
0000
0000
0000
0000
0000
0000
0000
0000
0000
0000
0000
0000
0000
3000
,  // measure 71
0310
0000
1001
1000
,  // measure 72
0001
0100
0001
0010
0000
0010
0100
1000
0001
0100
0001
0010
0000
0010
0100
1000
,  // measure 73
0001
0101
0110
1000
,  // measure 74
0001
1000
0010
1000
0200
0000
0000
0000
1300
0100
0010
0100
1000
0010
0100
0001
,  // measure 75
1000
0100
0010
0001
0200
0000
0000
0300
0110
0000
0010
1000
0000
1000
0001
0000
,  // measure 76
4000
0000
0000
0000
0000
0000
0000
0000
0000
0000
0000
0000
0000
0000
0000
0000
0000
0000
0000
0000
0000
3000
0000
0000
0001
0000
0000
0000
1000
0000
0000
0000
0001
0000
0000
0000
1000
0000
0000
0000
0001
0000
0000
0000
1000
0000
0000
0000
,  // measure 77
0001
0000
1000
0100
0010
0001
0000
0001
0200
0000
0000
0000
0000
0000
0000
0000
,  // measure 78
0000
0000
0000
0000
,  // measure 79
0000
0000
0000
0300
;
