#TITLE:Addict;
#SUBTITLE:;
#ARTIST:Masayoshi Iimori;
#TITLETRANSLIT:;
#SUBTITLETRANSLIT:;
#ARTISTTRANSLIT:;
#GENRE:Jungle Terror;
#CREDIT:Feraligatr & Maxx;
#BANNER:addict-bn.png;
#BACKGROUND:Addict-bg.png;
#LYRICSPATH:;
#CDTITLE:feraligatr-maxx-cdtitle.png;
#MUSIC:Addict.ogg;
#OFFSET:-0.647000;
#SAMPLESTART:30.646999;
#SAMPLELENGTH:13.714000;
#SELECTABLE:YES;
#DISPLAYBPM:140.000000;
#BPMS:0.000000=140.000000
,230.000000=105.000000
,231.000000=210.000000
,232.000000=140.000000
;
#STOPS:
;
#BGCHANGES:;
#KEYSOUNDS:;
#ATTACKS:;

//---------------dance-single - Feraligatr & Maxx----------------
#NOTES:
     dance-single:
     Feraligatr & Maxx:
     Challenge:
     11:
     0.821118,0.860054,0.478261,0.252174,0.756522,661.000000,599.000000,55.000000,29.000000,5.000000,4.000000,0.821118,0.860054,0.478261,0.252174,0.756522,661.000000,599.000000,55.000000,29.000000,5.000000,4.000000:
0000
0000
0000
0000
,
0000
0000
0000
0000
,
1001
0000
1000
0010
0100
0000
0001
1000
0100
1000
0001
0000
0100
0010
1000
0000
,
0001
0000
0010
0100
1000
0000
0001
1000
0100
1000
0001
0000
1000
0001
0100
0001
,
0010
0000
0100
0010
0001
0000
1000
0010
1000
0001
0100
0000
0010
1000
0001
0000
,
0010
0000
0100
0010
0001
0000
1000
0001
0100
0001
1000
0000
0100
0010
0100
1000
,
0010
0000
0100
0001
1000
0000
0010
0100
0001
1000
0100
0000
0010
0001
1000
0000
,
0010
0000
0100
0001
1000
0000
0001
0010
0100
0010
0001
0000
1000
0010
0100
0001
,
0010
0000
0100
1000
0001
0000
1000
0010
1000
0001
0010
0000
0100
1000
0001
0000
,
0100
0000
0100
0000
0010
0000
0010
0000
1000
0000
0001
0000
1000
0100
0010
0000
,
0012
0000
0000
0000
2003
0000
0000
3000
1020
0000
0000
0000
0230
0000
0000
0300
,
0102
0000
0000
0000
2003
0000
0000
3000
1200
0000
0000
0000
0320
0000
0000
0030
,
0012
0000
0000
0000
2003
0000
0000
3000
1020
0000
0000
0000
0230
0000
0000
0300
,
0102
0000
0000
0000
2003
0000
0000
3000
1002
0000
0000
0000
0103
0100
0100
0100
,
10MM
1000
0010
0010
0100
0100
0001
0001
,
0010
0010
0100
0100
1000
1000
0001
0001
,
1000
0010
1000
0001
0010
0100
0010
0001
0100
0010
1000
0001
1000
0100
0010
0001
,
0400
0300
0000
0000
0100
0000
0000
0000
0100
0000
0010
0000
1000
0100
0010
0000
,
0140
0000
0000
0000
0000
0000
0030
0000
0001
1000
0001
0000
0100
0000
0000
0000
0100
0000
0000
0000
0100
0000
0001
0000
0100
0000
0000
0000
0010
0000
0000
0000
,
0010
0000
0000
0000
0000
0000
0000
0000
0000
0000
0000
0000
0000
0000
0000
0000
0000
0000
0000
0000
0000
0000
0000
0000
1000
0000
0000
0000
0000
0000
0001
0000
0000
0000
0000
0000
1000
0000
0000
0000
0000
0000
0000
0000
0000
0000
0000
0000
0100
0000
0000
0000
0000
0000
0000
0000
0000
0000
0000
0000
0000
0000
0000
0000
0000
0000
0000
0000
0000
0000
0000
0000
0100
0000
0000
0000
0000
0000
0000
0000
0000
0000
0000
0000
0000
0000
0000
0000
0000
0000
0000
0000
0000
0000
0000
0000
1000
0000
0000
0000
0000
0000
0000
0000
0000
0000
0000
0000
0000
0000
0000
0000
0001
0000
0000
0000
0000
0000
0000
0000
0010
0000
0000
0000
0000
0000
0000
0000
0000
0000
0000
0000
0001
0000
0000
0000
0000
0000
0000
0000
0000
0000
0000
0000
0200
0000
0000
0000
0000
0000
0000
0000
0000
0000
0000
0000
0000
0000
0000
0000
0000
0000
0000
0000
0000
0000
0000
0000
0010
0000
0000
0000
0000
0000
0000
0000
0000
0000
0000
0000
0300
0000
0000
0000
0000
0000
0000
0000
0000
0000
0000
0000
,
4010
0000
0000
0000
0000
0000
3000
0000
0001
0100
0001
0000
1000
0000
0000
0000
1000
0000
0000
0000
1000
0000
0001
0000
1000
0000
0000
0000
0010
0000
0000
0000
,
0100
0000
0000
0100
0001
0000
1000
0000
1000
0000
0100
0000
1000
0001
0010
0000
,
0110
0000
0000
0000
0000
0000
0000
0000
1000
0100
1000
0000
0001
0000
0000
0000
0001
0000
0000
0000
0001
0000
1000
0000
0001
0000
0000
0000
0010
0000
0000
0000
,
0010
0000
0000
0000
0000
0000
0000
0000
0001
0000
1000
0000
0001
0000
0000
0000
0100
0000
0000
0000
0000
0000
0000
0000
0100
0000
0000
0000
0000
0001
0000
0000
1000
0000
0000
0000
0000
0001
0000
0000
0010
0000
0000
0000
0000
0000
0000
0000
0200
0000
0000
0000
0000
0000
0000
0000
0000
0000
0000
0000
0300
0000
0000
0000
,
1001
0000
1000
0000
0001
0000
0100
0010
1000
0001
0010
0000
0100
0000
1000
0000
,
1000
0000
0000
0000
0000
0000
0000
0000
0000
0000
0000
0000
0000
0000
0000
0000
0000
0000
0000
0000
0000
0000
0000
0000
0001
0000
0000
0000
0000
0000
0000
0000
0000
0000
0000
0000
0000
0000
0000
0000
0000
0000
0000
0000
0000
0000
0000
0000
0100
0000
0000
0000
0000
0000
0000
0000
0000
0000
0000
0000
0000
0000
0000
0000
0000
0000
0000
0000
0000
0000
0000
0000
0001
0000
0000
0000
0000
0000
0000
0000
0000
0000
0000
0000
0000
0000
0000
0000
0000
0000
0000
0000
0000
0000
0000
0000
0010
0000
0000
0000
0000
0000
0000
0000
0000
0000
0000
0000
0000
0000
0000
0000
0000
0000
0000
0000
0000
0000
0000
0000
0010
0000
0000
0000
0000
0000
0000
0000
0000
0000
0000
0000
0000
0000
0000
0000
0000
0000
0000
0000
0000
0000
0000
0000
0010
0000
0000
0000
0000
0000
0000
0000
0000
0000
0000
0000
0000
0000
0100
0000
0000
0000
0000
0000
0000
0000
0000
0000
1000
0000
0000
0000
0000
0000
0000
0000
0000
0000
0000
0000
0000
0000
0000
0000
0000
0000
0000
0000
0000
0000
0000
0000
,
1004
0000
0000
0000
0000
0000
0003
0000
1000
0100
1000
0000
0001
0000
0000
0000
0001
0000
0000
0000
0001
0000
1000
0000
0001
0000
0000
0000
0100
0000
0000
0000
,
0100
0000
0000
0000
0000
0000
0000
0000
0000
0000
0000
0000
0000
0000
0000
0000
0000
0000
0000
0000
0000
0000
0000
0000
0010
0000
0000
0000
0000
0000
1000
0000
0000
0000
0000
0000
0010
0000
0000
0000
0000
0000
0000
0000
0000
0000
0000
0000
0100
0000
0000
0000
0000
0000
0000
0000
0000
0000
0000
0000
0000
0000
0000
0000
0000
0000
0000
0000
0000
0000
0000
0000
0100
0000
0000
0000
0000
0000
0000
0000
0000
0000
0000
0000
0001
0000
0000
0000
0000
0000
0000
0000
0000
0000
0000
0000
1000
0000
0000
0000
0000
0000
0000
0000
0000
0000
0000
0000
0000
0000
0000
0000
0010
0000
0000
0000
0000
0000
0000
0000
0100
0000
0000
0000
0000
0000
0000
0000
0000
0000
0000
0000
0001
0000
0000
0000
0000
0000
0000
0000
0000
0000
0000
0000
0020
0000
0000
0000
0000
0000
0000
0000
0000
0000
0000
0000
0000
0000
0000
0000
0000
0000
0000
0000
0000
0000
0000
0000
0001
0000
0000
0000
0000
0000
0000
0000
0000
0000
0000
0000
0030
0000
0000
0000
0000
0000
0000
0000
0000
0000
0000
0000
,
4001
0000
0000
0000
0000
0000
3000
0000
0001
0010
0001
0000
1000
0000
0000
0000
1000
0000
0000
0000
1000
0000
0010
0000
1000
0000
0000
0000
0001
0000
0000
0000
,
0100
0000
0000
0000
0000
0000
0000
0000
0000
0000
0000
0000
0100
0000
0000
0000
0010
0000
0000
0000
0000
0000
0000
0000
0100
0000
0000
0000
0000
0000
0000
0000
0100
0000
0000
0000
0010
0000
0000
0000
1000
0000
0000
0000
0001
0000
0000
0000
0010
0000
0000
0000
0000
0100
0000
0000
0010
0000
0000
0000
0000
0100
0000
0000
,
2000
0000
0000
0000
0000
0000
0000
0000
3001
0100
0001
0000
1000
0000
0000
0000
1000
0000
0000
0000
1000
0000
0010
0000
1000
0000
0000
0000
0001
0000
0000
0000
,
0001
0000
0000
0000
0000
0000
0000
0000
1000
0000
0100
0000
1000
0000
0000
0000
0001
0000
0000
0000
0000
0000
0000
0000
0001
0000
0000
0000
0000
0100
0000
0000
0001
0000
0000
0000
0000
0100
0000
0000
0020
0000
0000
0000
0000
0000
0000
0000
2030
0000
0000
0000
0000
0000
0000
0000
0000
0000
0000
0000
3000
0000
0000
0000
,
1004
0000
0000
0000
0000
0043
0000
0430
,
4300
3000
4000
3000
4000
3000
4000
3000
,
4000
0000
0000
0000
0000
0000
0000
0000
3010
0000
0000
0000
0000
0100
0000
0000
0001
0000
0000
0000
0000
0000
0000
0000
1000
0000
0000
0000
0000
0100
0000
0000
1000
0000
0000
0000
0000
0000
0000
0000
0010
0000
0000
0000
0000
0000
0000
0000
0100
0000
0000
0000
0000
0000
0000
0000
0001
0000
0000
0000
0000
1000
0000
0000
,
0100
0000
0000
0000
0000
0000
0000
0000
1000
0000
0000
0000
0000
0001
0000
0000
0100
0000
0000
0000
0000
0000
0000
0000
0010
0000
0000
0000
0000
0100
0000
0000
0001
0000
0000
0000
0000
0000
0000
0000
0010
0000
0000
0000
0000
0000
0000
0000
0100
0000
0000
0000
0000
0000
0000
0000
1000
0000
0000
0000
0000
0000
0000
0000
,
0001
0000
0000
0000
0000
0000
0000
0000
0100
0000
0000
0000
0000
0001
0000
0000
1000
0000
0000
0000
0000
0000
0000
0000
0100
0000
0000
0000
0000
0010
0000
0000
0001
0000
0000
0000
0000
0000
0000
0000
0100
0000
0000
0000
0000
0000
0000
0000
0010
0000
0000
0000
0000
0000
0000
0000
1000
0000
0000
0000
0000
0001
0000
0000
,
0010
0000
0000
0000
0000
0000
0000
0000
0100
0000
0000
0000
0000
1000
0000
0000
0001
0000
0000
0000
0000
0000
0000
0000
0100
0000
0000
0000
0000
0010
0000
0000
1000
0000
0000
0000
0000
0000
0000
0000
0001
0000
0000
0000
0000
0000
0000
0000
0100
0000
0000
0000
0100
0000
0000
0000
0100
0000
0000
0000
0100
0000
0000
0000
,
10MM
1000
0001
0001
0100
0100
0010
0010
,
1000
1000
0001
0001
0010
0010
0100
0100
,
1000
0001
0010
0001
1000
0010
0100
0001
1000
0100
0010
0001
1000
0001
0010
0100
,
1000
0000
0000
0000
0000
0000
0011
1000
,
1100
0000
0000
0001
0000
0000
0001
0000
0000
0100
0000
0000
0044
0033
0000
0000
0000
0000
4111
0000
0000
0000
0000
0000
,
0000
0000
0000
3000
4111
0000
0000
0000
0010
0000
0000
0000
3004
0000
0000
0003
,
1001
0000
0000
0000
0000
0000
0000
0000
0000
0000
0000
0000
0000
0000
0000
0000
0000
0000
0000
0000
0000
0000
0000
0000
1001
0000
0000
0000
0000
0000
0000
0000
0000
0000
0000
0000
0000
0000
0000
0000
0000
0000
0000
0000
0000
0000
0000
0000
1000
0000
0000
0000
0000
0000
0100
0000
0000
0000
0000
0000
1000
0000
0000
0000
0000
0000
0000
0000
0000
0000
0000
0000
0001
0000
0000
0000
0000
0000
0000
0000
0000
0000
0000
0000
0100
0000
0000
0000
0000
0000
0000
0000
0000
0000
0000
0000
0001
0000
0000
0000
0000
0000
0000
0000
0000
0000
0000
0000
1000
0000
0000
0000
0000
0000
0000
0000
0000
0000
0000
0000
0100
0000
0000
0000
0000
0000
0000
0000
0000
0000
0000
0000
0000
0000
0000
0000
0010
0000
0000
0000
0000
0000
0000
0000
0100
0000
0000
0000
0000
0000
0000
0000
0000
0000
0000
0000
0000
0000
0000
0000
0000
0000
0000
0000
0000
0000
0000
0000
1000
0000
0000
0000
0000
0000
0000
0000
0000
0000
0000
0000
0000
0000
0000
0000
0000
0000
0000
0000
0000
0000
0000
0000
,
1000
0000
0000
0000
0000
0000
0000
0000
0001
0000
0010
0000
0001
0000
0000
0000
1000
0000
0000
0000
0000
0000
0000
0000
1000
0000
0000
0000
0000
0001
0000
0000
1000
0000
0000
0000
0000
0001
0000
0000
1000
0000
0000
0000
0000
0001
0000
0000
0200
0000
0000
0000
0000
0000
0000
0000
0000
0000
0000
0000
0300
0000
0000
0000
,
0110
0000
0000
00M0
0000
0000
1000
0001
1000
0010
0100
0001
1000
0000
0000
0200
0000
0000
1314
0000
0000
0000
0000
0000
,
0000
0000
0000
0003
1114
0000
0000
0000
0010
0000
0000
0000
4003
0000
0000
3000
,
1001
0000
0000
0000
1001
0000
0000
0000
0001
0100
0001
0000
1000
0000
0100
0000
1000
0000
0001
0000
0100
0001
0100
0000
0010
0000
0000
0000
1000
0000
0000
0000
,
1000
0000
0000
0000
0000
0000
0000
0000
0001
0000
1000
0000
0001
0000
0000
0000
0010
0000
0000
0000
0000
0000
0000
0000
0010
0000
0000
0000
0000
0001
0000
0000
1000
0000
0000
0000
0000
0000
0000
0000
0000
0000
0000
0000
0000
0000
0000
0000
0010
0000
0000
0000
0000
0000
0000
0000
0100
0000
0000
0000
0000
0000
0000
0000
,
0102
0000
4003
0000
3100
0010
0100
0000
1000
0000
0000
0000
0001
1000
0010
0100
,
0004
0000
0000
0000
0403
0000
0000
0000
0304
0000
0000
0000
0043
0000
0000
0030
,
0011
0000
0000
0000
0000
0000
0000
0000
0011
0000
0000
0000
0000
0000
0000
0000
0001
0000
1000
0000
0001
0000
0000
0000
0010
0000
0000
0000
0000
0000
0000
0000
0010
0000
0000
0000
0000
0000
0000
0000
0010
0000
0000
0000
0000
0100
0000
0000
0010
0000
0000
0000
0000
0000
0000
0000
0001
0000
0000
0000
0000
0000
0000
0000
,
0001
0000
0000
0000
0000
0000
0000
0000
1000
0000
0010
0000
1000
0000
0000
0000
0001
0000
0000
0000
0000
0000
0000
0000
0001
0000
0000
0000
0000
1000
0000
0000
0100
0000
0000
0000
0000
1000
0000
0000
0100
0000
0000
0000
0000
1000
0000
0000
0020
0000
0000
0000
0000
0000
0000
0000
0000
0000
0000
0000
0030
0000
0000
0000
,
0110
0000
0000
0010
1000
0001
1000
0100
0010
0001
1000
0001
0100
0000
0000
0010
0000
0000
1010
0000
1000
0001
0000
0000
,
0010
0100
0010
0001
0100
0010
1000
0001
,
0011
0000
0000
0000
0011
0000
0000
0000
1000
0001
1000
0000
0010
0000
0000
0000
0010
0000
0000
0000
0010
1000
0010
0000
0100
0000
0000
0000
0001
0000
0000
0000
,
0001
0000
0000
0000
0000
0000
0000
0000
1000
0000
0100
0000
1000
0000
0000
0000
0001
0000
0000
0000
0000
0000
0000
0000
0001
0000
0000
0000
0000
1000
0000
0000
0100
0000
0000
0000
0000
0000
0000
0000
0000
0000
0000
0000
0000
0000
0000
0000
0000
0000
0000
0000
0000
0000
0000
0000
0000
0000
0000
0000
0000
0000
0000
0000
,
1100
0000
0000
0001
0100
0000
0000
0000
0101
0000
0000
1001
0000
0000
1100
0000
,
1100
0000
0000
0000
0000
0000
0000
0000
0000
1000
0000
0000
0001
0000
0000
0000
0000
0000
0100
0000
0000
0000
0000
0000
0010
0000
0000
0000
1000
0000
0001
0000
0000
0010
0000
0000
0200
0000
0000
0000
0000
0000
1000
0000
0000
0300
0000
0000
,
1100
0000
0000
0001
0010
0000
0000
0000
0011
0000
0000
1001
0000
0000
1010
0000
,
1010
0000
0000
1000
0010
0000
1000
0000
1000
0000
0001
0000
1000
0100
0010
0000
,
0011
0000
0000
1000
0010
0000
0000
0000
1010
0000
0000
0110
0000
0000
0101
0000
,
0101
0000
0000
0001
1000
0000
0100
0000
0110
0000
0010
0000
0002
0000
1000
0003
,
1001
0000
0000
0001
0100
0000
0000
0000
0101
0000
0000
1001
0000
0000
1100
0000
,
0100
0020
0000
0031
2000
0000
0000
0000
3010
0000
0010
0000
0100
0100
0100
0100
;

//---------------dance-single - Feraligatr----------------
#NOTES:
     dance-single:
     Feraligatr SH:
     Hard:
     9:
     0.663354,0.716712,0.443478,0.417391,0.360870,534.000000,483.000000,51.000000,48.000000,1.000000,0.000000,0.663354,0.716712,0.443478,0.417391,0.360870,534.000000,483.000000,51.000000,48.000000,1.000000,0.000000:
// measure 0
0000
0000
0000
0000
,  // measure 1
0000
0000
0000
0000
,  // measure 2
2001
0000
3200
0000
0310
0002
0000
0103
,  // measure 3
0020
0000
0000
0000
1000
0000
0000
0000
0130
0000
0001
0000
1000
0100
1000
0100
,  // measure 4
0020
0000
0001
0000
0130
2000
0000
3001
,  // measure 5
0101
0000
0000
0000
1000
0000
0101
0000
0000
0000
1000
0000
0001
0100
0001
0100
,  // measure 6
0020
0000
2030
0000
3001
0020
0000
0130
,  // measure 7
2000
0000
0000
0000
0001
0000
0000
0000
3100
0000
1000
0000
0001
0100
0001
0100
,  // measure 8
0020
0000
1000
0000
0130
0002
0000
1003
,  // measure 9
0100
0000
0100
0000
1000
0000
1000
0000
0001
0000
0010
0000
0001
0100
0010
0000
,  // measure 10
2010
3001
0021
0130
,  // measure 11
1200
0310
0012
1003
,  // measure 12
1020
0130
0102
1003
,  // measure 13
2100
0000
0000
0000
3001
0000
0000
0000
0201
0000
0000
0000
0310
1000
0010
1000
,  // measure 14
0001
0010
0100
0010
0001
1000
0010
0100
,  // measure 15
0010
1000
0001
0010
0001
1000
0010
1000
,  // measure 16
0001
0010
0001
0010
0100
1000
0100
1000
0001
0100
0001
0100
0010
1000
0010
1000
,  // measure 17
0004
0003
0000
0000
0001
0000
0000
0000
0001
0000
1000
0000
0001
0100
0010
0000
,  // measure 18
2010
0000
0000
3000
0001
0010
0100
0000
0100
0000
0100
0000
0100
0000
0010
0000
,  // measure 19
0010
0000
0001
1000
0010
0000
0010
0000
0010
1000
0001
1000
0020
0000
0100
0030
,  // measure 20
0102
0000
0000
0003
0001
1000
0100
0000
0100
0000
0100
0000
0100
0000
0010
0000
,  // measure 21
0001
0000
0000
0001
1000
0000
0001
0000
0001
0000
0010
0000
0001
0100
0010
0000
,  // measure 22
1010
0000
0000
0000
1000
0001
0010
0000
0010
0000
0010
0000
0010
0000
0100
0000
,  // measure 23
0100
0000
1000
0001
0100
0000
0100
0000
0100
0000
0010
0000
2000
0000
0000
3000
,  // measure 24
1001
0001
0010
0001
1000
0010
0200
0001
,  // measure 25
0301
0000
1000
0000
0100
0000
1000
0000
0010
0000
0010
0000
0010
1000
0001
0000
,  // measure 26
0201
0000
0000
0300
0010
1000
0001
0000
0001
0000
0001
0000
0001
0000
0010
0000
,  // measure 27
0010
0000
0100
1000
0001
0000
0001
0000
1000
0010
0100
0001
0020
0000
0100
0030
,  // measure 28
2100
0000
0000
3000
0001
0100
0010
0000
0010
0000
0010
0000
0010
0000
1000
0000
,  // measure 29
0001
0000
0000
0001
0010
0000
0001
0000
0001
1000
0010
1000
0004
0040
0000
0003
,  // measure 30
0130
0000
0000
0000
1000
0001
0100
0000
0100
0000
0100
0000
0100
0000
0010
0000
,  // measure 31
0010
0000
1000
0001
0010
0000
0010
0000
0010
0000
0100
0000
2000
0000
0000
3000
,  // measure 32
1002
0000
0000
0000
0000
0203
0000
0310
,  // measure 33
1000
1000
1000
1000
,  // measure 34
1000
0100
0010
0100
1000
0010
0100
0001
,  // measure 35
1000
0001
0010
0100
1000
0010
0100
0001
,  // measure 36
1000
0100
0010
0100
1000
0010
0100
0001
,  // measure 37
1000
0000
0001
0000
0010
0000
0100
0000
1000
0000
0010
0000
0100
0001
0100
0001
,  // measure 38
1000
0100
0010
0001
1000
0010
0100
0001
,  // measure 39
1000
0100
1000
0001
0100
0010
1000
0001
,  // measure 40
1000
0100
1000
0100
0010
0001
0010
0001
1000
0010
1000
0010
0100
0001
0100
0001
,  // measure 41
1000
0000
0000
0000
,  // measure 42
1001
0010
0010
0100
1001
0000
1200
0000
,  // measure 43
0000
0000
0000
0300
1200
0000
0000
0000
0010
0000
0000
0000
2300
0000
0000
3000
,  // measure 44
1001
0000
1001
0000
0001
0100
0010
0000
0010
0000
0010
0000
0010
0000
1000
0000
,  // measure 45
1000
0000
0001
0010
0100
0000
0100
0000
0100
0000
0100
0000
2000
0000
0000
0000
,  // measure 46
3010
0000
00M0
0000
0001
0100
0001
0010
0001
0000
0000
0000
2010
0000
0000
0000
,  // measure 47
0000
0000
0000
3000
2010
0000
0000
0000
0001
0000
0000
0000
3200
0000
0000
0300
,  // measure 48
0110
0000
0110
0000
0010
0001
1000
0000
1000
0000
1000
0000
1000
0000
0010
0000
,  // measure 49
0010
0000
0100
0001
1000
0000
1000
0000
0100
0000
0000
0000
0000
0000
0000
0000
,  // measure 50
2001
0000
3040
0000
0130
0001
1000
0000
0100
0000
0000
0000
1000
0001
1000
0001
,  // measure 51
0200
0000
0000
0000
0302
0000
0000
0000
0203
0000
0000
0000
0320
0000
0000
0030
,  // measure 52
1010
0000
1010
0000
1000
0001
0010
0000
0010
0000
0010
0000
0010
0000
0100
0000
,  // measure 53
0100
0000
1000
0001
0100
0000
0100
0000
0001
0000
0001
0000
0020
0000
0000
0030
,  // measure 54
0110
0000
0000
0000
0000
0000
0100
0000
0000
0000
0000
0000
1000
0000
0000
0001
0000
0000
0100
0000
0000
0010
0000
0000
1000
0000
0000
0000
0000
0000
0000
0000
0000
0000
0000
0000
0001
0000
0000
0000
0010
0000
0100
0000
0000
0000
0000
0000
,  // measure 55
1000
0001
1000
0010
1000
0001
0010
0100
,  // measure 56
1100
0000
1100
0000
1000
0001
0100
0000
0100
0000
0100
0000
0100
0000
0010
0000
,  // measure 57
0010
0000
1000
0001
0010
0000
0010
0000
0100
0000
0000
0000
0000
0000
0000
0000
,  // measure 58
1100
0000
0000
1000
0001
0000
0000
0000
0101
0000
0000
0101
0000
0000
0101
0000
,  // measure 59
0101
0000
0000
0001
1000
0000
0001
0000
1000
0100
0010
0001
0200
0000
0010
0300
,  // measure 60
0010
0000
0000
1000
0001
0000
0000
0000
0011
0000
0000
0011
0000
0000
0011
0000
,  // measure 61
0011
0000
0000
0001
1000
0000
0001
0000
0001
0000
0010
0000
0001
0100
0010
0000
,  // measure 62
1010
0000
0000
0001
0010
0000
0000
0000
0110
0000
0000
0110
0000
0000
0110
0000
,  // measure 63
0110
0000
0000
0100
1000
0000
0100
0000
0010
0000
0001
0000
0200
0000
0010
0300
,  // measure 64
0010
0000
0000
1000
0001
0000
0000
0000
0101
0000
0000
0101
0000
0000
0101
0000
,  // measure 65
0001
2000
0000
3001
0020
0000
0000
0000
0130
0000
0100
0000
1000
0001
1000
0001
;

//---------------dance-single - Feraligatr----------------
#NOTES:
     dance-single:
     Feraligatr SM:
     Medium:
     7:
     0.483230,0.487364,0.208696,0.339130,0.065217,389.000000,365.000000,24.000000,39.000000,0.000000,0.000000,0.483230,0.487364,0.208696,0.339130,0.065217,389.000000,365.000000,24.000000,39.000000,0.000000,0.000000:
0000
0000
0000
0000
,
0000
0000
0000
0000
,
2001
0000
0000
0000
0000
3020
0000
0130
,
0002
0000
0000
0000
1003
0100
0010
0000
,
0012
0000
0000
0000
0000
2003
0000
3010
,
0100
0000
0001
0100
0000
0001
0100
0010
,
2010
0000
0000
0000
0000
3002
0000
0013
,
0200
0000
0000
0000
1300
0001
0100
0000
,
0120
0000
0000
0000
0000
2030
0000
3001
,
0010
0010
0100
0100
1000
0001
0100
0010
,
2010
3001
0012
1003
,
2010
3001
0012
1003
,
2100
3001
0102
1003
,
2100
3001
0102
4003
,
3001
0100
0001
0100
0010
1000
0010
1000
,
0001
0010
0001
0010
0100
1000
0100
1000
,
0004
0403
0340
4030
,
3001
0000
0001
0000
0001
1000
0100
0010
,
0011
0000
1000
0001
0100
0001
0100
0010
,
0010
1000
0001
0010
0100
1000
0020
0000
,
0130
0000
0001
1000
0100
1000
0100
0010
,
0001
0000
0000
0001
0000
0000
0001
0000
1000
0000
0001
0000
0100
0000
0010
0000
,
1010
0000
1000
0001
0010
0001
0010
0100
,
0100
1000
0001
0100
0010
1000
0200
0000
,
0310
0001
1000
0010
1000
0100
0020
0000
,
0031
1000
0010
0100
0001
1000
0001
0010
,
0110
0000
0100
1000
0001
1000
0001
0100
,
0100
0010
1000
0001
0010
0001
0200
0000
,
0310
0000
1000
0001
0010
0001
0010
0100
,
1000
0000
0000
1000
0000
0000
1000
0000
0001
0000
1000
0000
0040
0000
0000
0000
,
0130
0000
0001
1000
0100
1000
0100
0010
,
0010
0001
1000
0010
0100
0001
0020
0000
,
0230
0000
0000
0000
0000
2300
0000
3001
,
0100
0100
0100
0100
,
0100
0000
0010
0000
1000
0001
1000
0000
,
0100
0000
0010
0000
0001
1000
0001
0000
,
0100
0000
0010
0000
1000
0001
1000
0000
,
0100
0000
0010
0000
0001
1000
0040
0000
,
0130
0001
0100
0001
1000
0100
1000
0100
,
0010
0001
0010
0001
1000
0010
1000
0010
,
0400
0304
4003
3400
,
0300
0000
0000
0000
,
1001
0010
0010
0100
1001
0000
0201
0000
,
0000
0000
0000
0300
0201
0000
0000
0000
0000
0000
0000
0000
0320
0000
0000
0000
,
1030
1000
0001
0010
0100
0010
0100
1000
,
1000
0001
0100
0010
0100
0010
2000
0000
,
3100
0040
0031
1002
,
0000
0000
0000
0003
1002
0000
0000
0000
0000
0000
0000
0000
0203
0000
0000
0000
,
0310
0010
1000
0001
0010
0001
0010
0100
,
0100
1000
0001
0100
0010
0000
0000
0000
,
1010
4000
3400
0310
0000
0000
0004
0000
,
2003
3020
2030
3002
,
0013
0010
0100
1000
0001
1000
0001
0100
,
0100
0010
0100
0001
0010
0001
0200
0000
,
0310
4000
0000
0000
3001
0000
1000
0100
,
0010
0001
0010
0001
0010
0001
1000
0010
,
0100
0100
0001
1000
0100
1000
0100
0010
,
0010
0001
1000
0010
0100
0000
0000
0000
,
1010
0000
0000
1000
0001
0000
0000
0000
0010
0000
0000
0100
0000
0000
0010
0000
,
0100
0000
0000
1000
0001
0000
0100
0000
0010
0000
1000
0000
0200
0000
0000
0000
,
0310
0000
0000
0001
1000
0000
0000
0000
0010
0000
0000
0100
0000
0000
0010
0000
,
1000
0000
0000
0001
0000
0000
1000
0000
0010
0000
0100
0000
0001
0000
0010
0000
,
0110
0000
0000
0100
1000
0000
0000
0000
0001
0000
0000
0100
0000
0000
0001
0000
,
0100
0000
0000
0010
1000
0000
0001
0000
0010
0000
0001
0000
0200
0000
0000
0000
,
0310
0000
0000
1000
0001
0000
0000
0000
0010
0000
0000
0100
0000
0000
0010
0000
,
0001
1000
0000
1000
0010
0000
0000
0000
0100
0000
0001
0000
4000
0000
0000
3000
;

//---------------dance-single - Feraligatr----------------
#NOTES:
     dance-single:
     Feraligatr SE:
     Easy:
     5:
     0.321739,0.372690,0.104348,0.182609,0.000000,259.000000,247.000000,12.000000,21.000000,0.000000,0.000000,0.321739,0.372690,0.104348,0.182609,0.000000,259.000000,247.000000,12.000000,21.000000,0.000000,0.000000:
0000
0000
0000
0000
,
0000
0000
0000
0000
,
1001
0000
0000
0001
,
0010
0000
0000
0000
,
1100
0000
0000
1000
,
0001
0000
0000
0000
,
0101
0000
0000
0100
,
0010
0000
0000
0000
,
1010
0000
0000
1000
,
0001
0000
0001
0000
0010
0000
0100
0010
,
0002
0103
0002
1003
,
0002
0013
0002
1003
,
2000
3100
2000
3001
,
2000
3010
2000
3001
,
1000
0010
0100
0001
,
1000
0100
0010
0001
,
1000
0010
1000
0010
0100
0001
0100
0001
,
1000
0000
0000
0000
,
1001
0000
1000
0000
0100
0000
1000
0001
,
0001
0100
0010
2000
,
3001
0000
0010
0000
0100
0000
1000
0001
,
0001
0000
0100
0000
0001
0000
1000
0010
,
0100
0000
0001
0000
0010
0000
0100
1000
,
1000
0001
0100
0020
,
1030
1000
0100
0100
,
0010
0010
0001
0001
,
1000
0000
0010
0000
0100
0000
0001
1000
,
1000
0100
1000
0020
,
0130
0000
0001
0000
1000
0000
0100
0010
,
0010
0001
1000
0001
,
0100
0000
0010
0000
1000
0000
0001
0010
,
0010
0100
1000
0020
,
0130
0000
0000
0001
,
1000
1000
1000
1000
,
1000
0100
0010
0001
,
1000
0010
0100
0001
,
1000
0100
1000
0001
,
0100
0010
1000
0100
,
1000
0010
0100
0001
,
1000
0100
0010
0001
,
1000
0010
1000
0010
0100
0001
0100
0001
,
1000
0000
0000
0000
,
1001
0000
0010
1001
,
0000
1001
0000
1000
,
0010
0010
0100
0000
0001
0000
1000
0100
,
0100
0010
0001
0200
,
0310
2000
3001
0011
,
0000
0011
0000
0001
,
1000
1000
0010
0000
0100
0000
0001
1000
,
1000
0100
0010
0000
,
0001
2000
3010
1000
,
0001
0010
0001
0200
,
0310
0010
1000
0000
0001
0000
0010
0100
,
0100
1000
0001
0020
,
0130
2000
3001
0100
,
0010
1000
0010
0100
,
0001
0001
1000
0000
0100
0000
0010
0000
,
0100
1000
0001
0000
,
0101
0000
0001
0000
1000
0000
0000
0010
,
1000
0000
0001
0010
0100
0000
2000
0000
,
3010
0000
0100
0000
0001
0000
0000
1000
,
0100
0010
0000
0000
,
0011
0000
0001
0000
1000
0000
0000
0010
,
0100
0001
1000
0200
,
0310
0000
0001
0000
1000
0000
0000
0010
,
0100
0000
0000
0000
0001
0000
0000
0000
1000
0000
1000
0000
0002
0000
0000
0003
;

//---------------dance-single - Feraligatr----------------
#NOTES:
     dance-single:
     Feraligatr SN:
     Beginner:
     2:
     0.166460,0.286685,0.173913,0.078261,0.000000,134.000000,114.000000,20.000000,9.000000,0.000000,0.000000,0.166460,0.286685,0.173913,0.078261,0.000000,134.000000,114.000000,20.000000,9.000000,0.000000,0.000000:
0000
0000
0000
0000
,
0000
0000
0000
0000
,
1001
0000
0000
0000
,
0001
0000
0000
0000
,
0110
0000
0000
0000
,
0100
0000
0000
0000
,
1001
0000
0000
0000
,
1000
0000
0000
0000
,
0110
0000
0000
0000
,
0010
0000
0000
0000
,
1001
0000
0110
0000
,
1001
0000
0110
0000
,
1001
0000
0110
0000
,
1001
0000
0110
0000
,
1000
0000
0010
0000
,
0100
0000
0001
0000
,
0020
0000
0000
0000
,
0130
0000
0000
0000
,
1001
0000
1000
0000
,
0010
0000
0100
0002
,
1003
0000
0100
0000
,
0010
0000
0001
0000
,
1000
0000
0010
0000
,
0100
0000
0001
2000
,
3100
0000
0100
0000
,
0010
0000
0010
0000
,
1001
0000
1000
0000
,
0010
0000
0100
0002
,
0013
0000
0100
0000
,
1000
0000
0001
0000
,
0100
0000
0010
0000
,
1000
0000
0001
0020
,
0130
0000
0000
0000
,
0000
0000
0000
0000
,
1000
0000
0001
0000
,
0100
0000
0001
0000
,
1000
0000
0100
0000
,
0010
0000
0001
0000
,
1000
0000
0010
0000
,
0100
0000
0001
0000
,
0020
0000
0000
0000
,
0030
0000
0000
0000
,
0110
0000
0000
1001
,
0000
0000
1000
0000
,
0001
0000
0100
0000
,
0010
0000
1000
0002
,
0013
0000
0100
0000
,
1000
0000
0001
0000
,
0100
0000
0010
0000
,
0100
0000
0001
0000
,
1000
0000
0100
0000
,
0010
0000
0001
0000
,
1000
0000
0010
0000
,
0100
0000
0001
2000
,
3100
0000
0010
0000
,
0100
0000
1000
0000
,
0001
0000
0100
0000
,
0010
0000
1000
0000
,
1001
0000
0000
0000
,
0010
0000
0100
0000
,
0110
0000
0000
0000
,
1000
0000
0000
0000
,
1001
0000
0000
0000
,
0010
0000
0100
0000
,
0110
0000
0001
0000
,
1000
0000
0000
0000
0000
0000
0000
0000
0001
0000
0000
0000
0002
0000
0000
0003
;
