#VERSION:0.81;
#TITLE:south;
#SUBTITLE:;
#ARTIST:Wall5;
#TITLETRANSLIT:;
#SUBTITLETRANSLIT:;
#ARTISTTRANSLIT:;
#GENRE:;
#ORIGIN:;
#CREDIT:;
#BANNER:south.png;
#BACKGROUND:south-bg.png;
#PREVIEWVID:;
#JACKET:south-jacket.png;
#CDIMAGE:;
#DISCIMAGE:;
#LYRICSPATH:;
#CDTITLE:./CDTitles/DanceDanceRevolution 2013.png;
#MUSIC:south.ogg;
#OFFSET:0.000;
#SAMPLESTART:28.930;
#SAMPLELENGTH:15.000;
#SELECTABLE:YES;
#DISPLAYBPM:140.000;
#BPMS:0.000=140.000;
#STOPS:;
#DELAYS:;
#WARPS:;
#TIMESIGNATURES:0.000=4=4;
#TICKCOUNTS:0.000=4;
#COMBOS:0.000=1;
#SPEEDS:0.000=1.000=0.000=0;
#SCROLLS:0.000=1.000;
#FAKES:;
#LABELS:0.000=Song Start;
#BGCHANGES:;
#KEYSOUNDS:;
#ATTACKS:
;

//---------------dance-double - ----------------
#NOTEDATA:;
#CHARTNAME:;
#STEPSTYPE:dance-double;
#DESCRIPTION:;
#CHARTSTYLE:;
#DIFFICULTY:Easy;
#METER:5;
#RADARVALUES:0.237,0.254,0.188,0.020,0.000,147.000,19.000,2.000,0.000,0.000,0.000,0.000,0.000,0.237,0.254,0.188,0.020,0.000,147.000,19.000,2.000,0.000,0.000,0.000,0.000,0.000;
#CREDIT:;
#DISPLAYBPM:140.000;
#NOTES:
00000000
00000000
00000000
00000000
,
00000000
00000000
00000000
00000000
,
00000000
00000000
00000000
00000000
,
00000000
00000000
00000000
00000000
,
00000000
00000000
00000000
00000000
,
10000000
00000000
10000000
00000000
,
00100000
00000000
00100000
00000000
,
01000000
00000000
00000000
00000000
00001000
00000000
00000000
00010000
,
00000000
00000000
00000000
00000010
,
00001000
00000100
00010000
00000100
,
00001000
00000010
00000100
00000000
,
00000001
00000100
00000001
00001000
,
00000100
00000000
00000000
00010000
,
00001000
01000000
00010000
00100000
,
00010000
01000000
00100000
00000000
,
10000000
01000000
10000000
00010000
,
10010000
00000000
00000000
00000000
,
10000000
01000000
10010000
00000000
,
00010000
00100000
10010000
00000000
,
01000000
00000000
00100000
00100000
,
00001000
00010000
00001000
00000000
,
00001000
00000100
00001001
00000000
,
00000001
00000010
00001001
00000000
,
00000100
00000000
00000010
00000010
,
00001000
00000010
00000100
00000110
,
00000001
00000001
00000001
00000000
,
00000001
00001000
00000100
00001000
,
00000010
00000010
00000010
00000000
,
00000010
00000100
00001000
00010000
,
01000000
01000000
01000000
00000000
,
01000000
10000000
00010000
01000000
,
10000000
10000000
10000000
00000000
,
10000000
00010000
00100000
00010000
,
10000000
10010000
00000000
00010000
,
01000000
00100000
01000000
01000000
,
00010000
10010000
00000000
10000000
,
01000000
00010000
00001000
00000100
,
00000001
00001001
00000000
00001000
,
00000010
00000100
00000010
00000010
,
00001000
00001001
00000000
00000110
,
00002002
00000000
00000000
00003003
,
00001001
00000000
00000000
00000000
,
00000000
00000000
00000000
00000000
,
00000000
00000000
00000000
00000000
,
00000000
00000000
00000000
00000000
,
00000010
00000000
00000100
00000000
,
00001000
00000000
00010000
00000000
,
01000000
00000000
10000000
00000000
,
00010000
00000000
10000000
10000000
,
10000000
00100000
10010000
00000000
,
00010000
01000000
10010000
00000000
,
00100000
00000000
01000000
01000000
,
00001000
00010000
00001000
00000000
,
00001000
00000010
00001001
00000000
,
00000001
00000100
00001001
00000000
,
00000010
00000000
00000100
00000100
,
00001000
00000100
00000010
00000110
,
00001001
00000000
00000000
00000000
;

//---------------dance-double - ----------------
#NOTEDATA:;
#CHARTNAME:;
#STEPSTYPE:dance-double;
#DESCRIPTION:;
#CHARTSTYLE:;
#DIFFICULTY:Medium;
#METER:8;
#RADARVALUES:0.347,0.338,0.178,0.168,0.025,211.000,18.000,17.000,0.000,0.000,0.000,0.000,0.000,0.347,0.338,0.178,0.168,0.025,211.000,18.000,17.000,0.000,0.000,0.000,0.000,0.000;
#CREDIT:;
#DISPLAYBPM:140.000;
#NOTES:
00000000
00000000
00000000
00000000
,
00000000
00000000
00000000
00000000
,
00000000
00000000
00000000
00000000
,
00000000
00000000
00000000
00000000
,
00000000
00000000
00000000
00000000
,
20000000
30100000
02000000
03000000
,
00020000
01030000
00002000
00003000
,
00010000
00000000
00001000
00000000
00000100
00000000
00000000
00000010
,
00000000
00000001
00001100
00000101
,
00000001
00000100
00000001
00000000
00001000
00000100
00001000
00000000
,
00000010
00010000
00000010
00000000
00010000
00000000
00001000
00000000
,
00100000
01000000
10000000
10000000
,
00010000
00000000
00000000
01100000
,
10000000
01000000
10000000
00000000
00010000
01000000
00010000
00000000
,
00100000
00001000
00100000
00000000
00001000
00000000
00010000
00000000
,
00000100
00000010
00000001
00000001
,
00001000
00000000
00000001
00000010
,
00000101
00000100
00001000
00010000
,
11000000
10000000
00100000
00010000
,
00011000
00000000
00000000
00000000
00000100
00000000
00000000
00000000
00010000
00000000
00000000
00001000
00000000
00000000
00100000
00000000
,
00000000
00100000
01000000
01100000
,
11000000
01000000
00010000
00001000
,
00000101
00000001
00000010
00001000
,
00011000
00000000
00000000
00000000
01000000
00000000
00000000
00000000
00001000
00000000
00000000
00010000
00000000
00000000
00000010
00000000
,
00000000
00000100
00000100
00001001
,
00000001
00000000
00000001
00000000
00000001
00000100
00000000
00000000
,
00000010
00000000
00010000
00000000
00000000
00000000
00000000
00000000
00001000
00000000
00000000
00010000
00000000
00000000
01000000
00000000
,
10000000
00000000
01000000
00000000
10000000
00100000
00000000
00000000
,
01000000
00001000
00000000
00000000
00010000
00000010
00010000
00000000
,
00000010
00000000
00000010
00000000
00000100
00000010
00000000
00000000
,
00010000
00000000
00001000
00000000
00000000
00000000
00000000
00000000
10000000
00000000
00000000
00100000
00000000
00000000
10000000
00000000
,
01000000
00000000
01000000
00000000
10000000
00100000
00000000
00000000
,
00010000
00001000
00000000
00000000
00000100
00000001
00000001
00000000
,
00000001
00000100
00000010
00000100
,
00000001
00000100
00001000
00000000
,
00010000
00001000
00100000
00001000
,
00100000
00010000
01000000
00100000
,
10000000
01000000
00100000
01000000
,
10000000
01000000
00010000
00000000
,
00001000
00010000
00000100
00001000
,
00000220
00000000
00000000
00000330
,
00000002
00000103
00000020
00000030
,
00020000
00030100
00002000
00003000
,
00000100
00000000
00010000
00000000
00001000
00000000
00000000
01000000
,
00000000
00010000
00010000
10000000
,
00100000
00000000
01000000
00100000
02000000
00000000
03000000
00000000
,
00001000
00000000
00100000
00001000
00200000
00000000
00300000
00000000
,
00001000
00000000
00000000
00000000
00010000
00000000
00000000
00000000
00001000
00000000
00000000
00000100
00000000
00000000
00000002
00000000
,
00000000
00001000
00000103
00000011
,
00000001
00000100
00000001
00000100
00001000
00010000
00001000
00010000
,
00001000
00200000
00320000
01030000
,
00100000
00000000
10000000
00000000
01010000
00000000
00000000
10010000
,
00000000
00100000
10000000
01000000
,
10000000
01000000
10000000
01000000
00010000
00001000
00010000
00001000
,
00000010
00000002
00000203
00000310
,
00000100
00000000
00000001
00000000
00001100
00000000
00000000
00001001
,
00000000
00000010
00000100
00001000
,
00011000
00000000
00000000
00000000
;

//---------------dance-double - ----------------
#NOTEDATA:;
#CHARTNAME:;
#STEPSTYPE:dance-double;
#DESCRIPTION:;
#CHARTSTYLE:;
#DIFFICULTY:Hard;
#METER:10;
#RADARVALUES:0.514,0.507,0.188,0.781,0.035,266.000,19.000,79.000,0.000,0.000,0.000,0.000,0.000,0.514,0.507,0.188,0.781,0.035,266.000,19.000,79.000,0.000,0.000,0.000,0.000,0.000;
#CREDIT:;
#DISPLAYBPM:140.000;
#NOTES:
00000000
00000000
00000000
00000000
,
00000000
00000000
00000000
00000000
,
00000000
00000000
00000000
00000000
,
00000000
00000000
00000000
00000000
,
00000000
00000000
00000000
00000000
,
20200000
30000000
02000000
00300000
,
00002000
03000000
00020000
00003000
,
00030020
00000000
00000000
00000000
00000230
00000000
00000000
00000000
00000301
00000000
00000000
00000010
00000000
00000000
00002000
00000000
,
00000000
00013000
00001000
00000000
00002000
00000000
00023000
00000000
,
00030020
00000200
00000030
00001300
00020000
00000200
00030000
00001300
,
00000002
00000020
00000000
00000033
00000000
00000100
00010000
00001000
,
00100000
00010000
00100000
01000000
20000000
00000000
30020000
00000000
,
01030000
00000000
00001000
00100000
01000000
00000000
02000000
00000000
,
03200000
00020000
00300000
10030000
02000000
00020000
03000000
00031000
,
00020000
00000200
00000000
00030300
00000000
00001000
00000100
00001000
,
00000010
00010000
00000010
00001000
00000200
00000000
00000320
00000000
,
00000032
00000000
00001000
00000000
00000103
00000000
00000001
00000010
,
00000002
00000000
00001003
00000010
00002000
00000000
00003010
00010000
,
00000020
00000000
00010030
00001000
00020000
00000000
00031000
00010000
,
00002000
00000000
00000000
00000000
00013000
00000000
00000100
00000000
00001000
00000000
00000000
00000100
00000000
00000000
00020000
00000000
,
00000000
00031000
00000000
00001000
00010000
00000000
00100000
10000000
,
00200000
00000000
01300000
00010000
02000000
00000000
03001000
01000000
,
00002000
00000000
00013000
00001000
00020000
00000000
00030010
00001000
,
00000020
00000000
00000000
00000000
00001030
00000000
00000100
00000000
00010000
00000000
00000000
00001000
00000000
00000000
00200000
00000000
,
00000000
00310000
00000000
01000000
00100000
00000000
10010000
00000000
,
01100000
00000000
00101000
00000000
00010000
00001000
00010000
00000100
,
00001000
00000100
00000001
00000000
00000100
00001000
00000010
00000000
,
00000110
00000000
00010010
00000000
00001000
00010000
00001000
01000000
,
00010000
01000000
00001000
00000000
00010000
00000010
00001000
00000000
,
00001100
00000000
00000101
00000000
00000100
00001000
00010000
01000000
,
10000000
00100000
00010000
00000000
00100000
10000000
01000000
00000000
,
01010000
00000000
11000000
00000000
01000000
00010000
00001000
00000100
,
00000001
00000010
00001000
00000000
00000010
00000001
00000100
00001000
,
00010000
00001000
00200000
00000000
00300000
00010000
10000000
01000000
,
00100000
00001000
00200000
00000000
00010000
00000000
00301000
00000000
,
00100000
00010000
20000000
00000000
30000000
00100000
10000000
00010000
,
00100000
00001000
00200000
00000000
00010000
00000000
00301000
00000000
,
00001000
00010000
00000200
00000000
00000300
00001000
00000010
00010000
,
00000010
00001000
00000020
00000000
00001000
00000000
00010030
00000000
,
00001000
00000100
00020000
00000000
00030000
00001000
00010000
00002000
,
00020000
00000000
00000000
00033000
,
00202000
00003000
00020000
00300000
,
20000000
00030000
00200000
30000000
,
02300000
00000000
00000000
00000000
00002000
00000000
03000000
00000000
00013000
00000000
00000000
00001000
00000000
00000000
00000020
00000000
,
00000000
00000031
00000000
00000100
00001000
00000000
00020000
00000000
,
00032000
00103000
00220000
00330000
,
02000000
03010000
00220000
00330000
,
02000000
00000000
00000000
00000000
23000000
00000000
00000000
00000000
30100000
00000000
00000000
00010000
00000000
00000000
00002000
00000000
,
00000000
00003010
00000000
00000001
00000100
00000000
00000010
00000100
,
00002000
00000000
00013000
00001000
00000020
00000000
00000031
00000100
,
00002000
00000000
00013000
00100000
20000000
00000000
31000000
00010000
,
00002000
00000000
00000000
00000000
00013000
00000000
00000010
00000000
00000100
00000000
00000000
00001010
00000000
00000000
00020010
00000000
,
00000000
00031000
00000000
00001000
00010000
00000000
01000000
00100000
,
20000000
00000000
30100000
00010000
20000000
00000000
30100000
00010000
,
00002000
00000000
00003100
00000001
00002000
00000000
00003100
00000001
,
00000200
00000000
00000000
00000000
00001300
00000000
00000010
00000000
00010000
00000000
00000000
00011000
00000000
00000000
02001000
00000000
,
00000000
03010000
00000000
00100000
01000000
00000000
10010000
00000000
,
01100000
00000000
00000000
00000000
;

//---------------dance-double - ----------------
#NOTEDATA:;
#CHARTNAME:;
#STEPSTYPE:dance-double;
#DESCRIPTION:;
#CHARTSTYLE:;
#DIFFICULTY:Challenge;
#METER:11;
#RADARVALUES:0.415,0.451,0.613,0.267,0.035,205.000,62.000,27.000,208.000,0.000,0.000,0.000,0.000,0.415,0.451,0.613,0.267,0.035,205.000,62.000,27.000,208.000,0.000,0.000,0.000,0.000;
#CREDIT:;
#DISPLAYBPM:140.000;
#NOTES:
00000000
00000000
00000000
00000000
,
00000000
00000000
00000000
00000000
,
00000000
00000000
00000000
00000000
,
00000000
00000000
00000000
00000000
,
00000000
00000000
00000000
00000000
,
10010000
00000000
00011000
00000000
,
00001001
00000000
00011000
00000000
,
10010000
00000000
00000000
00000000
01100000
00000000
00000000
00000000
00010000
00000000
00000000
00002000
00000000
00000000
00020000
00000000
,
00000000
00033000
00000000
01100000
,
10000000
MMMM0000
10000000
00000000
00010000
MMMM0000
00010000
00000000
,
00001000
00010000
00001000
00000000
00001000
0000MMMM
00001000
00000001
,
00000010
00000100
00001000
00000000
00000020
00000000
00020030
00000000
,
00032000
00003010
00000100
00001001
,
00000001
0000MMMM
00000001
00000000
00001000
0000MMMM
00001000
00000000
,
00010000
00001000
00010000
00000000
00010000
MMMM0000
00010000
10000000
,
01000000
00100000
00010000
00000000
02000000
00000000
03002000
00000000
,
00023000
01030000
00100000
10000000
,
10100000
01000000
MMMM1000
00101000
,
00011000
00000100
0001MMMM
00010010
,
00002000
00000000
00000000
00000000
00003020
00000000
00000000
00000000
00000130
00000000
00000000
00001000
00000000
00000000
00020000
00000000
,
00000000
00031000
00010010
00001010
,
00000011
00000100
0001MMMM
00010010
,
00011000
01000000
MMMM1000
00101000
,
00020000
00000000
00000000
00000000
00230000
00000000
00000000
00000000
01300000
00000000
00000000
00010000
00000000
00000000
00002000
00000000
,
00000000
00013000
00000100
00001010
,
00000110
00000000
00010010
00000000
MMMM0000
0000MMMM
MMMM0000
0000MMMM
,
00010000
01000000
10000000
00000000
01000000
00010000
00100000
00000000
,
01100000
00000000
00101000
00000000
0000MMMM
MMMM0000
0000MMMM
MMMM0000
,
00001000
00000100
00000001
00000000
00000100
00010000
00001000
00000000
,
01010000
00000000
11000000
00000000
0000MMMM
0000MMMM
MMMM0000
MMMM0000
,
00000001
00000010
00001000
00000000
00000010
00000001
00000100
00000000
,
00001100
00000000
00000101
00000000
MMMM0000
MMMM0000
0000MMMM
0000MMMM
,
10000000
00100000
00010000
00000000
00100000
10000000
01000000
00010000
,
00001000
00010000
00002000
00000000
00003000
00010000
00001000
01000000
,
00010000
00100000
01000000
00000000
10010000
00000000
01001000
00000000
,
00010000
00001000
00020000
00000000
00030000
00000100
00010000
00000100
,
00001000
00000010
00000100
00000000
00001010
00000000
00011000
00000000
,
00001000
0000MMMM
00002000
00000000
00003000
00010000
00001000
00100000
,
00010000
01000000
00100000
00000000
10100000
00000000
00101000
00000000
,
00010000
MMMM0000
00020000
00000000
00030000
00000100
00001000
00000020
,
00000200
00000000
00000000
00000330
,
00001001
00000000
MMMMMMMM
00000000
,
10010000
00000000
MMMMMMMM
00000000
,
00000010
00000000
00000000
00000000
00000100
00000000
00000000
00000000
00001000
00000000
00000000
00010000
00000000
00000000
00002000
00000000
,
00000000
00010000
00103000
00110000
,
10010000
00000000
00011000
00000000
,
00001001
00000000
00011000
00000000
,
10010000
00000000
00000000
00000000
01100000
00000000
00000000
00000000
01000000
00000000
00000000
00002000
00000000
00000000
00020000
00000000
,
00000000
00033000
00010100
00000110
,
00001010
0000MMMM
00010010
MMMM0000
0001MMMM
MMMM0000
00001100
0000MMMM
,
00011000
MMMM0000
01001000
0000MMMM
MMMM1000
0000MMMM
00110000
MMMM0000
,
02100000
00000000
00000000
00000000
23000000
00000000
00000000
00000000
30100000
00000000
00000000
00010000
00000000
00000000
00002000
00000000
,
00000000
00013000
01000000
01010000
,
10010000
MMMM0000
01001000
0000MMMM
MMMM1000
0000MMMM
00110000
0000MMMM
,
00011000
MMMM0000
00001001
0000MMMM
00011000
0000MMMM
MMMM1000
0000MMMM
,
10010000
00000000
00000000
00000000
01100000
00000000
00000000
00000000
00100000
00000000
00000000
00001000
00000000
00000000
00020000
00000000
,
00000000
00031000
00000010
00000110
,
00001001
00000000
00000000
00000000
;

//---------------dance-single - ----------------
#NOTEDATA:;
#CHARTNAME:;
#STEPSTYPE:dance-single;
#DESCRIPTION:;
#CHARTSTYLE:;
#DIFFICULTY:Beginner;
#METER:5;
#RADARVALUES:0.251,0.338,0.119,0.089,0.000,157.000,12.000,9.000,0.000,0.000,0.000,0.000,0.000,0.251,0.338,0.119,0.089,0.000,157.000,12.000,9.000,0.000,0.000,0.000,0.000,0.000;
#CREDIT:;
#DISPLAYBPM:140.000;
#NOTES:
0000
0000
0000
0000
,
0000
0000
0000
0000
,
0000
0000
0000
0000
,
0000
0000
0000
0000
,
0000
0000
0000
0000
,
1000
0000
0010
0000
,
0100
0000
0001
0000
,
1000
0000
0001
0000
,
1000
0000
0100
0100
,
0010
0010
0100
0100
,
0001
1000
0001
0000
,
1000
0100
1000
0100
,
0010
0001
0010
0000
,
0001
0001
1000
1000
,
0010
0100
0010
0000
,
0100
0001
0100
0001
,
1000
0010
1000
0000
,
0100
1000
0010
1000
,
0100
1000
0010
0000
,
1000
0001
0100
0000
,
0010
0010
0100
0001
,
0010
0001
0100
0001
,
0010
0001
0100
0000
,
0001
1000
0010
0000
,
0100
0010
0220
0330
,
0001
0001
1001
1001
,
0010
1000
0001
0100
,
1000
1000
1001
1001
,
0010
0100
0010
0000
,
0001
0010
1001
1001
,
0010
0001
0100
1000
,
1000
0010
1001
1001
,
0100
1000
0010
0001
,
2000
3000
0000
1000
,
0001
0100
0001
0001
,
0002
0003
0000
0001
,
1000
0100
1000
1000
,
0020
0030
0010
0100
,
0010
1000
0100
0100
,
0200
0300
0100
0010
,
2002
0000
0000
3003
,
1001
0000
0000
0000
,
0000
0000
0000
0000
,
0000
0000
0000
0000
,
0000
0000
0000
0000
,
0001
0000
1000
0000
,
0010
0000
0100
0000
,
0001
0000
0001
0000
,
2000
0000
0000
3000
,
0001
0010
0001
0100
,
0001
1000
0001
0010
,
0100
1000
0010
0000
,
0100
0100
0010
0010
,
1000
0010
1000
0100
,
1000
0001
1000
0010
,
0100
0001
0010
0000
,
0100
0100
0010
0100
,
1001
0000
0000
0000
;

//---------------dance-single - ----------------
#NOTEDATA:;
#CHARTNAME:;
#STEPSTYPE:dance-single;
#DESCRIPTION:;
#CHARTSTYLE:;
#DIFFICULTY:Easy;
#METER:8;
#RADARVALUES:0.339,0.338,0.129,0.158,0.000,211.000,13.000,16.000,0.000,0.000,0.000,0.000,0.000,0.339,0.338,0.129,0.158,0.000,211.000,13.000,16.000,0.000,0.000,0.000,0.000,0.000;
#CREDIT:;
#DISPLAYBPM:140.000;
#NOTES:
0000
0000
0000
0000
,
0000
0000
0000
0000
,
0000
0000
0000
0000
,
0000
0000
0000
0000
,
0000
0000
0000
0000
,
0002
0003
2000
3000
,
0020
0030
0200
0300
,
0001
0000
1000
0000
0010
0000
0000
0100
,
0000
0001
0100
0001
,
1000
0100
1000
0000
0001
0000
0001
0000
,
0001
0100
0001
0000
1000
0000
0010
0000
,
0100
0010
1000
0000
0001
0000
0001
0000
,
1000
0010
1000
0100
,
0010
0001
0010
0000
0100
0000
0100
0000
,
1000
0100
1000
0000
0010
0000
0100
0000
,
0001
0010
0100
0000
1000
0000
0001
0000
,
0100
0000
0010
0100
,
0001
0101
1000
1100
,
1000
0001
0100
0110
,
0001
0000
0100
0001
0100
0000
0000
0002
,
0000
0003
1000
1000
,
0001
0101
1000
1100
,
0001
1000
0010
0110
,
0001
0000
1000
0010
1000
0000
0000
0002
,
0000
0003
0100
0100
,
0001
0001
1000
1000
,
0001
0100
0001
0100
0010
0000
0010
0000
,
1000
1000
0001
0001
,
1000
0100
1000
0100
0010
0000
0010
0001
,
0100
0100
0010
0010
,
0100
0001
0100
0001
0010
0000
0010
0000
,
0100
0100
0010
0010
,
0100
1000
0100
1000
0010
0000
0110
0000
,
2000
3100
0010
0001
,
0010
0001
1000
1000
,
0002
0013
0100
1000
,
0100
1000
0001
0001
,
0020
0130
1000
0001
,
1000
0001
0010
0010
,
0200
0310
0001
1000
,
2002
0000
0000
3003
,
0020
0030
0200
0300
,
0002
0003
2000
3000
,
0001
0000
0010
0000
0100
0000
0000
0100
,
0000
1000
1000
0001
,
0100
0001
0100
0001
,
1000
0010
1000
0010
,
1000
0000
0001
0000
0100
0000
0000
0110
,
0000
0000
0010
0000
0100
0000
0001
0100
,
1000
0000
0100
0000
0001
0000
1000
0100
,
0001
0000
0100
0000
1000
0000
0001
0100
,
0001
0000
1000
0000
0010
0000
0000
0101
,
0000
0000
0010
0000
0001
0000
1000
0100
,
0001
0000
0100
0000
1000
0000
0001
0100
,
1000
0000
0100
0000
0001
0000
0010
0001
,
0010
0000
0100
0000
1000
0000
0000
0101
,
0000
1000
0010
0110
,
1001
0000
0000
0000
;

//---------------dance-single - ----------------
#NOTEDATA:;
#CHARTNAME:;
#STEPSTYPE:dance-single;
#DESCRIPTION:;
#CHARTSTYLE:;
#DIFFICULTY:Medium;
#METER:10;
#RADARVALUES:0.492,0.535,0.277,0.287,0.044,291.000,28.000,29.000,0.000,0.000,0.000,0.000,0.000,0.492,0.535,0.277,0.287,0.044,291.000,28.000,29.000,0.000,0.000,0.000,0.000,0.000;
#CREDIT:;
#DISPLAYBPM:140.000;
#NOTES:
0000
0000
0000
0000
,
0000
0000
0000
0000
,
0000
0000
0000
0000
,
0000
0000
0000
0000
,
0000
0000
0000
0000
,
0120
0000
0000
0000
0230
0000
0300
0010
,
2000
0000
3002
0003
,
0100
0000
0000
0000
0001
0000
0000
0000
1000
0000
0000
0010
0000
0000
2000
0000
,
0000
0000
3001
0101
,
0010
2000
0001
3000
0001
0200
0010
0300
,
0010
2000
0002
0000
3003
0001
0010
0100
,
1000
0001
0100
0000
1010
0000
0101
0000
,
1000
0000
0001
0100
0010
1000
0200
0000
,
0310
0002
1000
0003
0100
0020
1000
0030
,
1000
0200
0020
0000
0330
0001
0010
0100
,
1000
0001
0100
0000
0011
0000
1100
0000
,
1000
0100
0010
0001
0200
0000
0310
1000
,
0001
1000
1100
0000
1000
0001
0100
0000
,
0001
0100
0110
0000
1000
0010
0100
0000
,
0001
0000
0010
0000
0100
0000
1000
0000
0001
0000
0000
1000
0000
0000
0020
0000
,
0000
0130
0100
0010
0100
0000
0001
1000
,
0010
1000
1100
0000
1000
0001
0100
0000
,
0010
1000
0101
0000
0001
0010
0100
0000
,
1000
0000
0100
0000
0010
0000
0001
0000
1000
0000
0000
0001
0000
0000
0200
0000
,
0000
0010
0310
0100
0010
0000
1001
0000
,
1100
0000
1010
0000
0100
0001
0010
0100
,
1000
0000
0001
0000
0010
0000
0000
0000
0001
0000
0000
1000
0000
0000
0010
0000
,
1000
0000
1001
0000
0010
1000
0100
0010
,
0001
1000
0010
0000
0010
0200
0002
0303
,
0001
0000
1100
0000
0001
0001
1000
0100
,
0001
0000
0100
0000
1000
0000
0000
0000
0010
0000
0000
0100
0000
0000
0001
0000
,
1000
0000
0101
0000
1000
0001
0010
0100
,
0001
0100
1000
0000
1000
0001
0010
0100
,
1000
0010
1000
0000
0001
0000
0010
0001
,
1000
0010
0100
0000
0010
0000
0010
0000
,
1000
0010
1000
0000
0001
0000
0010
0001
,
1000
0010
0100
0000
0110
0000
1010
0000
,
1000
0010
1000
0000
0001
0100
0010
1000
,
0100
0001
0100
0000
1000
0000
0101
0000
,
1000
0010
1000
0000
0001
0100
0010
1000
,
0100
0000
0001
0100
1000
0010
0100
0001
,
2000
0000
0000
0000
3002
0000
0103
0001
,
2000
0000
0000
0000
3200
0000
0310
0100
,
1000
0000
0000
0000
0001
0000
0000
0000
0100
0000
0000
0001
0000
0000
2000
0000
,
0000
0000
0001
0000
3010
0000
0100
0001
,
1000
0000
0010
0000
0100
0000
0001
0010
,
0100
0000
1000
0000
0001
0000
0100
0010
,
1000
0000
0000
0000
0100
0000
0000
0000
0010
0000
0000
0100
0000
0000
2000
0000
,
0000
0000
3001
0101
,
1000
0100
0110
0000
0001
1000
0010
0000
,
0010
2000
0001
3001
0010
0100
1100
0000
,
0001
0000
0100
0000
0010
0000
1000
0000
0010
0000
0000
0100
0000
0000
0002
0000
,
0000
1003
1000
0010
0100
0001
0100
0000
,
1000
0001
0101
0000
1000
0100
0010
0000
,
0001
0020
0100
0130
1000
0001
0110
0000
,
0010
0000
1000
0000
0100
0000
1000
0000
0010
0000
0000
0011
0000
0000
1002
0000
,
0000
1003
0001
1000
0010
0000
0110
0000
,
1001
0000
0000
0000
;

//---------------dance-single - ----------------
#NOTEDATA:;
#CHARTNAME:;
#STEPSTYPE:dance-single;
#DESCRIPTION:;
#CHARTSTYLE:;
#DIFFICULTY:Hard;
#METER:10;
#RADARVALUES:0.480,0.479,0.771,0.218,0.044,240.000,78.000,22.000,208.000,0.000,0.000,0.000,0.000,0.480,0.479,0.771,0.218,0.044,240.000,78.000,22.000,208.000,0.000,0.000,0.000,0.000;
#CREDIT:;
#DISPLAYBPM:140.000;
#NOTES:
0000
0000
0000
0000
,
0000
0000
0000
0000
,
0000
0000
0000
0000
,
0000
0000
0000
0000
,
0000
0000
0000
0000
,
0220
0000
0330
MMMM
2200
0000
3300
MMMM
,
0202
0000
0303
MMMM
2002
0000
3003
MMMM
,
0100
0000
0000
0000
0010
0000
0000
0000
0100
0000
0000
0100
0000
0000
0100
0000
,
0000
0001
0001
0000
1100
0000
0101
0000
,
1000
MMMM
1000
0000
0001
MMMM
0001
0000
,
1000
MMMM
1000
0000
0001
MMMM
0001
1000
,
0100
0010
0001
0000
0110
0000
0110
0000
,
0001
0100
0001
1000
0100
1000
0010
0000
,
0010
MMMM
0001
0000
0010
MMMM
1000
0000
,
0010
MMMM
0001
0000
0010
MMMM
1000
0010
,
1000
0001
0100
0000
0110
0000
1001
0000
,
0220
0000
0330
MMMM
1010
0000
0011
0000
,
1001
0010
1001
0100
,
1010
0001
0101
1000
,
0010
0000
0000
0000
1000
0000
0001
0000
0100
0000
0000
0100
0000
0000
0010
0000
,
0000
1000
0001
0010
0100
0000
1000
0000
,
1100
0110
0101
1010
,
1001
0110
1100
0101
,
0100
0000
0000
0000
1000
0000
0001
0000
0100
0000
0000
0010
0000
0000
0010
0000
,
1000
0010
0100
0001
0100
0000
1010
0000
,
0101
MMMM
0101
MMMM
1010
MMMM
1010
MMMM
,
0001
0000
0100
0000
0001
0000
0000
0000
1100
0000
0000
0110
0000
0000
1100
0000
,
1100
MMMM
1100
MMMM
0011
MMMM
0011
MMMM
,
1000
0010
1000
0000
0101
0101
0000
1001
,
1001
MMMM
1001
MMMM
0110
MMMM
0110
MMMM
,
0010
0000
1000
0000
0010
0000
0000
0000
0110
0000
0000
1001
0000
0000
0110
0000
,
0110
MMMM
0110
MMMM
1001
MMMM
0011
MMMM
,
1000
0010
1000
0000
0001
0100
0001
1000
,
0001
0100
0001
0010
,
1001
MMMM
0110
0000
1000
0000
0100
0100
,
0100
0010
0001
0010
,
1100
MMMM
0101
0000
1000
0000
0001
0001
,
0001
0100
0001
0000
1000
0000
0010
0000
,
0100
0010
0100
0000
1000
MMMM
0001
0000
,
1000
0100
1000
0000
0001
0000
0010
0100
,
0010
0000
0000
0000
0001
0000
0001
2000
,
0200
0000
3300
MMMM
0202
0000
0303
MMMM
,
0022
0000
0033
MMMM
2020
0000
3030
MMMM
,
0100
0000
0000
0000
0010
0000
0000
0000
0001
0000
0000
0001
0000
0000
0001
0000
,
0000
1000
1000
0000
1100
0000
0010
0002
,
2000
0003
3000
0001
0100
0000
0100
0020
,
0200
0030
0300
0010
1000
0000
0001
0000
,
1000
0000
0000
0000
0001
0000
0010
0000
0100
0000
0000
0100
0000
0000
0100
0000
,
0000
0010
0010
0000
0101
0000
1100
0000
,
0110
MMMM
1010
MMMM
1001
MMMM
0101
MMMM
,
1100
MMMM
0101
MMMM
1100
MMMM
0101
MMMM
,
0010
0000
0000
0000
1000
0000
0100
0000
0010
0000
0000
0001
0000
0000
1000
0000
,
0000
0001
0100
0000
0010
1000
0100
0000
,
0101
MMMM
1100
MMMM
0101
MMMM
0011
MMMM
,
1010
MMMM
1100
MMMM
0101
MMMM
1100
MMMM
,
1000
0000
0000
0000
0010
0000
0100
0000
0001
0000
0000
1000
0000
0000
0001
0000
,
0000
1000
0010
0000
0100
0000
0010
0000
,
0110
0000
0000
0000
;

//---------------dance-single - ----------------
#NOTEDATA:;
#CHARTNAME:;
#STEPSTYPE:dance-single;
#DESCRIPTION:;
#CHARTSTYLE:;
#DIFFICULTY:Challenge;
#METER:14;
#RADARVALUES:0.681,0.774,0.742,0.732,0.376,333.000,75.000,74.000,0.000,0.000,0.000,0.000,0.000,0.681,0.774,0.742,0.732,0.376,333.000,75.000,74.000,0.000,0.000,0.000,0.000,0.000;
#CREDIT:mf32892;
#DISPLAYBPM:140.000;
#NOTES:
// measure 0
0000
0000
0000
0000
,  // measure 1
0000
0000
0000
0000
,  // measure 2
0000
0000
0000
0000
,  // measure 3
0000
0000
0000
0000
,  // measure 4
0000
0000
0000
0000
,  // measure 5
1000
0000
2000
0000
3000
0002
0000
0023
,  // measure 6
0000
0032
0000
0023
0000
0032
0000
0003
,  // measure 7
2000
0000
0000
0000
3100
0000
0010
0000
0001
0000
0000
1000
0000
0000
0020
0000
,  // measure 8
0000
0000
0100
2030
,  // measure 9
3001
0010
0002
0000
0000
0000
0000
0000
1003
0010
2000
0000
0000
0000
0000
0000
,  // measure 10
3010
0100
0020
0000
0000
0000
0000
0000
0000
0000
1030
0100
1000
0100
1000
0100
,  // measure 11
1000
0010
0100
0001
0002
0000
2003
0000
,  // measure 12
0200
0000
3000
0320
,  // measure 13
0031
0010
0002
0000
0000
0000
0000
0000
1003
0010
2000
0000
0000
0000
0000
0000
,  // measure 14
3100
0010
0200
0000
0000
0000
0000
0000
0000
0000
0310
0001
0010
0001
0010
0001
,  // measure 15
0010
0100
1000
0010
2000
0000
3002
0000
,  // measure 16
0200
0003
1000
0302
,  // measure 17
0013
0001
0020
0000
0100
0000
0000
0000
0031
0100
0002
0000
1000
0000
0000
0000
,  // measure 18
0103
0010
0200
0000
0010
0000
0000
0000
0301
0000
1000
0100
1000
0100
0010
0100
,  // measure 19
0010
0000
0001
0000
0100
0000
0010
0000
1000
0000
0000
0001
0000
0000
0200
0000
,  // measure 20
0000
1000
0010
0302
,  // measure 21
1003
0001
2000
0000
0010
0000
0000
0000
3001
0010
0002
0000
1000
0000
0000
0000
,  // measure 22
0103
0010
0200
0000
1000
0000
0000
0000
0301
0000
0010
0001
0010
0001
0010
0100
,  // measure 23
0010
0000
0100
0000
1000
0000
0010
0000
0100
0000
0000
0001
0000
0000
2000
0000
,  // measure 24
0000
0010
3010
0000
0100
0000
0101
0000
,  // measure 25
1100
0000
0000
0000
1100
0000
0000
0000
1010
0000
0000
1010
0000
0000
1010
0000
,  // measure 26
1001
0000
1001
0000
1001
0000
0000
0000
0011
0000
0000
0011
0000
0000
0011
0000
,  // measure 27
0101
0000
0000
0000
0101
0000
0000
0000
1010
0000
0000
1001
0000
0000
0101
0000
,  // measure 28
1100
1100
1100
0000
1010
1001
0000
0011
,  // measure 29
1001
0000
0000
0000
1001
0000
0000
0000
0011
0000
0000
0110
0000
0000
1100
0000
,  // measure 30
1001
0000
1001
0000
1001
0000
0000
0000
1010
0000
0000
1001
0000
0000
0101
0000
,  // measure 31
1100
0000
0000
0000
1100
0000
0000
0000
0011
0000
0000
0101
0000
0000
0110
0000
,  // measure 32
1010
0000
1010
0000
1010
0000
0000
0000
1001
0000
1001
0000
1000
0001
1000
0001
,  // measure 33
1000
0100
0010
0100
2000
0000
0000
0000
3001
0000
1000
0100
0010
0100
1000
0001
,  // measure 34
0010
0100
0010
0001
2000
0000
0000
0000
3020
0000
0000
0000
0230
0000
0000
0000
,  // measure 35
0301
0100
0010
0100
0002
0000
0000
0000
0010
0000
1003
0100
0010
0001
1000
0100
,  // measure 36
0010
0100
1000
0001
0020
0000
0000
0000
0230
0000
0000
0000
2300
0000
0000
0000
,  // measure 37
3010
1000
0100
0010
0002
0000
0000
0000
0103
0000
0010
1000
0100
0010
0100
1000
,  // measure 38
0001
0010
0100
0010
0002
0000
0000
0000
0203
0000
0000
0000
0320
0000
0000
0000
,  // measure 39
1030
0100
0010
0001
0020
0000
0000
0000
0130
0000
1000
0100
0010
0001
1000
0100
,  // measure 40
0020
0000
0000
0000
0002
0000
0000
0033
,  // measure 41
1100
0000
2002
0000
3003
0011
0000
1010
,  // measure 42
0000
0011
0000
1010
0000
0022
0000
0033
,  // measure 43
0110
0000
0220
0000
0330
0101
0000
0011
,  // measure 44
0000
0022
0000
0033
1100
0000
0101
0000
,  // measure 45
0011
0000
2002
0000
3003
0101
0000
1100
,  // measure 46
0000
0101
0000
1100
0000
0202
0000
0303
,  // measure 47
0021
0000
0000
0000
0130
0000
1000
0000
0010
0000
0000
0100
0000
0000
2002
0000
,  // measure 48
0000
0000
0000
0000
0000
3003
0002
0000
,  // measure 49
1003
0010
0200
0000
0010
0000
0310
0000
1000
0001
0020
0000
0100
0000
0130
0000
,  // measure 50
0010
0001
2000
0000
0010
0000
3010
0000
0100
0000
0001
0100
0010
1000
0100
0010
,  // measure 51
0001
0000
0100
0000
0010
0000
1000
0000
1100
0000
0000
1010
0000
0000
2001
0000
,  // measure 52
0000
0010
0100
3200
,  // measure 53
1300
0010
0200
0000
0001
0000
0301
0000
0010
0100
2000
0000
0010
0000
3010
0000
,  // measure 54
0100
0001
0020
0000
0100
0000
0130
0000
1000
0000
0100
0010
0001
0100
0010
1000
,  // measure 55
0100
0000
0010
0000
0001
0000
0100
0000
0110
0000
0000
1010
0000
0000
2001
0000
,  // measure 56
0000
0010
3010
0000
0100
0000
0101
0000
,  // measure 57
2002
0000
0000
0000
,  // measure 58
3003
0000
0000
0000
;
