#TITLE:paranoIa survIvor stupIder;
#SUBTITLE:i think it should be even more ridiculous \:|;
#ARTIST:350 weeds to smoke;
#TITLETRANSLIT:;
#SUBTITLETRANSLIT:;
#ARTISTTRANSLIT:;
#GENRE:;
#CREDIT:;
#BANNER:paranoIa survIvor stpIder.jpg;
#BACKGROUND:paranoIa survIvor stupIder-bg.jpg;
#LYRICSPATH:;
#CDTITLE:;
#MUSIC:paranoIa survIvor stupIder.ogg;
#OFFSET:0.000000;
#SAMPLESTART:57.599998;
#SAMPLELENGTH:5.485714;
#SELECTABLE:YES;
#DISPLAYBPM:-420.000000:0.000000;
#BPMS:0.000000=350.000000
,88.000000=175.000000
,92.000000=350.000000
,148.000000=175.000000
,152.000000=350.000000
,174.000000=175.000000
,178.000000=350.000000
,313.000000=175.000000
,318.500000=350.000000
,374.500000=175.000000
,378.500000=350.000000
,425.125000=700.000000
,427.125000=350.000000
,435.000000=170.000000
,435.500000=700.000000
,436.000000=350.000000
,468.000000=375.000000
,500.000000=400.000000
,532.000000=420.000000
,564.000000=240.000000
,565.000000=120.000000
,565.500000=60.000000
,565.750000=20.000000
,565.875000=700.000000
;
#STOPS:418.000000=0.171000,
425.125000=0.171000
;
#BGCHANGES:;
#KEYSOUNDS:;
#ATTACKS:;

//---------------dance-single - ----------------
#NOTES:
     dance-single:
     :
     Challenge:
     1111:
     1.563910,2.088128,3.201958,0.039168,0.714810,1118.000000,791.000000,327.000000,4.000000,420.000000,0.000000,1.563910,2.088128,3.201958,0.039168,0.714810,1118.000000,791.000000,327.000000,4.000000,420.000000,0.000000:
// measure 0
0000
0000
0000
0000
,  // measure 1
0000
0000
0000
0000
,  // measure 2
0000
0000
0000
0000
,  // measure 3
0000
0000
0000
0000
,  // measure 4
0000
0000
0000
0000
,  // measure 5
0000
0000
0000
0000
,  // measure 6
0000
0000
0000
0000
,  // measure 7
0000
0000
0000
0000
,  // measure 8
1001
0100
0011
1000
0110
0001
0011
1000
,  // measure 9
0100
0010
0001
0010
0000
0100
1000
0000
,  // measure 10
0001
0010
1000
0001
0100
1000
0100
0001
,  // measure 11
0110
0000
1001
0000
0101
0010
1100
0000
,  // measure 12
0011
0100
0000
1100
0010
0000
0101
0010
,  // measure 13
0000
1010
0100
0010
0001
0100
0010
0001
,  // measure 14
0110
1001
0101
0012
,  // measure 15
1000
0100
0000
0000
0010
0100
0000
0000
1000
0010
0000
0000
0010
0100
0000
0003
,  // measure 16
1100
0010
0101
0010
1001
0100
0011
0100
,  // measure 17
1000
0010
0000
0010
1000
0100
0001
0100
,  // measure 18
1000
0010
0001
0100
0000
1000
0100
0000
,  // measure 19
0011
0110
1001
0101
,  // measure 20
0011
0100
1010
0100
0011
0010
1010
1000
,  // measure 21
1010
0100
0001
0000
0010
0100
0001
1000
,  // measure 22
0110
0000
0000
0000
1001
0000
0000
0000
0000
0011
0000
1100
0000
0011
0000
1100
,  // measure 23
0011
0100
1000
0010
0100
0001
0100
1000
,  // measure 24
0100
0001
0010
1000
0100
0001
0100
0000
,  // measure 25
1000
0010
0001
0100
0010
1000
0010
0001
,  // measure 26
0010
1000
0100
0001
0010
1000
0010
0001
,  // measure 27
1000
0010
0001
0100
0010
1000
0010
0001
,  // measure 28
0010
1000
0100
0001
0010
1000
0010
0000
,  // measure 29
0101
0000
0110
1001
0000
1001
0110
0000
,  // measure 30
1100
0011
0110
1010
,  // measure 31
0101
0010
1000
0100
0001
0010
1000
0000
,  // measure 32
0011
0100
1000
0010
0001
0100
1000
0000
,  // measure 33
1010
0100
0001
0010
1000
0100
0001
0000
,  // measure 34
1100
0010
0001
0100
1000
0010
0001
0000
,  // measure 35
1010
0100
0001
0010
1000
0100
0001
0000
,  // measure 36
1100
0010
0001
0100
1000
0010
0001
0000
,  // measure 37
1100
0011
1010
0101
0000
0000
0110
1001
0000
1001
0110
0000
0000
1001
0000
0000
,  // measure 38
1010
0100
0011
0000
0100
1000
1100
0000
,  // measure 39
0010
0001
0011
0000
0100
1000
0100
1000
,  // measure 40
1100
0000
0010
0001
0011
0000
0100
1000
,  // measure 41
1100
0000
0010
0001
0011
0000
0100
1000
,  // measure 42
0100
1000
1100
0000
0010
0001
0011
0000
,  // measure 43
0100
1000
1100
0000
0011
0000
1100
0000
,  // measure 44
0011
0000
1100
0000
0100
0001
0100
0001
,  // measure 45
0101
0000
0010
1000
0010
1000
1010
0000
,  // measure 46
0100
0001
0101
0000
0010
1000
1010
0000
,  // measure 47
0100
0001
0100
0001
0100
0001
0100
0001
,  // measure 48
0101
0000
0010
1000
1010
0000
0100
0001
,  // measure 49
0101
0000
0010
1000
1010
0000
0100
0001
,  // measure 50
0100
0001
0101
0000
0010
1000
1010
0000
,  // measure 51
0110
1000
1001
0100
0010
0100
0110
0000
,  // measure 52
0001
1000
1001
0010
0100
0010
0110
0000
,  // measure 53
1000
0001
1001
0010
0100
0010
0110
0000
,  // measure 54
1000
0001
1001
0100
0010
0100
0110
0000
,  // measure 55
0001
1000
1001
0100
0010
0100
0110
0000
,  // measure 56
0001
1000
1001
0010
0100
0010
0110
0000
,  // measure 57
1010
0100
1010
0100
1010
0000
0011
0100
,  // measure 58
0011
0100
0011
0000
1010
0001
1010
0001
,  // measure 59
1010
0000
1100
0001
1100
0001
1100
0000
,  // measure 60
1001
0010
1001
0010
1001
0000
0101
0010
,  // measure 61
0101
0010
0101
0000
1100
0011
1100
0011
,  // measure 62
1100
0011
1100
0011
1100
0011
2100
0000
,  // measure 63
0000
0000
0000
0000
,  // measure 64
0000
0000
3001
0000
,  // measure 65
0110
0001
0110
1000
0101
0010
1100
0001
,  // measure 66
0010
1000
0100
0001
0010
1000
0100
0000
,  // measure 67
0001
0010
1000
0010
0001
0100
1000
0000
,  // measure 68
0110
0000
1001
0000
0011
0000
1100
0001
,  // measure 69
0110
1000
0101
0010
0100
1000
0001
0100
,  // measure 70
1000
0000
0010
0001
0100
0000
0101
0000
,  // measure 71
1100
0110
1001
0101
,  // measure 72
0011
0000
0110
0000
1010
0000
1001
0100
,  // measure 73
1001
0010
0101
1000
0110
1000
0100
0001
,  // measure 74
0010
1000
0000
0000
0110
0000
1001
0000
,  // measure 75
0101
0010
1100
0000
0110
0001
1010
0000
,  // measure 76
0110
1001
0101
0011
,  // measure 77
1100
0010
0000
0101
0010
0000
1100
0001
,  // measure 78
0000
0000
0110
0000
1000
0000
0110
0000
0000
0000
0000
0001
0000
0100
0000
1000
,  // measure 79
0010
0001
0010
1000
0100
0001
0100
1000
,  // measure 80
0100
0001
0010
1000
0010
0001
0100
1000
,  // measure 81
0010
0000
0001
0000
0000
1000
0010
0001
,  // measure 82
0010
1000
0100
0001
0100
1000
0010
0001
,  // measure 83
0100
0000
1000
0000
0000
1000
0100
0010
,  // measure 84
1000
0100
0010
0001
0010
0100
0001
0010
,  // measure 85
0100
0000
0001
0000
0000
0001
0010
0100
,  // measure 86
0001
0010
0100
1000
0100
0010
1000
0100
,  // measure 87
0010
0000
1000
0000
0000
0010
1000
0100
,  // measure 88
0100
0001
0010
0010
0100
0010
0001
1000
,  // measure 89
1000
0000
1000
0000
0000
0100
0001
0010
,  // measure 90
0010
1000
0100
0100
0010
0100
1000
0001
,  // measure 91
0001
0000
0001
0000
0000
0100
0001
0010
,  // measure 92
0010
1000
0100
0100
0010
0100
1000
0001
,  // measure 93
0001
0000
0000
0000
0001
0000
0000
0000
0000
0000
1000
0001
0000
1000
0001
0000
,  // measure 94
1000
0001
0000
1000
0001
0000
1000
0001
1000
0001
1000
0000
0100
0000
0001
0000
,  // measure 95
0010
1000
0100
0001
0010
0100
0001
0010
,  // measure 96
0100
1000
0100
0001
0010
1000
0000
0110
,  // measure 97
0000
1001
0000
0101
0000
0000
0000
1000
,  // measure 98
0100
0001
0010
1000
0100
0001
0010
0100
,  // measure 99
1000
0010
0100
1000
0100
0010
0001
0110
,  // measure 100
0000
0000
0000
1001
0000
0000
0000
0101
,  // measure 101
0000
1010
0000
0110
0000
1001
0000
0110
,  // measure 102
0000
0000
0000
0000
0000
1000
0001
1000
,  // measure 103
0001
0000
0000
1000
0001
0000
1000
0001
,  // measure 104
0000
0000
0000
0000
1000
0000
0000
0000
0001
0000
0000
0000
1000
0000
0000
0000
0001
0100
0000
0000
0000
0010
0000
0000
0000
0100
0000
0000
0000
0010
0000
0000
,  // measure 105
0000
0000
0000
0000
0000
0100
0000
0000
0000
0010
0000
0000
0000
0000
0000
0000
0000
0100
0000
0000
0000
0010
0000
0000
0000
0000
0000
0000
0000
0100
0000
0000
,  // measure 106
0000
0010
0000
0000
0000
0100
0000
0000
0000
0010
0000
0000
0000
0000
0000
0000
0000
0000
0000
0000
0000
0000
0000
0000
0000
0000
0001
0000
0000
0000
1000
0000
,  // measure 107
0000
0001
0000
1000
0000
0000
0000
0001
0000
1000
0000
0000
0000
0001
0000
1000
,  // measure 108
0000
0000
0000
0001
0000
1000
0000
0001
0000
1000
0000
0000
0000
0000
0000
0000
,  // measure 109
1100
0011
0110
1010
,  // measure 110
0101
0000
0011
0000
1100
0000
0011
1100
,  // measure 111
0011
0110
1010
0110
,  // measure 112
0101
0000
1010
0000
1001
1001
1001
1001
,  // measure 113
0101
1010
0110
1100
,  // measure 114
0011
0000
1010
0000
0101
0000
1100
0011
,  // measure 115
1100
0101
0110
1010
,  // measure 116
0101
0000
1010
0000
0110
0110
0110
0110
,  // measure 117
0011
1100
0110
0101
,  // measure 118
1010
0000
1100
0000
0011
0000
1100
0011
,  // measure 119
1100
0110
0101
0110
,  // measure 120
1010
0000
0101
0000
1001
1001
1001
1001
,  // measure 121
1010
0101
0110
0011
,  // measure 122
1100
0000
0101
0000
1010
0000
0011
1100
,  // measure 123
0011
1010
0110
0101
,  // measure 124
1010
0000
0101
0000
0110
0110
0110
0110
,  // measure 125
0011
1100
0110
0101
,  // measure 126
1010
0000
1100
0000
0011
0000
1100
0011
,  // measure 127
1100
0110
0101
0110
,  // measure 128
1010
0000
0101
0000
1001
1001
1001
1001
,  // measure 129
1010
0101
0110
0011
,  // measure 130
1100
0000
0101
0000
1010
0000
0011
1100
,  // measure 131
0011
1010
0110
0101
,  // measure 132
1010
0000
0101
0000
0110
0110
0110
0110
,  // measure 133
1100
0011
0110
1010
,  // measure 134
0101
0000
0011
0000
1100
0000
0011
1100
,  // measure 135
0011
0110
1010
0110
,  // measure 136
0101
0000
1010
0000
1001
1001
1001
1001
,  // measure 137
0101
1010
0110
1100
,  // measure 138
0011
0000
1010
0000
0101
0000
1100
0011
,  // measure 139
1100
0101
0110
1010
,  // measure 140
0101
0000
1010
0000
0110
0110
0110
0110
,  // measure 141
0220
0000
0000
0000
0000
0000
0000
0000
0000
0000
0000
0000
0000
0000
0000
0000
0000
0000
0000
0000
0000
0000
0000
0000
0000
0000
0000
0000
0000
0000
0000
0000
0000
0000
0000
0000
0000
0000
0000
0000
0000
0000
0000
0000
0000
0000
0000
0000
0000
0000
0000
0000
0000
0000
0000
0000
0000
0000
0000
0000
0000
0000
0000
0000
0000
0000
0000
0000
0000
0000
0000
0000
0000
0000
0000
0000
0000
0000
0000
0000
0000
0000
0000
0000
0000
0000
0000
0000
0000
0000
0000
0000
0000
0000
0000
0000
0000
0000
0000
0000
0000
0000
0000
0000
0000
0000
0000
0000
0330
0000
0000
0000
0000
0000
0000
0000
0000
0000
0000
0000
MMMM
MMMM
MMMM
MMMM
MMMM
MMMM
MMMM
MMMM
MMMM
MMMM
MMMM
MMMM
MMMM
MMMM
MMMM
MMMM
MMMM
MMMM
MMMM
MMMM
MMMM
MMMM
MMMM
MMMM
MMMM
MMMM
MMMM
MMMM
MMMM
MMMM
MMMM
MMMM
MMMM
MMMM
MMMM
MMMM
MMMM
MMMM
MMMM
MMMM
MMMM
MMMM
MMMM
MMMM
MMMM
MMMM
MMMM
MMMM
MMMM
MMMM
MMMM
MMMM
MMMM
MMMM
MMMM
MMMM
MMMM
MMMM
MMMM
MMMM
MMMM
MMMM
MMMM
MMMM
MMMM
MMMM
MMMM
MMMM
MMMM
MMMM
MMMM
MMMM
,  // measure 142
MMMM
MMMM
MMMM
MMMM
MMMM
MMMM
MMMM
MMMM
MMMM
MMMM
MMMM
MMMM
MMMM
MMMM
MMMM
MMMM
MMMM
MMMM
MMMM
MMMM
MMMM
MMMM
MMMM
MMMM
MMMM
MMMM
MMMM
MMMM
MMMM
MMMM
MMMM
MMMM
MMMM
0000
0000
0000
0000
0000
0000
0000
0000
0000
0000
0000
0000
0000
0000
0000
0000
0000
0000
0000
0000
0000
0000
0000
0000
0000
0000
0000
0000
0000
0000
0000
0000
0000
0000
0000
0000
0000
0000
0000
0000
0000
0000
0000
0000
0000
0000
0000
0000
0000
0000
0000
0000
0000
0000
0000
0000
0000
0000
0000
0000
0000
0000
0000
0000
0000
0000
0000
0000
0000
0000
0000
0000
0000
0000
0000
0000
0000
0000
0000
0000
0000
0000
0000
0000
0000
0000
0000
0000
0000
0000
0000
0000
0000
0000
0000
0000
0000
0000
0000
0000
0000
0000
0000
0000
0000
0000
0000
0000
0000
0000
0000
0000
0000
0000
0000
0000
0000
0000
0000
0000
0000
0000
0000
0000
0000
0000
0000
0000
0000
0000
0000
0000
0000
0000
0000
0000
0000
0000
0000
0000
0000
0000
0000
0000
0000
0000
0000
0000
0000
0000
0000
0000
0000
0000
0000
0000
0000
0000
0000
;
