#TITLE:osaka EVOLVED -毎度、おおきに!- (TYPE1);
#SUBTITLE:;
#ARTIST:NAOKI underground;
#TITLETRANSLIT:osaka EVOLVED -MAIDO, OHKINI!- (TYPE1);
#SUBTITLETRANSLIT:;
#ARTISTTRANSLIT:;
#CREDIT:;
#BANNER:osaka EVOLVED -MAIDO, OHKINI!- (TYPE1).png;
#BACKGROUND:osaka EVOLVED -MAIDO, OHKINI!- (TYPE1)-bg.png;
#LYRICSPATH:;
#CDTITLE:./CDTITLES/DanceDanceRevolution HOTTEST PARTY 2.png;
#MUSIC:osaka EVOLVED -MAIDO, OHKINI!- (TYPE1).ogg;
#OFFSET:0.000;
#SAMPLESTART:4.820;
#SAMPLELENGTH:15.000;
#SELECTABLE:YES;
#DISPLAYBPM:50.000:300.000;
#BPMS:0.000=50.000,2.000=50.000,12.000=75.000,29.250=75.000,30.750=75.000,31.250=75.000,31.750=75.000,32.250=75.000,32.750=75.000,33.000=120.000,65.000=200.000,137.000=150.000,169.000=250.000,233.000=300.000;
#STOPS:29.250=0.400
,30.750=0.400
,31.250=0.400
,31.750=0.400
,32.250=0.400
,32.750=0.400
;
#BGCHANGES:;

//---------------dance-single - ----------------
#NOTES:
     dance-single:
     :
     Beginner:
     9:
     0.260,0.271,0.038,0.162,0.029:
0000
0000
0000
0000
,
0000
1000
0000
1000
,
0000
0001
0000
0001
,
0001
0000
0010
0010
,
1000
0000
0010
0010
,
1000
0010
0001
0001
,
1000
0100
0001
0001
,
0000
0000
0000
0000
0000
1000
0000
0000
0000
0000
0000
0001
0000
1000
0000
0001
,
0000
1000
0000
0001
1000
0000
0000
0000
0000
0000
0000
0000
1000
0000
0000
0000
,
0001
1000
0000
0001
,
1000
0001
0001
1000
,
1000
0100
1000
0001
,
0000
1000
0010
1000
,
0100
1000
0010
2000
,
3000
0001
0000
0001
,
1000
0010
0000
0010
,
0100
0001
0000
2000
,
3001
0000
0002
0103
,
0010
1000
0100
0001
,
0001
0100
0000
0020
,
0130
0000
0020
1030
,
0001
0010
1000
0100
,
0100
0001
0000
0020
,
1030
0000
0002
1003
,
0010
1000
0100
1000
,
1000
0001
0000
0100
,
0001
0000
1000
0010
,
0001
1000
0010
0000
,
1000
1001
0000
0000
,
0000
0001
1000
1001
,
0000
0000
0000
0000
,
0001
1001
0000
0000
,
0000
1000
0001
1001
,
0000
0000
0010
0000
,
0000
1000
0000
0000
,
0000
0001
0000
0100
,
1000
0002
0003
0020
,
0030
0020
0030
0020
,
0030
0001
0000
0020
,
0030
0200
0300
2000
,
3001
0010
0000
2000
,
3000
0200
0300
0001
,
1000
0100
0000
0010
,
0000
0100
0001
0010
,
0001
0100
0000
0001
,
0000
0100
0010
1000
,
1000
0001
0000
1000
,
0000
0001
0000
1000
,
0000
0010
0010
0001
,
0000
0100
1000
1000
,
0000
1000
0100
1000
,
0000
0000
1000
0100
,
0010
0001
0100
0001
,
0000
0000
0001
0100
,
0010
0100
0100
0000
,
0100
0100
0000
0100
,
0100
1000
0000
0001
,
0000
1000
0000
0001
,
0000
1000
0000
0001
,
0001
0000
1000
1000
,
0000
0001
0001
0000
,
1000
2000
0000
0000
,
0000
0000
0000
0000
,
0000
3000
0000
0000
,
;

//---------------dance-single - ----------------
#NOTES:
     dance-single:
     :
     Easy:
     11:
     0.409,0.452,0.143,0.219,0.029:
0000
0000
0000
0000
,
0000
0010
0000
0100
,
0000
1000
0000
0100
,
0001
1000
0010
0000
0001
0000
1000
0000
,
0100
0001
0010
0000
1000
1000
0001
0001
,
1000
0100
0010
0000
0001
0000
1000
0000
,
0001
0100
0010
0000
1000
0000
0001
0000
,
0010
0000
0000
0000
1000
1000
0000
0000
0000
0000
0001
0001
1000
1000
0010
0010
,
0100
0100
0010
0010
1000
0000
0000
0000
0100
0000
0000
0000
1000
0000
0000
0000
,
0001
0010
1000
0000
0100
0000
0001
0000
,
1000
0010
0001
0000
1100
0000
0001
0000
,
1100
0000
0100
0000
1000
0000
0001
0010
,
0100
1000
0011
1100
,
0101
0000
1000
0100
0010
0000
2000
0000
,
3000
0000
0001
0000
1000
0000
0001
0001
,
1000
1000
0010
0000
0001
0000
1000
1000
,
0100
0100
0001
0000
0100
0000
2000
0000
,
3001
0100
0002
0103
,
0010
0000
1000
0000
0100
0000
0001
0010
,
0001
0100
1000
0020
,
0130
0001
0020
0031
,
1000
0001
0010
0000
0001
0000
0100
0000
,
1010
0000
0100
0000
0010
1000
0020
0000
,
1030
0000
0001
0100
0002
0000
1003
0000
,
0010
0100
1000
0000
0100
0000
1000
0000
,
0001
1001
0010
0100
,
1001
0100
1000
0010
,
0001
0100
1000
0000
0010
0000
0001
0000
,
1000
1100
0010
0100
,
1000
0001
1000
0110
,
0001
1000
0100
1000
,
0001
1010
0100
1000
,
0001
0010
1000
0101
,
0010
1000
0100
0010
,
0001
2000
0000
0000
,
0000
0001
3002
0000
0000
0000
0103
0000
,
1010
0000
0002
0000
0003
0100
0020
0000
,
0030
0100
0020
0000
0030
0100
0020
0000
,
0130
0000
0001
0000
0000
0010
0020
0000
,
0030
0100
0200
0000
0300
1000
2000
0000
,
3001
0000
0110
0000
0000
0100
2000
0000
,
3000
0001
0200
0000
0310
0000
0001
0000
,
1000
0100
1000
0010
,
1000
0100
0001
0010
,
0001
0100
0010
0001
,
0001
0100
0010
1000
,
1000
0001
0010
1000
,
0010
0001
0100
1000
,
0100
0010
0010
0001
,
0001
0100
1000
1000
,
0001
0000
1000
0000
0100
1000
0100
0000
,
0000
0010
1000
0100
,
0010
0000
0001
0000
0100
0001
0100
0000
,
0000
0010
1000
0100
,
0010
0100
0100
0001
,
0100
0100
0010
0100
,
0100
1000
0010
0001
,
0100
1000
0010
0001
,
0100
1000
1000
0200
,
0301
0001
0200
1300
,
0100
0002
0103
0100
,
1000
2002
0000
0000
,
0000
0000
0000
0000
,
0000
3003
0000
0000
;

//---------------dance-single - ----------------
#NOTES:
     dance-single:
     :
     Medium:
     14:
     0.546,0.663,0.191,0.210,0.100:
0000
0000
0000
0000
,
0001
0001
0000
0100
0000
0010
1000
1000
0000
0010
0000
1000
,
0001
0001
0000
0010
0000
1000
0100
0100
0000
0010
0000
0100
,
0010
0001
0100
0000
1000
0100
0001
1000
,
0010
1000
0100
0000
0001
0100
1000
0100
,
0001
0000
0010
0000
0100
0000
0000
0000
1000
0100
1000
0000
0001
0100
0001
0000
,
1000
0000
0010
0000
0100
0000
0000
0000
0001
0010
0001
0000
1000
0010
1000
0000
,
0100
0000
0010
0000
0100
0001
0001
0000
0010
0000
0100
1000
0010
0001
0010
0100
,
0001
0010
1000
0100
0001
0000
0000
0000
0010
0000
0000
0000
0001
0000
0010
0000
,
1000
0100
0001
0000
0010
0000
1000
0010
,
0001
0100
1000
0010
0001
0000
1000
0100
,
0001
0000
0010
0100
0001
0100
1000
0100
,
0010
0000
0000
0000
0001
0000
0000
1000
0100
0000
0000
0001
0010
0000
0000
1000
,
0010
0100
0001
0010
0100
1000
0002
0000
,
0003
0000
1000
0100
0001
0100
1000
1000
,
0001
0001
0100
0010
1000
0010
0001
0100
,
1000
0010
1000
0000
0010
0100
0002
0000
,
1003
0000
0010
0100
2000
0000
3010
1000
,
0100
0000
0001
0000
0010
0100
1000
0100
,
0001
0000
0010
0000
0001
0010
0200
0000
,
0310
0000
1000
0010
0200
0000
1300
0000
,
0001
1000
0100
0001
1000
0000
1010
0000
,
0101
0000
0010
1000
0100
0001
0200
0000
,
0310
0001
0100
1000
0200
0000
0301
1000
,
0100
0010
0001
0000
0010
0000
0001
0000
,
1000
0000
0011
0000
0100
1000
0010
0000
,
0101
0000
0010
0100
0001
0000
0100
0010
,
1000
0010
0001
0000
1100
0000
1010
0000
,
0101
0000
0011
0000
0100
1000
0010
0000
,
0001
1100
1001
0110
,
1000
0010
0001
0000
1000
0100
0001
0100
,
1000
0000
0101
0000
0010
0100
0001
0000
,
0100
0101
1001
1010
,
0100
1000
0010
0000
0010
1000
0100
0001
,
1000
0002
0000
0000
,
0000
1003
2000
0000
0000
0010
3010
0000
,
0101
0000
2000
0000
3001
0010
0200
0000
,
1300
0010
0200
0000
0301
1000
0002
0000
,
1003
0000
0110
0000
0100
0010
0020
0000
,
1030
0100
0200
0000
1300
0001
0001
0000
,
1100
0000
0101
0000
1000
0010
0002
0000
,
0013
1000
0020
0000
0130
0000
1000
0000
,
0001
0000
0010
0000
0001
0000
0100
0001
,
0100
0000
0010
0000
1000
0000
0100
1000
,
0100
0000
0010
0000
0100
0000
1000
0001
,
1000
0000
0010
0000
0100
0000
0001
1000
,
0001
0000
1000
0100
1000
0000
0001
0010
,
0001
0000
1000
0010
1000
0000
0001
0100
,
0001
0000
0010
0100
1000
0010
0100
0000
,
0001
0100
0001
0001
,
1000
0000
0001
0000
0010
0001
0100
0000
,
0010
0100
0000
0010
1000
0001
0010
0000
,
0100
0000
1000
0000
0010
1000
0100
0000
,
0010
0100
0000
0010
0001
0100
0010
0000
,
0100
0000
0010
1000
0010
0000
0100
0000
,
0010
0001
0010
0000
0100
0000
0010
0100
,
0010
0000
0001
0100
1000
0000
0001
0010
,
1000
0000
0001
0100
1000
0000
0001
0010
,
1000
0000
0001
0000
0001
0100
0020
0000
,
1030
0000
1000
0100
0020
0000
0031
0000
,
0010
0100
2000
0000
3010
0000
0010
0100
,
0001
2002
0000
0000
,
0000
0000
0000
0000
,
0000
3003
0000
0000
;

//---------------dance-single - ----------------
#NOTES:
     dance-single:
     :
     Hard:
     15:
     0.704,0.874,0.381,0.295,0.205: // measure 1
0000
0000
0000
0000
,  // measure 2
1000
1100
0000
0100
0001
0010
0001
1100
0000
0010
0100
0001
,  // measure 3
1000
0110
0000
0010
0100
0001
1000
0101
0000
0010
0001
0100
,  // measure 4
0010
0000
1000
0000
1100
0000
0000
0000
0001
0000
0100
0000
1000
0100
0001
0000
,  // measure 5
0010
0000
0001
0000
0101
0000
0000
0000
1000
0100
0001
0000
0001
0100
1000
0000
,  // measure 6
1000
0000
0010
0000
0100
0001
0100
0000
0010
0100
0010
0001
0010
1000
0010
0000
,  // measure 7
0001
0000
0010
0000
0100
1000
0100
0000
0010
0100
0010
0001
0010
1000
0010
0000
,  // measure 8
0001
0000
0010
0000
0100
1100
1000
0000
0010
0000
0100
0101
0010
1100
0010
0101
,  // measure 9
1000
0110
0001
0110
1000
0000
0100
0000
0010
0000
0100
0000
1000
0000
0010
0000
,  // measure 10
0001
0100
1000
0100
0010
0100
0001
0010
,  // measure 11
1000
0100
0002
0013
2000
3010
0002
0103
,  // measure 12
2000
3100
0020
0130
2000
3100
0002
0103
,  // measure 13
0020
0000
0130
0000
1100
0000
0000
0001
0101
0000
0000
1000
1010
0000
0000
0001
,  // measure 14
0011
0100
1000
0010
0100
0001
2002
0000
,  // measure 15
3003
0000
0000
0000
0001
0000
0100
0000
1000
0000
0100
0000
0001
0010
0001
0000
,  // measure 16
1000
0010
1000
0000
0100
0000
0010
0000
0001
0000
0010
0000
1000
0000
0100
0000
,  // measure 17
0001
0010
0001
0100
0010
0100
0002
1000
,  // measure 18
1003
0100
0010
0100
2000
0010
3010
1000
,  // measure 19
0100
0010
0001
0100
0010
0100
1000
0100
,  // measure 20
0001
0100
0010
0001
1000
0010
0200
0010
,  // measure 21
0310
1000
0001
0010
0200
1000
1300
0010
,  // measure 22
0001
1000
0100
0001
1100
0000
1010
0000
,  // measure 23
0101
0000
0010
0001
0100
1000
0200
0010
,  // measure 24
0310
1000
0100
0001
0200
1000
1300
0001
,  // measure 25
0100
0010
1000
0100
0010
0100
1000
0010
,  // measure 26
0001
0100
1010
0000
0100
0001
0010
0000
,  // measure 27
1100
0000
0010
0100
1000
0001
0100
0010
,  // measure 28
0001
0010
1000
0100
0101
0000
0011
0000
,  // measure 29
1100
0000
1010
0000
0100
0001
0010
0100
,  // measure 30
1000
0010
0101
0000
1001
0000
0110
0000
,  // measure 31
0001
0010
1000
0010
0001
0100
1000
0100
,  // measure 32
0001
0010
1100
0000
0010
0100
1000
0010
,  // measure 33
0100
0001
1100
0000
1001
0000
0011
0000
,  // measure 34
0100
0001
0010
1000
0010
0001
0100
1000
,  // measure 35
0100
0001
2000
0000
0000
0000
0000
0000
,  // measure 36
0000
0000
3001
0100
0002
0000
0000
0000
0000
0000
0010
0000
0013
0000
0000
0000
,  // measure 37
1100
0000
0000
0000
0002
0000
0000
0000
1003
0000
0010
1000
0200
0000
0000
0000
,  // measure 38
1300
0000
0010
0001
0200
0000
0000
0000
0301
0000
1000
0100
0002
0000
0000
0000
,  // measure 39
1003
0000
0000
0000
0110
0000
0000
0000
0100
0000
0010
0001
0020
0000
0000
0000
,  // measure 40
0001
0000
0130
1000
0200
0000
0000
0000
0001
0000
1300
0010
1000
0000
0000
0000
,  // measure 41
0101
0000
0000
0000
1100
0000
0000
0000
0001
0000
0010
0100
2000
0000
0000
0000
,  // measure 42
0010
0000
3001
0100
0020
0000
0000
0000
0130
0000
0000
0000
0001
0000
0000
0000
,  // measure 43
1000
0000
0010
1000
0010
1000
0001
0100
,  // measure 44
0001
0000
0010
0001
0010
0001
1000
0100
,  // measure 45
1000
0000
0010
1000
0100
0010
0100
1000
,  // measure 46
0001
0000
0010
0001
0100
0010
0100
0001
,  // measure 47
1000
0100
0010
0000
0010
1000
0010
0000
,  // measure 48
0010
0001
0010
0000
0010
1000
0010
0000
,  // measure 49
0010
0001
0100
0001
1000
0100
0010
0100
,  // measure 50
1000
0010
0100
0010
1000
0001
1000
0100
,  // measure 51
0010
0000
1000
0100
0010
0001
0100
0000
,  // measure 52
0010
0001
0000
0010
1000
0100
0010
0001
,  // measure 53
0100
0010
1000
0100
0010
0001
0100
0000
,  // measure 54
0010
0001
0000
0010
1000
0100
0010
0001
,  // measure 55
0100
0010
0010
0001
0010
0000
1100
0000
,  // measure 56
0010
1000
0010
0000
0101
0000
0010
0100
,  // measure 57
0010
0000
1000
0100
0001
0100
1000
0010
,  // measure 58
0001
0010
1000
0100
0001
0100
1000
0010
,  // measure 59
0001
0010
1000
0100
1000
0100
0020
0000
,  // measure 60
0031
0100
0001
0100
0020
0000
1030
0100
,  // measure 61
0010
0100
2000
0000
3001
0100
0010
0100
,  // measure 62
0001
2002
0000
0000
,  // measure 63
0000
0000
0000
0000
,  // measure 64
0000
3003
0000
0000
;

//---------------dance-double - ----------------
#NOTES:
     dance-double:
     :
     Easy:
     11:
     0.372,0.452,0.076,0.315,0.000:
00000000
00000000
00000000
00000000
,
00000000
00001000
00000000
00100000
,
00000000
10000000
00000000
01000000
,
00001000
00100000
00001000
00000100
,
00000010
00000100
00000001
00000100
,
00001000
00010000
00001000
00000000
00100000
00000000
01000000
00000000
,
10000000
00010000
10000000
00000000
00100000
00000000
10000000
00000000
,
00010000
00000000
00000000
00000000
02000000
03000000
00000000
00000000
00000000
00000000
00020000
00030000
00200000
00300000
00002000
00003000
,
00020000
00030000
00000200
00000300
00001000
00000000
00000000
00000000
00000001
00000000
00000000
00000000
00000100
00000000
00000000
00000000
,
00000010
00000100
00000010
00001000
,
00000001
00000100
00001000
00010000
,
00001000
00000010
00001000
00010000
,
01000000
00100000
01000000
10000000
,
01000000
00000000
00010000
00001000
00010000
00000000
00022000
00000000
,
00033000
00000000
00000010
00000000
00000100
00000000
00001000
00001000
,
00010000
00000000
01000000
00000000
00100000
00000000
00010000
00010000
,
10000000
01000000
00100000
00002000
,
00013000
00000010
00002000
00003100
,
00000010
00000001
00000100
00001000
,
00001000
00000100
00000001
00000020
,
00000130
00010000
00002000
00013000
,
01000000
00100000
01000000
10000000
,
10000000
00010000
01000000
00200000
,
01300000
00001000
00020000
00031000
,
00010000
00000100
00000010
00000001
,
00000001
00001000
00000010
00000100
,
00000002
00000103
00001000
00020000
,
00031000
00100000
00010000
00100000
,
01000000
01100000
00000000
10000000
,
00010000
00100000
01000000
01100000
,
00000000
01000000
00010000
00001000
,
00010000
00011000
00000000
00000010
,
00001000
00000001
00000010
00000110
,
00000000
00000100
00000010
00000001
,
00000100
00002000
00000000
00000000
,
00000000
00010000
00023000
00000000
00000000
00000000
00031000
00000000
,
00011000
02000000
00000000
03200000
,
00300000
01000000
00200000
00000000
00300000
01000000
00200000
00000000
,
01300000
00000000
00010000
00000000
00000000
10000000
02000000
00000000
,
03000000
10000000
02000000
00000000
03000000
10000000
02000000
00000000
,
03100000
00000000
10010000
00000000
00000000
00100000
00002000
00000000
,
00003000
00010000
00000020
00000000
00000130
00000000
00000100
00000000
,
00000100
00000001
00000001
00000010
,
00000001
00001000
00001000
00000010
,
00000100
00000010
00000010
00000100
,
00001000
00010000
00010000
00001000
,
01000000
00010000
00010000
00100000
,
01000000
00100000
00100000
01000000
,
10000000
00010000
00010000
01000000
,
00001000
00010000
00010000
00000100
,
00000010
00000000
00000001
00000000
00000100
00000001
00000100
00000000
,
00000000
00000010
00000100
00000010
,
00010000
00000000
00001000
00000000
00010000
00001000
00010000
00000000
,
00000000
00001000
00010000
01000000
,
10000000
00100000
00100000
01000000
,
00100000
00100000
00010000
00000010
,
00000010
00000001
00000010
00000100
,
00001000
00010000
00100000
01000000
,
10000000
20000000
00000000
31000000
,
00200000
00000000
00310000
00002000
,
00000000
00013000
00000020
00000000
,
00000130
00002002
00000000
00000000
,
00000000
00000000
00000000
00000000
,
00000000
00003003
00000000
00000000
,
;

//---------------dance-double - ----------------
#NOTES:
     dance-double:
     :
     Medium:
     14:
     0.520,0.633,0.086,0.267,0.081:
00000000
00000000
00000000
00000000
,
00001000
00000000
00000000
00000000
00000000
00000000
00000000
00000000
00000000
00000000
00000000
00000000
00000000
00000000
00000000
00000000
00001000
00000000
00000000
00000000
00000000
00000000
00000000
00000000
00000000
00000000
00000000
00000000
00000000
00000000
00000000
00000000
00000000
00000000
00000000
00000000
00000000
00000000
00000000
00000000
00000000
00000000
00000000
00000000
00000000
00000000
00000000
00000000
00100000
00000000
00000000
00000000
00000000
00000000
00000000
00000000
00000000
00000000
00000000
00000000
00000000
00000000
00000000
00000000
00000000
00000000
00000000
00000000
00000000
00000000
00000000
00000000
00000000
00000000
00000000
00000000
00000000
00000000
00000000
00000000
01000000
00000000
00000000
00000000
00000000
00000000
00000000
00000000
00000000
00000000
00000000
00000000
00000000
00000000
00000000
00000000
10000000
00000000
00000000
00000000
00000000
00000000
00000000
00000000
00000000
00000000
00000000
00000000
00000000
00000000
00000000
00000000
10000000
00000000
00000000
00000000
00000000
00000000
00000000
00000000
00000000
00000000
00000000
00000000
00000000
00000000
00000000
00000000
00000000
00000000
00000000
00000000
00000000
00000000
00000000
00000000
00000000
00000000
00000000
00000000
00000000
00000000
00000000
00000000
00100000
00000000
00000000
00000000
00000000
00000000
00000000
00000000
00000000
00000000
00000000
00000000
00000000
00000000
00000000
00000000
00000000
00000000
00000000
00000000
00000000
00000000
00000000
00000000
00000000
00000000
00000000
00000000
00000000
00000000
00000000
00000000
01000000
00000000
00000000
00000000
00000000
00000000
00000000
00000000
00000000
00000000
00000000
00000000
00000000
00000000
00000000
00000000
,
00001000
00000000
00000000
00000000
00000000
00000000
00000000
00000000
00000000
00000000
00000000
00000000
00000000
00000000
00000000
00000000
00001000
00000000
00000000
00000000
00000000
00000000
00000000
00000000
00000000
00000000
00000000
00000000
00000000
00000000
00000000
00000000
00000000
00000000
00000000
00000000
00000000
00000000
00000000
00000000
00000000
00000000
00000000
00000000
00000000
00000000
00000000
00000000
00000010
00000000
00000000
00000000
00000000
00000000
00000000
00000000
00000000
00000000
00000000
00000000
00000000
00000000
00000000
00000000
00000000
00000000
00000000
00000000
00000000
00000000
00000000
00000000
00000000
00000000
00000000
00000000
00000000
00000000
00000000
00000000
00000100
00000000
00000000
00000000
00000000
00000000
00000000
00000000
00000000
00000000
00000000
00000000
00000000
00000000
00000000
00000000
00000001
00000000
00000000
00000000
00000000
00000000
00000000
00000000
00000000
00000000
00000000
00000000
00000000
00000000
00000000
00000000
00000001
00000000
00000000
00000000
00000000
00000000
00000000
00000000
00000000
00000000
00000000
00000000
00000000
00000000
00000000
00000000
00000000
00000000
00000000
00000000
00000000
00000000
00000000
00000000
00000000
00000000
00000000
00000000
00000000
00000000
00000000
00000000
00000010
00000000
00000000
00000000
00000000
00000000
00000000
00000000
00000000
00000000
00000000
00000000
00000000
00000000
00000000
00000000
00000000
00000000
00000000
00000000
00000000
00000000
00000000
00000000
00000000
00000000
00000000
00000000
00000000
00000000
00000000
00000000
00000100
00000000
00000000
00000000
00000000
00000000
00000000
00000000
00000000
00000000
00000000
00000000
00000000
00000000
00000000
00000000
,
00000100
00010000
00001000
00000000
00100000
00001000
00010000
00001000
,
01000000
00010000
00100000
00000000
01000000
00100000
01000000
10000000
,
00100000
00010000
00001000
00010000
01000000
00010000
00001000
00010000
,
00000010
00001000
00000001
00001000
00000100
00001000
00010000
00001000
,
00000010
00000000
00000100
00000000
00000001
00000001
00000010
00000000
00000100
00000000
00001000
00001000
00010000
00010000
00100000
00100000
,
01000000
01000000
10000000
10000000
00100000
00000000
00010000
00000000
00100000
00000000
00000000
00000000
00100000
00000000
10000000
00000000
,
00100000
00000000
00010000
00001000
00010000
00000000
00100000
00010000
,
00001000
00000000
00000010
00001000
00000010
00000000
00000010
00000001
,
00000010
00000000
00000010
00000100
00001000
00000100
00000010
00000000
,
00000001
00000000
00000000
00000000
00000010
00000000
00000000
00000001
00001000
00000000
00000000
00000100
00010000
00000000
00000000
00001000
,
00100000
00010000
00100000
01000000
10000000
00010000
00200000
00000000
,
00300000
00000000
00010000
00100000
10000000
00100000
00010000
00000000
,
01000000
00000000
00100000
00010000
00001000
00010000
00100000
00000000
,
01000000
00000000
00100000
00000000
00010000
00000000
00001000
00010000
,
00001000
00000000
00010000
00000000
00000100
00000000
00001000
00000001
,
00000010
00000000
00000100
00000000
00000010
00000001
00000010
00000001
,
00000010
00000000
00000100
00000000
00010000
00000000
00001000
00010000
,
00001000
00000000
00010000
00000000
00001000
00000000
00100000
00010000
,
01000000
00000000
00100000
00000000
10000000
01000000
10000000
01000000
,
10000000
00000000
00100000
01000000
00100000
00000000
20000000
00000000
,
30010000
00100000
00010000
00100000
00002000
00000000
00013000
00000000
,
00000010
00001000
00000100
00000000
00002000
00000000
00003002
00000000
,
00000023
00000000
00000130
00001000
00000100
00000000
00002000
00000000
,
00003010
00010000
00000010
00010000
00002000
00000000
01003000
00000000
,
00010000
01000000
00100000
00000000
02000000
00000000
03020000
00000000
,
20030000
00000000
30100000
00000000
01000000
00100000
01000000
00000000
,
00010000
00110000
10010000
01010000
,
01000000
00100000
00010000
00000000
00001000
00100000
00010000
00100000
,
00001000
00000000
00010000
00000000
00000100
00010000
00001000
00000000
,
00010000
00010010
00011000
00010100
,
00001000
00000010
00000100
00000000
00000100
00000010
00000001
00000010
,
00000100
00002000
00000000
00000000
,
00000000
00003001
00000002
00000000
00000000
00000010
00000013
00000000
,
00000100
00000000
00002000
00000000
00003100
00010000
00002000
00000000
,
00013000
00010000
00002000
00000000
00103000
00010000
00002000
00000000
,
00013000
00000000
01000000
00000000
00010000
00100000
00020000
00000000
,
10030000
10000000
00020000
00000000
01030000
00100000
00020000
00000000
,
00031000
00000000
00101000
00000000
00010000
00100000
00002000
00000000
,
00013000
00001000
00000200
00000000
00000301
00000010
00002000
00000000
,
00003010
00000000
00000100
00000000
00001000
00000000
00000010
00001000
,
00000010
00000000
00000100
00000000
00000001
00000000
00000010
00000001
,
00000010
00000000
00000100
00000000
00010000
00000000
00001000
00010000
,
00001000
00000000
00100000
00000000
00010000
00000000
01000000
00100000
,
01000000
00000000
00010000
00000000
10000000
00000000
00100000
10000000
,
00100000
00000000
01000000
00000000
00100000
00000000
00010000
00001000
,
00010000
00000000
00000100
00010000
00000100
00001000
00000100
00000000
,
00001000
00000001
00001000
00001001
,
00000000
00000000
00000100
00000000
00000001
00000010
00000100
00000000
,
00001000
00000010
00000000
00000010
00010000
00000000
00000100
00000000
,
00010000
00000000
00001000
00000000
00100000
00010000
01000000
00000000
,
00100000
10000000
00000000
10000000
00010000
00000000
01000000
00000000
,
00100000
00000000
10000000
01000000
10000000
00000000
00100000
00000000
,
00010000
00001000
00010000
00000000
00000010
00000000
00001000
00000001
,
00001000
00000000
00000001
00000010
00000100
00000000
00000100
00000010
,
00001000
00000000
00010000
00001000
00100000
00000000
00100000
01000000
,
10000000
00000000
00010000
00000000
10000000
00010000
20000000
00000000
,
31000000
00000000
00100000
01000000
00200000
00000000
00301000
00000000
,
00010000
00001000
00020000
00000000
00030100
00000000
00000010
00000100
,
00000010
00002002
00000000
00000000
,
00000000
00000000
00000000
00000000
,
00000000
00003003
00000000
00000000
,
;

//---------------dance-double - ----------------
#NOTES:
     dance-double:
     :
     Hard:
     16:
     0.688,0.935,0.343,0.276,0.234:
00000000
00000000
00000000
00000000
,
10000000
11000000
00000000
01000000
00100000
00001000
00010000
00010100
00000000
00001000
00000100
00000010
,
00000001
00001001
00000000
00000100
00000010
00000100
00001000
00101000
00000000
01000000
00010000
00010000
,
00100000
00000000
01000000
00000000
11000000
00000000
00000000
00000000
00100000
00000000
00001000
00000000
00010000
00001000
00000100
00000000
,
00000001
00000000
00000010
00000000
00000101
00000000
00000000
00000000
00001000
00000100
00000010
00000000
00000100
00000010
00000001
00000000
,
00000010
00000000
00000001
00000100
00000010
00000100
00001000
00000100
00010000
00000100
00001000
00000100
00000010
00000100
00001000
00000000
,
00010000
00000000
00001000
01000000
00010000
01000000
00100000
01000000
10000000
01000000
00100000
01000000
00010000
10000000
00100000
00000000
,
01000000
00000000
00010000
00000000
10000000
10100000
01000000
00000000
00100000
00000000
00010000
01010000
00100000
00101000
00000100
00010100
,
00001000
00001010
00000001
00000101
00000010
00000000
00000100
00000000
00000010
00000000
00000001
00000000
00000100
00000000
00001000
00000000
,
00010000
00001000
00010000
01000000
00100000
00010000
10000000
00100000
,
00010000
00001000
00020000
00031000
00000020
00001030
00020000
00031000
,
00200000
00301000
00002000
00013000
00200000
00310000
00000200
00010300
,
00000020
00000000
00010030
00000000
00011000
00000000
00000000
00000100
00010100
00000000
00000000
00001000
00001010
00000000
00000000
00000001
,
00000101
00000100
00001000
00010000
00001000
00100000
20020000
00000000
,
30030000
00000000
00000000
00000000
10000000
00000000
01000000
00000000
00010000
00000000
01000000
00000000
00100000
00001000
00010000
00000000
,
00001000
00010000
00000100
00000000
00000001
00000000
00000100
00000000
00001000
00000000
00000100
00000000
00000010
00000001
00001000
00000000
,
00000010
00000100
00000001
00000000
00001000
00000000
00000100
00000000
00001000
00000000
00000010
00000000
00000100
00000000
00000001
00000000
,
00000100
00000000
00001000
00010000
00002000
00010000
00013000
00001000
,
00100000
00010000
01000000
00010000
00100000
01000000
10000000
01000000
,
00100000
00000000
00001000
00010000
00000100
00001000
00000010
00000100
,
00000010
00000000
00001000
00000001
00000020
00000100
00000130
00001000
,
00000010
00000001
00000010
00001000
00000100
00000000
00010100
00000000
,
00011000
00000000
00100000
00010000
01000000
10000000
01000000
00100000
,
01000000
00000000
00010000
00100000
00002000
00010000
00013000
00001000
,
01000000
00010000
00100000
01000000
10000000
01000000
00100000
00001000
,
00010000
00000000
00101000
00000000
00010000
00001000
00000100
00000000
,
00000101
00000000
00000001
00000010
00000100
00000010
00000001
00000000
,
00000100
00000010
00001000
00000001
00001000
00000000
00001010
00000000
,
00010100
00000000
00011000
00000000
00010000
01000000
10000000
01000000
,
00010000
01000000
01100000
10010000
,
10000000
00100000
00010000
00100000
10000000
01000000
00010000
00001000
,
00010000
00000000
00011000
00000000
00001000
00000100
00000001
00000100
,
00001000
00000100
00000110
00001001
,
00000001
00000010
00001000
00000010
00000001
00000100
00001000
00010000
,
00001000
00200000
00000000
00000000
,
00000000
00000000
00310000
01000000
00020000
00000000
00000000
00000000
00000000
00000000
10000000
00000000
10030000
00000000
00000000
00000000
,
11000000
00000000
00000000
00000000
00120000
00000000
00000000
00000000
01030000
00000000
00001000
00100000
00020000
00000000
00000000
00000000
,
01030000
00000000
00001000
00100000
00020000
00000000
00000000
00000000
01030000
00000000
00010000
00100000
00002000
00000000
00000000
00000000
,
00013000
00000000
00000000
00000000
00011000
00000000
00000000
00000000
00000100
00000000
00000010
00000001
00000020
00000000
00000000
00000000
,
00000001
00000000
00000130
00001000
00000200
00000000
00000000
00000000
00001000
00000000
00000310
00000001
00000020
00000000
00000000
00000000
,
00000031
00000000
00000000
00000000
00001001
00000000
00000000
00000000
00000100
00000000
00000010
00001000
00000200
00000000
00000000
00000000
,
00010300
00000000
00001000
01000000
00200000
00000000
00000000
00000000
01300000
00000000
00000000
00000000
00010000
00000000
00000000
00000000
,
10000000
00000000
00100000
10000000
00100000
10000000
00010000
01000000
,
00010000
00000000
00100000
00001000
00100000
00001000
00010000
00000100
,
00010000
00000000
00000010
00001000
00000100
00000010
00000100
00001000
,
00000001
00000000
00000010
00000001
00001000
00000010
00000100
00000001
,
00000100
00001000
00010000
00000000
00010000
00000100
00010000
00000000
,
00010000
00001000
00010000
00000000
00010000
00000010
00010000
00000000
,
00010000
00001000
00100000
00010000
00100000
01000000
10000000
01000000
,
00100000
00010000
10000000
00100000
01000000
00010000
00100000
00001000
,
00010000
00000000
00010000
00000100
00001000
00000010
00000100
00000000
,
00000100
00000010
00000000
00000010
00001000
00000001
00000100
00001000
,
00010000
00001000
00100000
00010000
01000000
00100000
10000000
00000000
,
10000000
00010000
00000000
00010000
10000000
01000000
00100000
00010000
,
10000000
00000000
00100000
01000000
00100000
00000000
01100000
00000000
,
00001000
00010000
00001000
00000000
00011000
00000000
00000100
00000010
,
00000100
00000000
00000001
00000010
00000100
00001000
00000010
00000100
,
00001000
00010000
00000100
00010000
00001000
00100000
00010000
00100000
,
01000000
00000000
10000000
01000000
10000000
01000000
00200000
00000000
,
00310000
01000000
00010000
01000000
00200000
00000000
00310000
00001000
,
00010000
00001000
00000020
00000000
00000031
00000100
00000001
00000100
,
00000010
00000220
00000000
00000000
,
00000000
00000000
00000000
00000000
,
00000000
00000330
00000000
00000000
;

//---------------dance-single - Copied from----------------
#NOTES:
     dance-single:
     Copied from:
     Challenge:
     15:
     0.937,1.000,0.715,0.334,0.667: // measure 1
0000
0000
0000
0000
,  // measure 2
1000
0100
0011
0000
0000
0000
0001
1000
0100
0010
0100
1000
0001
0100
1010
0000
0000
0000
0001
1000
0100
0010
0100
1000
,  // measure 3
0010
0100
0101
0000
0000
0000
1000
0100
0010
0001
0010
0100
1000
0010
0101
0000
0000
0000
1000
0101
0101
0000
0101
0000
,  // measure 4
1000
0010
0100
0010
1010
0000
0001
0000
1000
0010
0100
0000
0001
0010
1000
0001
,  // measure 5
0100
1000
0010
1000
1100
0000
0001
0000
0001
1000
0100
0010
0001
0010
0100
1000
,  // measure 6
0001
1000
0010
0100
0010
0001
0010
0100
0010
1000
0100
0001
0100
1000
0010
0100
,  // measure 7
0000
0000
0100
0000
0001
0000
0010
0000
1000
0000
0010
0000
0100
0000
0010
0001
0010
0000
0100
0000
1000
0000
0100
0010
0001
0000
0100
0000
0001
0000
0100
0000
,  // measure 8
1000
0000
0100
0000
0010
0000
1000
0000
0100
0000
2200
3300
1000
0000
0100
0000
0001
0000
0100
0000
1000
0000
2020
3030
0100
0000
0202
0303
0010
0000
2200
3300
,  // measure 9
0010
0000
0202
0303
1000
0000
0220
0330
1000
0000
0100
0000
0010
0000
0001
0000
1000
0000
0100
0000
0010
0000
0001
0000
1000
0000
0100
0000
0010
0000
0001
0000
,  // measure 10
1000
0100
0010
0001
1000
0010
0100
0001
1000
0010
0100
0001
1000
0010
0100
0001
,  // measure 11
1000
0010
0100
0001
0001
0100
1000
0100
0001
0010
1000
0010
0001
0100
1000
0100
,  // measure 12
0001
0010
1000
0010
0001
0100
1000
0100
0010
1000
0100
0001
0100
1000
0010
0001
,  // measure 13
0010
1000
0100
0010
0001
0000
0000
1000
1100
0000
0000
0001
0101
0000
0000
1000
,  // measure 14
1010
1001
0011
1001
1010
1001
0220
0000
,  // measure 15
0000
0000
0330
0000
1000
0100
0001
0100
1000
0010
0100
0001
0010
1000
0010
0001
,  // measure 16
0100
1000
0100
0001
0010
0100
1000
0010
0100
0001
0010
0100
1000
0100
0001
0100
,  // measure 17
1000
0010
0001
0010
1000
0000
0100
0000
0010
0000
0001
0000
0200
0000
0010
0000
,  // measure 18
0310
1000
0100
0010
0002
1000
1003
0010
,  // measure 19
0100
0001
0010
0100
1100
0000
1010
0000
,  // measure 20
0101
0000
1001
0100
0010
0001
0200
0310
,  // measure 21
1010
0100
0001
0010
0200
1300
1100
0100
,  // measure 22
0010
0001
0100
0010
1001
0000
0011
0000
,  // measure 23
1100
0000
0101
0010
1000
0100
0020
0031
,  // measure 24
0011
0001
0100
0010
2000
3100
1100
0100
,  // measure 25
0010
0001
1000
0100
0011
0000
0101
0000
,  // measure 26
0110
0000
1010
0100
0001
0010
0100
1000
,  // measure 27
1100
0010
0001
0100
0010
1000
0101
0010
,  // measure 28
1000
0100
0001
0100
1100
0000
1010
0000
,  // measure 29
0101
0000
2100
0000
3001
0100
1000
0100
,  // measure 30
0001
0010
0110
0000
1100
0000
1001
0000
,  // measure 31
1000
0100
0001
0100
1000
0010
0001
0010
,  // measure 32
1000
0100
0210
0000
0310
0001
0100
1000
,  // measure 33
0100
0001
0011
0000
1010
0000
1100
0000
,  // measure 34
1000
0100
0010
0001
0101
0000
0010
1000
,  // measure 35
0010
0000
0001
0000
0010
0000
1000
0100
0010
0001
0010
0100
1000
0000
0010
0100
,  // measure 36
0001
0010
0200
2300
3020
0030
0100
0001
0010
0100
2000
3001
0020
0000
0130
0000
,  // measure 37
0110
0000
0100
0000
1100
0000
1000
0100
0010
0000
0001
0100
0020
0000
1030
0100
,  // measure 38
0010
0000
0001
0100
0020
0000
1030
0100
0010
0000
0001
0100
0020
0000
0130
0000
,  // measure 39
0110
0000
0000
0000
1001
0000
1000
0100
0010
0000
0001
0010
2000
0000
3010
0001
,  // measure 40
0100
0000
0001
0010
2000
0000
3010
0001
0100
0000
0001
0010
2000
0000
3010
0000
,  // measure 41
0110
0000
0010
0000
0011
0000
0001
1000
0010
0000
0100
0001
0101
0000
0001
0010
,  // measure 42
0100
0000
1000
0010
1010
0000
0001
0010
0100
0000
1000
0010
0110
0000
0100
0000
,  // measure 43
0101
0100
0010
1000
0100
0010
0001
0010
,  // measure 44
0100
1000
0010
0100
0001
0010
0001
0100
,  // measure 45
0010
1000
0100
0001
0100
1000
0010
0100
,  // measure 46
0001
0010
0100
0001
0100
1000
0010
0100
,  // measure 47
0001
0010
0100
1000
0010
0001
1000
0001
,  // measure 48
0010
1000
0100
0001
0100
1000
0001
1000
,  // measure 49
0100
0001
0100
1000
0010
0001
1000
0001
,  // measure 50
0010
1000
0100
0010
0001
0100
0010
1000
,  // measure 51
0100
0001
0100
1000
0010
0001
0010
1000
,  // measure 52
0100
0010
0000
0001
0100
1000
0100
0001
,  // measure 53
0010
0100
0100
1000
0010
0001
0010
1000
,  // measure 54
0100
0010
0000
0001
0100
1000
0100
0001
,  // measure 55
0010
0100
0100
1000
1100
0000
1001
0000
,  // measure 56
0010
0001
0011
0000
1000
0000
0110
0110
,  // measure 57
0110
0000
0100
1000
0001
0010
1000
0100
,  // measure 58
0001
0100
1000
0001
0010
1000
0001
0100
,  // measure 59
1000
0001
0100
0010
1000
0100
0110
0000
,  // measure 60
0010
0001
0100
0010
0110
0000
0010
1000
,  // measure 61
0100
0010
0110
0000
0010
0001
0100
0010
,  // measure 62
0110
2002
0000
0000
,  // measure 63
0000
0000
0000
0000
,  // measure 64
0000
3003
0000
0000
;
