#TITLE:ojis'n'bass;
#SUBTITLE:;
#ARTIST:二号兄貴;
#TITLETRANSLIT:ojis'n'bass;
#SUBTITLETRANSLIT:;
#ARTISTTRANSLIT:nigouaniki;
#CREDIT:;
#BANNER:ojisan_b.png;
#BACKGROUND:ojisan_bg.png;
#LYRICSPATH:;
#CDTITLE:;
#MUSIC:ojisnbass.mp3;
#OFFSET:-0.060;
#SAMPLESTART:90.414;
#SAMPLELENGTH:12.000;
#SELECTABLE:YES;
#BPMS:0.000=170.000;
#STOPS:;
#BGCHANGES:1.500=ojisnbass.avi=1.000=1=0=1,
99999=-nosongbg-=1.000=0=0=0 // don't automatically add -songbackground-
;

//---------------dance-single - ----------------
#NOTES:
     dance-single:
     :
     Hard:
     12:
     0.578,0.650,0.647,0.326,0.000:
0002
0000
0000
0000
,
0000
0000
0000
0000
,
0000
0000
0000
0000
,
0000
0000
0000
0000
,
2003
0000
0000
0000
,
0000
0000
0000
0000
,
0000
0000
0000
0000
,
0000
0000
0000
0000
,
3001
0010
0100
1000
0001
0010
0100
1000
,
0010
1000
0100
0010
0001
1000
0100
0010
,
0001
0100
0001
0010
0100
1000
0001
0010
,
0200
0000
0000
0300
0000
0000
0000
0000
,
1000
0100
0010
0001
1000
0100
0010
0001
,
0100
0001
0010
0100
1000
0001
0010
0100
,
1000
0010
1000
0100
0010
0001
1000
0100
,
0020
0000
0000
0030
0000
0000
0000
0000
,
0010
0001
0010
0100
1000
0010
0100
0010
,
1000
0100
0010
0001
0100
0010
0100
0001
,
0010
0100
1000
0010
0100
0010
1000
0100
,
0020
0000
0000
0030
0000
0000
0000
0000
,
0100
0001
1000
0100
0010
0001
1000
0100
,
0010
0001
0010
0100
1000
0100
0010
0001
,
0010
0100
1000
0010
1000
0100
0010
0100
,
0020
0000
0000
0030
0000
0000
0000
0000
,
0001
0010
0100
1000
0001
0010
0100
1000
,
0100
0010
0001
0010
0100
1000
0010
1000
,
0100
0010
0001
0100
0010
1000
0100
0010
,
0002
0000
0003
0000
,
1000
0100
0010
0001
1000
0100
0010
0100
,
1000
0100
0010
0001
0010
0100
1000
0010
,
1000
0100
0010
0001
0100
0010
1000
0100
,
0010
0001
0100
0010
0100
2002
0000
3003
,
1001
0010
0100
0010
1000
0001
0100
0010
,
0100
0001
0010
0100
1000
0010
0200
0000
,
0301
0100
0001
0100
0010
1000
0010
1000
,
0100
0010
0001
0010
0100
1000
0020
0000
,
1030
0001
0010
0100
1000
0100
0010
0001
,
0010
0100
1000
0010
0100
0001
0020
0000
,
0031
1000
0100
0010
0001
0010
0001
1000
,
0100
0010
0001
0010
0001
1000
0200
0000
,
0310
0001
0010
0100
1000
0010
1000
0100
,
0010
0001
0100
0001
0010
0100
2000
0000
,
3100
1000
0100
1000
0001
0010
0100
1000
,
0100
1000
0001
0010
0100
1000
0002
0000
,
0103
0010
1000
0100
0010
0001
0100
0010
,
1000
0100
0010
0001
0100
0010
0200
0000
,
0301
1000
0001
1000
0010
1000
0100
0010
,
0001
0010
0100
1000
0001
0010
0001
0010
,
0001
0100
0000
1010
0000
0101
0000
2002
,
0000
0000
0000
3003
0000
0000
0000
0000
,
0100
0010
0000
0011
0000
1100
0000
2002
,
0000
0000
0000
3003
0000
0000
0000
0000
,
1000
0100
0000
0110
0000
1001
0000
2020
,
0000
0000
0000
3030
0000
0000
0000
0000
,
0001
0100
0000
0011
0000
0110
0000
2200
,
0000
0000
0000
3300
0000
0000
0000
0000
,
0010
1000
0000
1100
0000
0011
0000
0220
,
0000
0000
0000
0330
0000
0000
0000
0000
,
0001
0010
0000
0110
0000
0101
0000
2020
,
0000
0000
0000
3030
0000
0000
0000
0000
,
1000
0010
0000
0101
0000
1010
0000
0202
,
0000
0000
0000
0303
0000
0000
0000
0000
,
0010
1000
0000
0110
0000
0110
0000
2002
,
0000
0000
0000
3003
0000
0000
0000
0000
,
0000
0010
1000
0000
0001
0100
0000
1100
,
0000
0101
0000
1100
0000
0101
0000
0000
,
0010
1000
0000
0001
0000
0100
0000
0001
,
0100
1000
0100
0002
0000
0000
1003
0000
,
0000
1000
0100
0000
0010
0001
0000
0011
,
0000
1010
0000
0011
0000
1010
0000
0000
,
0100
0001
0000
1000
0000
0001
0000
1000
,
0100
0001
0100
2000
0000
0000
3001
0000
,
0000
0010
0100
0000
1000
0001
0000
1010
,
0000
1001
0000
1100
0000
1001
0000
0000
,
0100
0010
0000
1000
0000
0001
0000
0001
,
0010
1000
0010
0002
0000
0000
0103
0000
,
0000
0100
0010
0000
1000
0010
0000
0011
,
0000
0101
0000
1001
0000
0101
0000
0000
,
0010
1000
0000
0100
0000
0010
0000
1000
,
0010
0001
0010
2000
0000
0000
3001
0000
,
0000
0010
1000
0000
0100
0001
0000
1010
,
0000
0101
0000
1010
0000
0101
0000
0000
,
0010
1000
0000
0100
0000
0010
0000
1000
,
0100
0001
0010
0200
0000
0000
1300
0000
,
0000
0001
0010
0000
0100
1000
0000
1100
,
0000
0101
0000
0011
0000
1100
0000
0000
,
0100
0001
0000
0010
0000
1000
0000
0001
,
0100
1000
0010
0200
0000
0000
0310
0000
,
0000
0100
0010
0000
1000
0001
0000
1010
,
0000
1100
0000
0011
0000
0101
0000
0000
,
0010
1000
0000
0100
0000
0001
0000
0010
,
1000
0100
1000
0020
0000
0000
1030
0000
,
0000
0100
0001
0000
0001
1000
0000
0011
,
0000
0101
0000
1010
0000
1100
0000
0000
,
0010
1000
0000
0100
0000
0001
0000
0010
,
0001
0100
0001
0020
0000
0000
0130
0000
,
0001
1001
0000
1100
0000
0110
0000
0022
,
0000
0000
0000
0033
0000
0000
0000
0000
,
1010
1010
0000
0011
0000
0110
0000
2200
,
0000
0000
0000
3300
0000
0000
0000
0000
,
0011
0011
0000
1100
0000
1010
0000
0202
,
0000
0000
0000
0303
0000
0000
0000
0000
,
0110
0110
0000
1001
0000
1001
0000
0220
,
0000
0000
0000
0330
0000
0000
0000
0000
,
0110
1001
0000
0110
0000
0110
0000
2002
,
0000
0000
0000
3003
0000
0000
0000
0000
,
0011
1100
0000
0011
0000
0011
0000
0220
,
0000
0000
0000
0330
0000
0000
0000
0000
,
1010
0110
0000
0011
0000
1100
0000
2002
,
0000
0000
0000
3003
0000
0000
0000
0000
,
0011
1001
0000
1100
0000
0110
0000
0022
,
0000
0000
0000
0033
0000
0000
0000
0000
,
0000
0010
1010
0000
0010
0100
0000
1010
,
0000
0110
0000
0011
0000
0110
0000
0000
,
1000
1010
0000
0011
0000
1100
0000
1000
,
0100
0001
0010
0200
0000
0000
0310
0000
,
0000
1000
1001
0000
0100
0010
0000
1100
,
0000
1100
0000
0110
0000
0101
0000
0000
,
0010
1000
0000
0101
0000
1100
0000
0001
,
0100
1000
0010
0200
0000
0000
0301
0000
,
0000
0100
0110
0000
1000
0001
0000
1001
,
0000
1001
0000
0110
0000
1001
0000
0000
,
0010
1000
0000
0001
0000
0100
0000
0001
,
0010
1000
0100
0020
0000
0000
0130
0000
;

//---------------dance-single - ----------------
#NOTES:
     dance-single:
     :
     Challenge:
     15:
     0.902,0.993,0.293,0.089,0.965: // measure 1
0010
1000
0000
0001
0100
0001
0010
0001
,  // measure 2
0100
0001
0000
1000
0100
1000
0010
1000
,  // measure 3
0100
1000
0000
0001
1000
0001
0100
0001
,  // measure 4
1000
0001
0000
1000
0010
1000
0001
1000
,  // measure 5
0010
1000
0000
0100
0001
0100
0010
0100
,  // measure 6
0001
0100
0000
0010
0100
0010
0001
0010
,  // measure 7
0100
0010
0000
0001
0010
0001
1000
0001
,  // measure 8
0100
0001
0000
1000
0010
1000
0100
1000
,  // measure 9
0001
0001
0010
0010
0100
0100
0010
0010
,  // measure 10
0100
0100
1000
1000
0010
0010
0100
0100
,  // measure 11
0001
0001
1000
1000
0010
0010
0100
0100
,  // measure 12
0001
0001
0010
0010
0100
0100
1100
0000
,  // measure 13
0100
0100
0010
0010
0001
0001
0010
0010
,  // measure 14
0100
0100
1000
1000
0001
0001
0010
0010
,  // measure 15
0100
0100
1000
1000
0010
0010
0100
0100
,  // measure 16
0001
0001
1000
1000
0010
0010
0110
0000
,  // measure 17
0001
0000
0010
0000
0100
0000
1000
0100
1000
0100
1000
0000
0001
0000
0100
0010
,  // measure 18
0100
0000
0010
0000
1000
0000
0001
0010
0001
0010
0001
0000
0100
0000
0000
0000
,  // measure 19
1000
0000
0100
0000
0010
0000
0001
0010
0001
0010
0001
0000
1000
0000
0010
0100
,  // measure 20
0010
0000
0100
0000
0001
0000
1000
0100
1000
0100
1000
0000
0010
0000
0000
0000
,  // measure 21
0001
0000
1000
0000
0010
0000
0100
0001
0100
0001
0100
0000
0010
0000
1000
0010
,  // measure 22
1000
0000
0010
0000
0100
0000
0001
1000
0001
1000
0001
0000
0100
0000
0000
0000
,  // measure 23
1000
0000
0001
0000
0010
0000
0100
0010
0100
0010
0100
0000
0001
0000
0100
1000
,  // measure 24
0100
0000
0010
0000
0001
0000
1000
0010
1000
0010
1000
0000
0001
0000
0000
0000
,  // measure 25
0010
0000
1000
0000
0100
0000
0010
0001
0010
0001
0010
0000
0001
0000
0010
0100
,  // measure 26
0010
0000
0010
0000
0001
0000
0100
0001
0100
0001
0100
0000
0010
0000
0000
0000
,  // measure 27
1000
0000
0010
0000
0100
0000
0001
1000
0001
1000
0001
0000
0100
0000
0010
1000
,  // measure 28
0010
0000
0100
0000
0001
0000
1000
0010
1000
0010
1000
0000
0001
0000
0000
0000
,  // measure 29
0100
0000
0010
0000
0001
0000
1000
0010
1000
0010
1000
0000
0010
0000
0100
0001
,  // measure 30
0100
0000
0010
0000
1000
0000
0100
0010
0100
0010
0100
0000
0001
0000
0000
0000
,  // measure 31
0010
0000
1000
0000
0100
0000
0010
0001
0010
0001
0010
0000
0001
0000
0100
0010
,  // measure 32
0100
0000
0010
0000
1000
0100
0010
0100
0010
0100
1001
0000
0000
0000
0000
0000
,  // measure 33
1000
0010
1000
0001
0100
0000
0001
0010
0001
1000
0010
0000
0100
0001
0100
0000
,  // measure 34
0010
1000
0010
0100
0001
0000
1000
0010
0100
0001
1000
0000
0010
0100
0010
0000
,  // measure 35
0100
0001
0010
0001
1000
0000
0001
0010
0100
1000
0010
0000
0100
0001
0100
0000
,  // measure 36
0010
0100
0001
0100
0010
0000
1000
0100
0010
0100
1000
0000
0001
1000
0001
0000
,  // measure 37
0100
0010
0100
0001
0100
0000
0010
1000
0010
0100
0010
0000
1000
0001
1000
0000
,  // measure 38
0001
0010
0100
0010
0001
0000
1000
0100
0010
0100
1000
0000
0010
1000
0010
0000
,  // measure 39
1000
0100
0010
0001
0010
0000
0001
0010
0100
1000
0100
0000
0010
0001
0100
0000
,  // measure 40
0010
0100
0001
0100
0010
0000
1000
0100
0010
0100
0001
0000
0100
0010
0100
0000
,  // measure 41
0001
1000
0001
1000
0010
0000
1000
0001
1000
0001
0010
0000
0100
1000
0010
0000
,  // measure 42
0100
0010
0100
1000
0001
0000
0010
0100
0010
0001
1000
0000
0001
0100
0010
0000
,  // measure 43
0100
0001
0100
0001
0100
0000
0010
1000
0010
1000
0010
0000
0100
0001
0010
0000
,  // measure 44
0100
1000
0100
1000
0100
0000
0010
0001
0010
0001
0010
0000
0010
1000
0100
0000
,  // measure 45
0001
0010
0100
1000
1000
0000
1000
0100
0010
0001
0001
0000
0010
0100
0010
0000
,  // measure 46
0001
0100
0010
1000
0100
0000
1000
0010
0100
0001
0010
0000
0001
1000
0001
0000
,  // measure 47
0100
0010
0100
0001
0100
0000
0010
0100
0001
0100
0010
0000
1000
0001
1000
0000
,  // measure 48
1000
0100
0010
0100
0010
0001
0100
0010
0100
0010
0000
1000
0100
0010
0100
0010
,  // measure 49
1000
0001
0100
0000
0000
0000
1010
0000
0000
0000
0101
0000
0000
0000
1010
0000
,  // measure 50
0000
0000
0001
0010
0001
0000
1000
0100
1000
0100
1000
0001
0100
0000
0000
0000
,  // measure 51
0001
0100
1000
0000
0000
0000
0110
0000
0000
0000
0101
0000
0000
0000
1010
0000
,  // measure 52
0000
0000
1000
0010
1000
0000
0001
0010
0001
0010
0001
1000
0010
0000
0000
0000
,  // measure 53
1000
0100
0001
0000
0000
0000
1010
0000
0000
0000
0101
0000
0000
0000
1010
0000
,  // measure 54
0000
0000
0010
0100
0010
0000
1000
0100
0010
0001
0010
0100
1000
0000
0000
0000
,  // measure 55
0001
0010
1000
0000
0000
0000
0011
0000
0000
0000
0110
0000
0000
0000
1100
0000
,  // measure 56
0000
0000
1000
0100
1000
0000
0001
0010
0100
1000
0100
0010
0001
0000
0000
0000
,  // measure 57
0010
1000
0100
0000
0000
0000
1100
0000
0000
0000
0110
0000
0000
0000
0011
0000
,  // measure 58
0000
0000
0100
0010
0100
0000
0010
0001
0010
0100
1000
0100
0010
0000
0000
0000
,  // measure 59
1000
0010
0001
0000
0000
0000
0011
0000
0000
0000
0110
0000
0000
0000
1010
0000
,  // measure 60
0000
0000
0100
0010
0100
0000
0100
0010
1000
0100
0010
0001
0010
0000
0000
0000
,  // measure 61
0001
0100
1000
0000
0000
0000
0110
0000
0000
0000
0011
0000
0000
0000
1100
0000
,  // measure 62
0000
0000
0001
0100
0001
0000
0010
1000
0100
0010
0001
0100
0010
0000
0000
0000
,  // measure 63
1000
0010
0001
0000
0000
0000
1010
0000
0000
0000
0101
0000
0000
0000
1010
0000
,  // measure 64
0000
0000
0010
0001
0100
0010
1000
0100
0010
0001
0100
0010
1001
0000
0000
0000
,  // measure 65
0000
0000
0001
0100
1000
0000
0000
0000
0010
0100
0001
0000
0000
0000
0001
0100
,  // measure 66
0000
0000
0010
1000
0000
0000
0100
0010
0000
0000
0010
0001
0000
0000
0000
0000
,  // measure 67
0010
1000
0100
0010
0001
0100
0010
0000
0000
0000
1000
0001
0100
0000
0000
0000
,  // measure 68
1000
0010
1000
0001
0010
0001
1000
0010
1000
0001
0100
0001
0100
0000
0000
0000
,  // measure 69
0000
0000
1000
0010
0001
0000
0000
0000
0100
0010
1000
0000
0000
0000
1000
0010
,  // measure 70
0000
0000
0100
0001
0000
0000
0010
0100
0000
0000
0001
1000
0000
0000
0000
0000
,  // measure 71
0100
0001
0010
0100
1000
0010
0100
0000
0000
0000
0001
1000
0010
0000
0000
0000
,  // measure 72
0001
0100
0001
1000
0100
1000
0001
0100
0001
1000
0010
1000
0010
0000
0000
0000
,  // measure 73
0000
0000
0010
0100
1000
0000
0000
0000
0010
1000
0001
0000
0000
0000
0010
0100
,  // measure 74
0000
0000
0001
1000
0000
0000
1000
0010
0000
0000
0010
0100
0000
0000
0000
0000
,  // measure 75
0010
1000
0100
0010
0001
0100
0010
0000
0000
0000
0010
1000
0100
0000
0000
0000
,  // measure 76
0001
1000
0001
0100
0010
0100
0001
1000
0001
0100
0010
0100
0010
0000
0000
0000
,  // measure 77
0000
0000
1000
0010
0100
0000
0000
0000
0010
1000
0100
0000
0000
0000
0001
0100
,  // measure 78
0000
0000
0001
0010
0000
0000
0001
0100
0000
0000
0010
1000
0000
0000
0000
0000
,  // measure 79
0001
0010
0100
1000
0010
0100
0001
0000
0000
0000
1000
0001
0100
0000
0000
0000
,  // measure 80
0001
0100
0001
1000
0010
1000
0001
0100
0001
1000
0010
0100
0001
0000
0000
0000
,  // measure 81
0000
0000
0100
0001
0010
0000
0000
0000
0010
1000
0100
0000
0000
0000
1000
0010
,  // measure 82
0000
0000
0100
0001
0000
0000
0010
0100
0000
0000
0100
1000
0000
0000
0000
0000
,  // measure 83
0010
0001
0010
0001
0010
0100
1000
0000
0000
0000
0001
0010
0001
0000
0000
0000
,  // measure 84
1000
0010
1000
0001
0010
0001
1000
0010
1000
0001
0100
0001
0100
0000
0000
0000
,  // measure 85
0000
0000
1000
0010
0100
0000
0000
0000
0010
0100
0001
0000
0000
0000
1000
0010
,  // measure 86
0000
0000
0100
0001
0000
0000
0010
1000
0000
0000
0100
0001
0000
0000
0000
0000
,  // measure 87
1000
0100
0010
0001
0100
0010
0100
0000
0000
0000
0001
1000
0001
0000
0000
0000
,  // measure 88
0010
0100
0010
1000
0001
1000
0010
0100
0010
1000
0100
0010
0001
0000
0000
0000
,  // measure 89
0000
0000
0100
0001
0010
0000
0000
0000
0010
1000
0100
0000
0000
0000
0010
1000
,  // measure 90
0000
0000
0010
1000
0000
0000
0100
0001
0000
0000
0100
0001
0000
0000
0000
0000
,  // measure 91
1000
0100
0001
0100
1000
0010
0100
0000
0000
0000
1000
0100
0001
0000
0000
0000
,  // measure 92
0001
0010
0001
1000
0010
1000
0100
1000
0100
0010
0001
0010
0001
0000
0000
0000
,  // measure 93
0000
0000
1000
0010
0001
0000
0000
0000
0100
0010
1000
0000
0000
0000
1000
0010
,  // measure 94
0000
0000
0100
0001
0000
0000
0010
0100
0000
0000
0100
1000
0000
0000
0000
0000
,  // measure 95
0100
0001
0010
0100
1000
0010
0100
0000
0000
0000
0001
1000
0010
0000
0000
0000
,  // measure 96
0001
0100
0001
1000
0100
1000
0001
0100
0001
1000
0010
1000
0010
0000
0000
0000
,  // measure 97
1000
0100
0001
0000
0000
0000
1010
0000
0000
0000
1010
0000
0000
0000
2020
0000
,  // measure 98
0000
0000
0000
3030
0000
0000
0000
0000
,  // measure 99
0001
0010
1000
0000
0000
0000
0011
0000
0000
0000
0011
0000
0000
0000
0022
0000
,  // measure 100
0000
0000
0000
0033
0000
0000
0000
0000
,  // measure 101
0001
0100
1000
0000
0000
0000
0101
0000
0000
0000
0101
0000
0000
0000
0202
0000
,  // measure 102
0000
0000
0000
0303
0000
0000
0000
0000
,  // measure 103
0001
0010
1000
0000
0000
0000
1010
0000
0000
0000
1010
0000
0000
0000
2020
0000
,  // measure 104
0000
0000
0000
3030
0000
0000
0000
0000
,  // measure 105
1000
0010
0001
0000
0000
0000
1001
0000
0000
0000
1001
0000
0000
0000
2002
0000
,  // measure 106
0000
0000
0000
3003
0000
0000
0000
0000
,  // measure 107
1000
0100
0001
0000
0000
0000
0110
0000
0000
0000
0110
0000
0000
0000
0220
0000
,  // measure 108
0000
0000
0000
0330
0000
0000
0000
0000
,  // measure 109
0001
0100
1000
0000
0000
0000
1010
0000
0000
0000
1010
0000
0000
0000
2020
0000
,  // measure 110
0000
0000
0000
3030
0000
0000
0000
0000
,  // measure 111
1000
0010
0001
0000
0000
0000
1001
0000
0000
0000
1001
0000
0000
0000
2002
0000
,  // measure 112
0000
0000
0000
3003
0000
0000
0000
0000
,  // measure 113
0000
0000
1000
0010
1000
0000
0000
0000
0100
0001
0100
0000
0000
0000
1000
0010
,  // measure 114
0000
0000
0010
1000
0000
0000
1000
0001
0000
0000
0001
0100
0000
0000
0000
0000
,  // measure 115
1000
0010
1000
0010
0100
0001
0100
0000
0000
0000
0010
1000
0010
0000
0000
0000
,  // measure 116
0010
0100
0010
1000
0100
1000
0001
0100
0001
1000
0010
1000
0001
0000
0000
0000
,  // measure 117
0000
0000
0001
0100
0001
0000
0000
0000
0010
1000
0010
0000
0000
0000
1000
0010
,  // measure 118
0000
0000
0100
0001
0000
0000
0001
0010
0000
0000
0010
0100
0000
0000
0000
0000
,  // measure 119
0001
0010
0001
0010
0100
1000
0100
0000
0000
0000
0010
1000
0010
0000
0000
0000
,  // measure 120
1000
0010
1000
0001
0010
0001
1000
0010
1000
0001
0100
0001
0100
0000
0000
0000
,  // measure 121
0000
0000
1000
0100
0001
0000
0000
0000
0001
0100
1000
0000
0000
0000
0001
0010
,  // measure 122
0000
0000
0010
0100
0000
0000
0100
1000
0000
0000
1000
0100
0000
0000
0000
0000
,  // measure 123
1000
0100
0010
0001
0010
0100
1000
0000
0000
0000
0010
1000
0010
0000
0000
0000
,  // measure 124
1000
0010
1000
0010
0100
0001
0100
0001
1000
0010
1000
0010
0110
0000
0000
0000
;

//---------------dance-single - ----------------
#NOTES:
     dance-single:
     :
     Medium:
     11:
     0.508,0.582,0.205,0.299,0.000:
0000
0000
0000
0000
,
0000
0000
0000
0000
,
0000
0000
0000
0000
,
0000
0000
0000
0000
,
0000
0000
0000
0000
,
0000
0000
0000
0000
,
0000
0000
0000
0000
,
0000
0000
0000
0000
,
0010
0001
0010
0001
0010
0001
0010
0001
,
0010
0001
0010
0001
0010
0001
0010
0001
,
0010
0001
0010
0001
0010
0001
0010
0001
,
0010
0001
0010
0001
0010
0001
0010
0000
,
1000
0100
1000
0100
1000
0100
1000
0100
,
1000
0100
1000
0100
1000
0100
1000
0100
,
1000
0100
1000
0100
1000
0100
1000
0100
,
1000
0100
1000
0100
1000
0100
1000
0000
,
0001
0100
0001
0100
0001
0100
0001
0100
,
0001
0100
0001
0100
0001
0100
0001
0100
,
0001
0100
0001
0100
0001
0100
0001
0100
,
0001
0100
0001
0100
0001
0100
0001
0000
,
0010
1000
0010
1000
0010
1000
0010
1000
,
0010
1000
0010
1000
0010
1000
0010
1000
,
0010
1000
0010
1000
0010
1000
0010
1000
,
0010
1000
0010
1000
0010
1000
0010
0000
,
1000
0001
1000
0001
1000
0001
1000
0001
,
1000
0001
1000
0001
1000
0001
1000
0001
,
1000
0001
1000
0001
1000
0001
1000
0001
,
1000
0001
1000
0001
1000
0001
1000
0000
,
0100
0010
0100
0010
0100
0010
0100
0010
,
0100
0010
0100
0010
0100
0010
0100
0010
,
0100
0010
0100
0010
0100
0010
0100
0010
,
0100
0010
0100
0010
0100
0010
0000
0000
,
0001
0010
0100
1000
0000
0000
0010
1000
,
0010
1000
0000
0000
0010
0001
0010
0000
,
0100
0010
0100
0001
0000
0000
0010
1000
,
0010
0100
0000
0000
0010
1000
0010
0000
,
0100
0001
0010
0001
0000
0000
0010
1000
,
0100
0010
0000
0000
0100
0010
0100
0000
,
0001
1000
0001
1000
0000
0000
1000
0001
,
1000
0001
0000
0000
1000
0100
0001
0000
,
0100
0010
0100
0010
0000
0000
0100
0001
,
0100
0001
0000
0000
0001
0100
1000
0000
,
0100
0010
0100
0010
0000
0000
1000
0001
,
1000
0001
0000
0000
0010
1000
0100
0000
,
0010
0001
0010
0001
0000
0000
0100
1000
,
0100
1000
0000
0000
0010
0100
0010
0000
,
1000
0100
0010
0001
0000
0000
0001
0010
,
0100
1000
0000
1000
0010
1000
0010
0000
,
0001
0100
0000
0010
0000
0010
0000
2020
,
0000
0000
0000
0000
0000
3030
0000
0000
,
0010
1000
0000
0100
0000
0100
0000
0220
,
0000
0000
0000
0000
0000
0330
0000
0000
,
1000
0100
0000
0010
0000
0010
0000
0022
,
0000
0000
0000
0000
0000
0033
0000
0000
,
0010
0100
0000
0001
0000
0001
0000
2002
,
0000
0000
0000
0000
0000
3003
0000
0000
,
1000
0010
0000
1000
0000
1000
0000
2002
,
0000
0000
0000
0000
0000
3003
0000
0000
,
0100
0010
0000
0001
0000
0001
0000
0022
,
0000
0000
0000
0000
0000
0033
0000
0000
,
0010
0100
0000
1000
0000
1000
0000
2200
,
0000
0000
0000
0000
0000
3300
0000
0000
,
0100
0010
0000
0100
0000
0100
0000
0220
,
0000
0000
0000
0000
0000
0330
0000
0000
,
0000
1000
0010
0000
1000
0010
0000
0001
,
0000
0010
0000
0100
0000
2000
0000
3000
,
0001
0010
0000
0100
0000
0101
0000
0010
,
1000
0100
0010
0002
0000
0000
1003
0000
,
0000
0001
0100
0000
0001
0100
0000
1000
,
0000
0010
0000
0100
0000
0002
0000
0000
,
0103
0010
0000
0100
0000
1010
0000
0010
,
1000
0100
0010
0002
0000
0000
0103
0000
,
0000
0100
0010
0000
0100
0010
0000
1000
,
0000
0010
0000
0100
0000
0020
0000
0000
,
0031
0010
0000
1000
0000
1100
0000
1000
,
0001
0010
0100
2000
0000
0000
3001
0000
,
0000
1000
0001
0000
1000
0001
0000
0100
,
0000
0010
0000
0100
0000
0020
0000
0000
,
0031
1000
0000
0100
0000
0101
0000
0010
,
1000
0100
0010
0002
0000
0000
0013
0000
,
0000
0001
1000
0000
1000
0001
0000
1000
,
0000
0001
0000
0100
0000
0020
0000
0000
,
1030
0100
0000
0001
0000
0011
0000
0010
,
0001
0010
0100
2000
0000
0000
3001
0000
,
0000
0100
0010
0000
0010
0100
0000
0001
,
0000
0010
0000
0100
0000
2000
0000
0000
,
3001
0010
0000
0100
0000
1001
0000
0010
,
1000
0100
0010
0002
0000
0000
1003
0000
,
0000
0100
0010
0000
1000
0010
0000
1000
,
0000
0010
0000
0100
0000
2000
0000
0000
,
3001
0010
0000
0001
0000
0101
0000
0010
,
0001
0010
0100
2000
0000
0000
3001
0000
,
0000
0001
0100
0000
0100
0001
0000
0001
,
0000
0010
0000
0101
0000
2000
0000
0000
,
3001
0010
0000
0100
0000
0101
0000
0010
,
1000
0100
0010
1002
0000
0000
1003
0000
,
0010
0100
0000
1001
0000
0010
0000
2002
,
0000
0000
0000
0000
0000
3003
0000
0000
,
1000
0010
0000
0101
0000
0010
0000
0202
,
0000
0000
0000
0000
0000
0303
0000
0000
,
0010
1000
0000
0110
0000
1000
0000
0220
,
0000
0000
0000
0000
0000
0330
0000
0000
,
0001
0010
0000
1100
0000
0001
0000
2200
,
0000
0000
0000
0000
0000
3300
0000
0000
,
0010
0100
0000
1001
0000
1000
0000
2002
,
0000
0000
0000
0000
0000
3003
0000
0000
,
0001
0100
0000
1010
0000
1000
0000
2020
,
0000
0000
0000
0000
0000
3030
0000
0000
,
0100
0010
0000
0011
0000
0001
0000
2002
,
0000
0000
0000
0000
0000
3003
0000
0000
,
0010
1000
0000
0101
0000
0010
0000
2002
,
0000
0000
0000
0000
0000
3003
0000
0000
,
0000
0001
0100
0000
0001
0100
0000
1000
,
0000
0100
0000
0010
0000
0002
0000
0003
,
1000
0100
0000
0010
0000
0010
0000
0100
,
0001
0010
0100
2000
0000
0000
3001
0000
,
0000
0100
0010
0000
0100
0010
0000
1000
,
0000
0100
0000
0010
0000
0002
0000
0000
,
1003
0010
0000
1000
0000
1000
0000
0100
,
0001
0100
1000
0002
0000
0000
1003
0000
,
0000
1000
0001
0000
1000
0001
0000
0001
,
0000
0010
0000
0100
0000
2000
0000
3000
,
0001
0010
0000
0110
0000
0110
0000
0010
,
1000
0100
0010
1002
0000
0000
1003
0000
;

//---------------dance-single - ----------------
#NOTES:
     dance-single:
     :
     Easy:
     9:
     0.311,0.377,0.149,0.199,0.000:
0000
0000
0000
0000
,
0000
0000
0000
0000
,
0000
0000
0000
0000
,
0000
0000
0000
0000
,
0000
0000
0000
0000
,
0000
0000
0000
0000
,
0000
0000
0000
0000
,
0000
0000
0000
0000
,
2000
0000
0000
0000
,
0000
0000
0000
0000
,
0000
0000
0000
3000
,
0000
0000
0000
0000
,
0002
0000
0000
0000
,
0000
0000
0000
0000
,
0000
0000
0000
0003
,
0000
0000
0000
0000
,
0020
0000
0000
0000
,
0000
0000
0000
0000
,
0000
0000
0000
0030
,
0000
0000
0000
0000
,
0200
0000
0000
0000
,
0000
0000
0000
0000
,
0000
0000
0000
0300
,
0000
0000
0000
0000
,
1000
0000
1000
0000
,
0001
0000
0001
0000
,
0010
0000
0010
0000
,
0100
0000
0100
0000
,
1000
0000
1000
0000
,
0010
0000
0010
0000
,
0100
0000
0100
0000
,
0001
0000
0001
0000
,
0100
0000
0010
0000
,
0100
0100
0001
0101
,
0010
0000
1000
0000
,
0001
0001
0010
1100
,
0010
0000
0010
0000
,
0100
0001
0010
0011
,
0100
0000
0100
0000
,
1000
0010
0100
0110
,
1000
0000
1000
0000
,
0001
0010
0001
0011
,
0100
0000
0100
0000
,
0010
0001
1000
0011
,
0100
0000
1000
0000
,
0010
0100
0001
0011
,
0100
0000
1000
0000
,
0001
0100
0010
1100
,
0001
0001
0000
0100
0000
0100
0000
0220
,
0000
0000
0000
0000
0000
0330
0000
0000
,
0001
0001
0000
1000
0000
0010
0000
2200
,
0000
0000
0000
0000
0000
3300
0000
0000
,
0010
0010
0000
0001
0000
0010
0000
0022
,
0000
0000
0000
0000
0000
0033
0000
0000
,
0100
0100
0000
1000
0000
0001
0000
0220
,
0000
0000
0000
0000
0000
0330
0000
0000
,
1000
1000
0000
0001
0000
0010
0000
0022
,
0000
0000
0000
0000
0000
0033
0000
0000
,
0100
0100
0000
1000
0000
0010
0000
0220
,
0000
0000
0000
0000
0000
0330
0000
0000
,
0001
0001
0000
0010
0000
0100
0000
2200
,
0000
0000
0000
0000
0000
3300
0000
0000
,
1000
1000
0000
0100
0000
0010
0000
0022
,
0000
0000
0000
0000
0000
0033
0000
0000
,
0000
1000
0010
0000
0100
0001
0000
0010
,
0000
0100
0000
1000
0000
0001
0000
0000
,
0100
0010
0000
1000
0000
0100
0000
0000
,
0010
0010
0001
0100
,
0000
0010
1000
0000
0100
0010
0000
0001
,
0000
0001
0000
0010
0000
0010
0000
0000
,
0100
1000
0000
0010
0000
0100
0000
0000
,
0001
0001
0001
0001
,
0000
1000
0100
0000
0010
0100
0000
1000
,
0000
1000
0000
0010
0000
0100
0000
0000
,
0001
0010
0000
0100
0000
0100
0000
0000
,
1000
1000
1000
1000
,
0000
0010
0100
0000
0001
0010
0000
0100
,
0000
0100
0000
0010
0000
0010
0000
0000
,
0001
1000
0000
0010
0000
0100
0000
0000
,
1000
0100
0010
0001
,
0000
0100
0010
0000
1000
0001
0000
0010
,
0000
0010
0000
0100
0000
0100
0000
0000
,
1000
0001
0000
0100
0000
0001
0000
0000
,
0010
0001
0010
1000
,
0000
0010
0001
0000
0100
0010
0000
1000
,
0000
1000
0000
0001
0000
0001
0000
0000
,
0010
0100
0000
1000
0000
0001
0000
0000
,
0100
0100
0010
0010
,
0000
1000
0001
0000
0010
0001
0000
1000
,
0000
1000
0000
0100
0000
0010
0000
0000
,
0001
0010
0000
0100
0000
1000
0000
0000
,
0001
0001
0010
0100
,
0000
1000
0010
0000
0100
0001
0000
0010
,
0000
0010
0000
0100
0000
0100
0000
0000
,
1000
0100
0000
0010
0000
0100
0000
0000
,
1000
1000
0100
0010
,
0001
0001
0000
0010
0000
0100
0000
0202
,
0000
0000
0000
0000
0000
0303
0000
0000
,
0001
0001
0000
0100
0000
1000
0000
2002
,
0000
0000
0000
0000
0000
3003
0000
0000
,
0010
0010
0000
1000
0000
0100
0000
0220
,
0000
0000
0000
0000
0000
0330
0000
0000
,
1000
1000
0000
0001
0000
0100
0000
0202
,
0000
0000
0000
0000
0000
0303
0000
0000
,
0010
0010
0000
1000
0000
0100
0000
2200
,
0000
0000
0000
0000
0000
3300
0000
0000
,
0010
0010
0000
0001
0000
0100
0000
0220
,
0000
0000
0000
0000
0000
0330
0000
0000
,
1000
1000
0000
0100
0000
0010
0000
0022
,
0000
0000
0000
0000
0000
0033
0000
0000
,
0001
0001
0000
1000
0000
0010
0000
2002
,
0000
0000
0000
0000
0000
3003
0000
0000
,
0000
0010
0100
0000
0001
1000
0000
0100
,
0000
0100
0000
0010
0000
0010
0000
0000
,
0001
0010
0000
0100
0000
1000
0000
0010
,
0100
0010
0100
0010
0000
0000
1001
0000
,
0000
0010
0100
0000
0001
0010
0000
0100
,
0000
0100
0000
0010
0000
0001
0000
0000
,
0100
0010
0000
1000
0000
0100
0000
1000
,
0010
0100
0010
0100
0000
0000
1001
0000
,
0000
0001
0010
0000
0100
1000
0000
0010
,
0000
0100
0000
0010
0000
1000
0000
0000
,
0001
0010
0000
0001
0000
0010
0000
0100
,
1000
1000
0010
0100
0000
0000
1001
0000
;

//---------------dance-single - ----------------
#NOTES:
     dance-single:
     :
     Beginner:
     4:
     0.164,0.238,0.050,0.133,0.000:
0000
0000
0000
0000
,
0000
0000
0000
0000
,
0000
0000
0000
0000
,
0000
0000
0000
0000
,
0000
0000
0000
0000
,
0000
0000
0000
0000
,
0000
0000
0000
0000
,
0000
0000
0000
0000
,
0010
0000
0000
0000
,
0000
0000
0000
0000
,
0000
0000
0000
0000
,
0000
0000
0000
0000
,
0100
0000
0000
0000
,
0000
0000
0000
0000
,
0000
0000
0000
0000
,
0000
0000
0000
0000
,
0001
0000
0000
0000
,
0000
0000
0000
0000
,
0000
0000
0000
0000
,
0000
0000
0000
0000
,
1000
0000
0000
0000
,
0000
0000
0000
0000
,
0000
0000
0000
0000
,
0000
0000
0000
0000
,
0010
0000
0000
0000
,
0000
0000
0000
0000
,
0000
0000
0000
0000
,
0000
0000
0000
0000
,
0100
0000
0000
0000
,
0000
0000
0000
0000
,
0000
0000
0000
0000
,
0000
0000
0000
0000
,
0001
0000
0001
0000
,
0001
0000
0000
0000
,
0100
0000
0100
0000
,
0100
0000
0000
0000
,
1000
0000
1000
0000
,
1000
0000
0000
0000
,
0001
0000
0001
0000
,
0001
0000
0000
0000
,
0010
0000
0010
0000
,
0010
0000
0000
0000
,
0100
0000
0100
0000
,
0100
0000
0000
0000
,
0010
0000
0010
0000
,
0010
0000
0000
0000
,
0001
0000
0001
0000
,
1001
0000
0000
0000
,
0010
0000
0010
0000
,
0020
0000
0030
0000
,
1000
0000
1000
0000
,
2000
0000
3000
0000
,
0001
0000
0001
0000
,
0002
0000
0003
0000
,
0100
0000
0100
0000
,
0200
0000
0300
0000
,
0010
0000
0010
0000
,
0020
0000
0030
0000
,
1000
0000
1000
0000
,
2000
0000
3000
0000
,
0001
0000
0001
0000
,
0002
0000
0003
0000
,
0010
0000
0010
0000
,
0020
0000
0030
0000
,
0100
0000
0100
0000
,
0100
0000
0100
0000
,
0010
0000
0010
0000
,
0010
0000
0010
0000
,
1000
0000
1000
0000
,
1000
0000
1000
0000
,
0001
0000
0001
0000
,
0001
0000
0001
0000
,
1000
0000
1000
0000
,
1000
0000
1000
0000
,
0100
0000
0100
0000
,
0100
0000
0100
0000
,
0010
0000
0010
0000
,
0010
0000
0010
0000
,
0100
0000
0100
0000
,
0100
0000
0100
0000
,
0010
0000
0010
0000
,
0010
0000
0010
0000
,
0001
0000
0001
0000
,
0001
0000
0001
0000
,
0010
0000
0010
0000
,
0010
0000
0010
0000
,
0001
0000
0001
0000
,
0001
0000
0001
0000
,
1000
0000
1000
0000
,
1000
0000
1000
0000
,
0100
0000
0100
0000
,
0100
0000
0100
0000
,
0010
0000
0010
0000
,
0010
0000
0010
0000
,
0100
0000
0100
0000
,
0100
0000
0100
0000
,
0010
0000
0001
0000
,
2002
0000
0000
3003
,
0010
0000
0010
0000
,
0220
0000
0000
0330
,
1000
0000
1000
0000
,
2002
0000
0000
3003
,
0010
0000
0010
0000
,
0220
0000
0000
0330
,
1000
0000
1000
0000
,
2002
0000
0000
3003
,
0001
0000
0001
0000
,
0022
0000
0000
0033
,
1000
0000
1000
0000
,
2200
0000
0000
3300
,
0010
0000
0010
0000
,
0022
0000
0000
0033
,
1000
0000
1000
0000
,
0001
0001
0001
0001
,
0100
0000
0100
0000
,
0010
0010
0010
0010
,
0100
0000
0010
0000
,
1000
1000
1000
1000
,
0001
0000
0001
0000
,
0010
0100
0010
0100
,
0010
0000
0010
0000
,
1000
0001
1000
0001
,
0100
0000
0100
0000
,
0100
0000
0000
0000
;
