#TITLE:gentle stress;
#SUBTITLE:;
#ARTIST:CHALLENGE EDIT;
#TITLETRANSLIT:;
#SUBTITLETRANSLIT:;
#ARTISTTRANSLIT:;
#CREDIT:;
#BANNER:gentle stress.png;
#BACKGROUND:gentle stress-bg.png;
#LYRICSPATH:;
#CDTITLE:xk_r.png;
#MUSIC:gentle stress.ogg;
#OFFSET:-2.806;
#SAMPLESTART:74.070;
#SAMPLELENGTH:12.000;
#SELECTABLE:YES;
#DISPLAYBPM:175.000;
#BPMS:0.000=175.000;
#STOPS:;
#BGCHANGES:;

//---------------dance-single - Copied from MANIAC----------------
#NOTES:
     dance-single:
     Copied from MANIAC:
     Challenge:
     14:
     0.763,0.861,0.920,0.290,0.097: // measure 1
2020
0000
0000
0000
,  // measure 2
0030
0000
0000
0000
,  // measure 3
3002
0000
0000
0000
0003
2000
0000
3010
,  // measure 4
0020
0000
0000
0000
0000
1030
0001
0100
,  // measure 5
0220
0000
0300
0000
0000
0230
0000
0301
,  // measure 6
2000
0000
0000
0000
0000
3001
0010
0100
,  // measure 7
0022
0000
0030
0000
0000
1003
1000
0100
,  // measure 8
0020
0000
0000
0000
0030
0010
0100
0010
,  // measure 9
1001
0000
0100
0000
0001
0001
0100
0000
,  // measure 10
0001
0001
0100
0000
0001
0100
0001
0100
,  // measure 11
1010
0010
1000
0000
1000
1000
0010
0000
,  // measure 12
1000
1000
0010
0000
1000
0010
1000
0010
,  // measure 13
0011
0010
0100
0000
0010
0010
0100
0000
,  // measure 14
0010
0010
0100
0000
0010
0100
0010
0100
,  // measure 15
1010
0010
0110
0000
1000
1000
0011
0000
,  // measure 16
0100
0100
1001
0000
0001
0001
1100
1000
,  // measure 17
0120
0000
1030
0000
0000
0010
1000
0001
,  // measure 18
0100
0001
1000
0100
1000
0010
0100
1000
,  // measure 19
0021
0000
0130
0000
0000
1000
0100
0010
,  // measure 20
0100
1000
0001
1000
0001
0100
0010
1000
,  // measure 21
0120
0000
1030
0000
0000
0001
0100
0010
,  // measure 22
1000
0010
0001
0010
1000
0100
0010
0100
,  // measure 23
2010
0000
3002
0000
0003
1000
0100
1000
,  // measure 24
1001
0000
0001
0100
1000
0100
0001
0100
,  // measure 25
0110
0000
1000
0000
0000
0010
0100
0010
,  // measure 26
0110
0000
1000
0001
1000
0010
0001
0010
,  // measure 27
2001
0000
3100
0000
0000
1000
0100
0010
,  // measure 28
0101
0000
0000
0000
0000
0000
0000
0000
0000
0000
0000
0000
0010
0000
0000
0000
0000
0000
1000
0000
0000
0100
0000
0000
0010
0000
0000
0000
0000
0000
0000
0000
0100
0000
0000
0000
0000
0000
0000
0000
0010
0000
0000
0000
0000
0000
0000
0000
,  // measure 29
0021
0000
1030
0000
0000
0001
0010
1000
,  // measure 30
0010
0001
0100
0010
1000
0100
0010
0100
,  // measure 31
2010
0000
3001
0000
0000
0010
1001
0100
,  // measure 32
0001
0010
0100
1001
0000
0100
1001
0000
,  // measure 33
0011
0001
0100
0000
1010
1000
0100
0000
,  // measure 34
0110
0010
1000
0000
0101
0001
1000
0000
,  // measure 35
0001
0001
1000
1000
0010
0010
0100
0100
,  // measure 36
2001
3001
0120
0130
1001
0000
1010
0000
,  // measure 37
1000
0100
1000
0000
0001
0000
0100
0001
0100
0000
0010
0000
1000
0000
0100
0000
,  // measure 38
0020
0000
0031
0100
0000
0001
0100
0000
,  // measure 39
0010
1000
0010
0000
0100
0000
0001
1000
0001
0000
0100
0000
0010
0000
0100
0000
,  // measure 40
0001
0010
0100
0020
0000
0000
0000
0030
,  // measure 41
0100
0010
0100
0000
1000
0000
0001
0010
0001
0000
1000
0000
0100
0000
0010
0000
,  // measure 42
0100
0001
0100
0010
0000
0001
0100
0000
,  // measure 43
1000
0001
1000
0000
0010
0000
0100
0001
0100
0000
0001
0000
1000
0100
1000
0100
,  // measure 44
1000
0000
0011
0010
0010
0000
1001
0000
,  // measure 45
0100
0001
0100
0000
1001
0000
0010
0000
0010
0000
1001
0000
0100
0000
0100
0000
,  // measure 46
1001
0000
0010
0100
0000
0001
0100
0000
,  // measure 47
0010
1000
0010
0000
0101
0000
1000
0000
1000
0000
0011
0000
0100
0000
0100
0000
,  // measure 48
1010
0000
1100
0011
0000
0101
1010
0000
,  // measure 49
1000
0100
1000
0000
0011
0000
0001
0000
0001
0000
1100
0000
1000
0000
1000
0000
,  // measure 50
0110
0000
0100
1001
0000
0010
1001
0000
,  // measure 51
0001
0010
0100
0000
0001
0000
0100
0010
1000
0000
0010
0000
0100
0001
0100
0001
,  // measure 52
0101
0000
1001
0100
0100
0100
1001
0000
,  // measure 53
0001
0100
1001
0010
0100
0010
1001
0100
,  // measure 54
0010
0100
1001
0010
0000
0001
1000
0000
,  // measure 55
1000
0100
0011
0001
0010
0100
1100
0100
,  // measure 56
0010
0001
1001
1000
0000
0010
0100
0000
,  // measure 57
0011
0000
1010
1000
0000
0101
0001
0000
,  // measure 58
1010
1000
0000
0110
0010
0010
0101
0000
,  // measure 59
1000
0001
0101
0100
0010
1000
1010
0010
,  // measure 60
1001
0000
0001
0100
0001
0000
0101
0000
,  // measure 61
1010
0100
0010
0001
1010
0001
0010
0100
,  // measure 62
1010
0100
0010
0001
0000
0100
1000
0000
,  // measure 63
0011
0010
0100
1000
1100
0100
0010
0001
,  // measure 64
0011
0010
0100
1001
0000
0101
1001
0100
,  // measure 65
0110
0000
1001
1001
0000
0011
0011
0000
,  // measure 66
1100
1100
0000
0110
0110
0000
1001
0000
,  // measure 67
2100
0100
0100
3100
0201
0001
0001
0301
,  // measure 68
2010
3010
0102
0103
0101
0000
0110
0000
,  // measure 69
2002
0000
0000
3003
0000
0000
0000
0000
;
