#TITLE:frost;
#SUBTITLE:From Pop'n Music 11;
#ARTIST:megumi;
#TITLETRANSLIT:;
#SUBTITLETRANSLIT:;
#ARTISTTRANSLIT:;
#CREDIT:;
#BANNER:frost.png;
#BACKGROUND:frost-bg.png;
#LYRICSPATH:;
#CDTITLE:;
#MUSIC:frost.mp3;
#OFFSET:-1.720;
#SAMPLESTART:51.660;
#SAMPLELENGTH:13.620;
#SELECTABLE:YES;
#BPMS:0.000=152.000;
#STOPS:;
#BGCHANGES:0.000=frost-bg.png=1.000=0=0=1,
16.000=alice1.avi=1.000=1=0=1,
32.000=amoeba1.avi=1.000=0=0=1,
48.000=arrows1.avi=1.000=0=0=1,
50.000=arrows2.avi=1.000=0=0=1,
52.000=balloon1.avi=1.000=0=0=1,
54.000=beads1.avi=1.000=0=0=1,
56.000=blackhole2.avi=1.000=0=0=1,
64.000=blackhole1.avi=1.000=0=0=1,
80.000=blizzard2.avi=1.000=0=0=1,
84.000=blockfield.avi=1.000=0=0=1,
88.000=bubble4.avi=1.000=0=0=1,
96.000=bricks1.avi=1.000=0=0=1,
104.000=bubble2r.avi=1.000=0=0=1,
112.000=cards1.avi=1.000=0=0=1,
124.000=cards1.avi=0.000=0=0=1,
126.833=cards2.avi=1.000=0=0=1,
143.667=cards3.avi=1.000=0=0=1,
159.667=cards4.avi=1.000=0=0=1,
175.000=cards5.avi=1.000=0=0=1,
183.833=cards6.avi=1.000=0=0=1,
192.000=cube10a.avi=1.000=0=0=1,
208.000=frost-bg.png=1.000=0=0=1,
99999=-nosongbg-=1.000=0=0=0 // don't automatically add -songbackground-
;

//---------------dance-single - ----------------
#NOTES:
     dance-single:
     :
     Easy:
     3:
     0.189,0.260,0.000,0.122,0.000:
0000
0000
0000
0000
,
0000
0000
0000
0000
,
0000
0000
0000
0000
,
0000
0000
0000
0000
,
1000
0000
1000
0000
,
0001
0000
0001
0000
,
1000
0000
0001
0000
,
1000
0000
0001
0000
,
2000
0000
0000
0000
,
3000
0000
0000
0000
,
0020
0000
0000
0000
,
0030
0000
0000
0000
,
0002
0000
0000
0000
,
2003
0000
0000
0000
,
3002
0000
0000
0000
,
0020
0000
0000
0033
,
0000
0000
0000
0000
,
2000
0000
0000
0000
,
3000
0001
0000
0001
,
0000
0001
0000
0001
,
1000
0000
1000
0000
,
1000
0000
1000
0000
,
1000
0000
1000
0000
,
0001
0000
0001
0000
,
0001
0001
0001
0001
,
1000
1000
1000
1000
,
0002
0000
0000
0000
,
0000
1000
1000
1003
,
2000
0000
0000
0000
,
0000
0001
0001
3001
,
0010
0000
0010
0000
,
0010
0000
0010
0010
,
0100
0100
0100
0100
,
0100
0100
0100
0100
,
0010
0010
0010
0010
,
0010
0001
0001
0001
,
1000
1000
1000
0100
,
0100
0000
0100
0100
,
0010
0000
0010
0000
,
0010
0000
0010
0000
,
0001
0001
0001
0001
,
0001
0001
1000
0000
,
1000
0000
1000
0000
,
1000
1000
0001
0001
,
1000
0000
1000
0000
,
1000
1000
0001
0001
,
2000
0000
0000
0000
,
3001
0001
0001
0001
,
1000
1000
1000
1000
,
0001
0000
0010
0000
,
0100
0000
0010
0100
,
0010
0000
0100
0000
,
0010
0000
0100
0000
,
0010
0010
0100
0100
,
0020
0000
0000
0000
,
0000
0000
0030
0200
,
0000
0000
0000
0300
;

//---------------dance-single - ----------------
#NOTES:
     dance-single:
     :
     Medium:
     5:
     0.278,0.376,0.122,0.214,0.000: // measure 1
0000
0000
0000
0000
,  // measure 2
0000
0000
0000
0000
,  // measure 3
0000
0000
0000
0000
,  // measure 4
0000
0000
0000
0000
,  // measure 5
1100
0000
1010
0000
,  // measure 6
0101
0000
0011
0000
,  // measure 7
0101
0000
1100
0000
,  // measure 8
0101
0000
0010
0000
,  // measure 9
0100
0100
0100
0100
,  // measure 10
0100
0010
0010
0010
,  // measure 11
0100
0100
0100
0100
,  // measure 12
0010
0010
0010
0010
,  // measure 13
1000
1000
1000
0000
0001
0001
0001
0000
,  // measure 14
1000
1000
1000
0000
0001
0001
0001
0000
,  // measure 15
2000
0000
0000
0000
,  // measure 16
0100
0000
0010
0000
0001
0000
0100
3000
,  // measure 17
0020
0000
0000
0001
,  // measure 18
0000
0001
0000
0000
,  // measure 19
0000
0001
0000
0001
,  // measure 20
0000
0000
0000
0000
0000
0000
0000
0030
,  // measure 21
1000
1000
0100
0100
,  // measure 22
0010
0001
1000
0100
,  // measure 23
1002
0000
0010
0000
0010
0000
0010
0003
,  // measure 24
0100
0010
0100
0010
,  // measure 25
2001
0000
0010
0000
0010
0000
0010
3000
,  // measure 26
0120
0100
0100
0130
,  // measure 27
1000
0001
1000
0001
,  // measure 28
1000
1000
0001
0001
,  // measure 29
1000
0100
0010
0010
,  // measure 30
0100
0100
1000
1000
,  // measure 31
0200
0000
0000
0000
,  // measure 32
0320
0000
0000
0000
0000
0000
0000
0030
,  // measure 33
0001
0001
1000
1000
,  // measure 34
0001
0001
1000
1000
,  // measure 35
0001
0001
1000
1000
,  // measure 36
0010
0000
0100
2000
0000
3000
0000
0000
,  // measure 37
0010
0010
0001
0001
,  // measure 38
0010
0010
0100
0100
,  // measure 39
0020
0000
0000
0000
,  // measure 40
0030
0000
0000
0000
,  // measure 41
1000
1000
0001
0001
,  // measure 42
1000
1000
1000
1000
0000
0000
0010
0000
,  // measure 43
0100
0010
0100
0001
,  // measure 44
1000
1000
0001
0001
0000
0000
0010
0000
,  // measure 45
0200
0000
0000
0000
0010
0000
0010
0300
,  // measure 46
0200
0000
0010
0000
0010
0000
0010
0300
,  // measure 47
0200
0000
0000
0000
0000
0000
0000
0300
,  // measure 48
0001
0100
0010
1000
,  // measure 49
0002
0000
0003
1000
,  // measure 50
0100
0010
0100
0001
,  // measure 51
1000
0010
0100
0010
,  // measure 52
0200
0000
0000
0302
0000
0000
0003
0000
,  // measure 53
2000
0000
0000
0000
0000
0000
0000
3000
,  // measure 54
0002
0000
0000
0003
,  // measure 55
2002
0000
0000
0000
0000
0000
0000
3003
,  // measure 56
0000
0220
0000
0000
,  // measure 57
0000
0000
0000
0000
0000
0000
0000
0330
;

//---------------dance-single - ----------------
#NOTES:
     dance-single:
     :
     Beginner:
     1:
     0.106,0.143,0.041,0.081,0.000:
0000
0000
0000
0000
,
0000
0000
0000
0000
,
0000
0000
0000
0000
,
0000
0000
0000
0000
,
1000
0000
0000
0000
,
0001
0000
0000
0000
,
0100
0000
0000
0000
,
0010
0000
0000
0000
,
1000
0000
0000
1000
,
0001
0000
0000
0001
,
1000
0000
0000
1000
,
0001
0000
0000
0001
,
0010
0000
0010
0000
,
0010
0000
0010
0000
,
0010
0000
0010
0000
,
0010
0000
0100
0000
,
0200
0000
0000
0000
,
0000
0000
0000
0000
,
0310
0000
0000
0000
,
0000
0000
0000
0000
,
0010
0000
0000
0000
,
0010
0000
0000
0000
,
0200
0000
0000
0000
,
0310
0000
0000
0000
,
1001
0000
0000
0000
,
0000
0000
0000
0000
,
0110
0000
0000
0000
,
0000
0000
0000
0000
,
1001
0000
0000
0000
,
0000
0000
0000
0000
,
0110
0000
0000
0000
,
1000
0000
0000
0000
,
0001
0000
0000
0000
,
1000
0000
0000
0000
,
0001
0000
0010
0000
,
0100
0000
1000
0000
,
0001
0000
0001
0000
,
0001
0000
0001
0000
,
0002
0000
0000
0000
,
0003
0000
0000
0000
,
1000
0000
0000
0000
,
1000
0000
0000
0000
,
0100
0000
0100
0000
,
0010
0000
0010
0000
,
0001
0000
0001
0000
,
2000
0000
0000
0000
,
3000
0000
0000
0000
,
1000
0000
1000
0000
,
0002
0000
0000
0000
,
0023
0000
0000
0000
,
0230
0000
0000
0000
,
2300
0000
0000
0000
,
3100
0000
0000
0000
,
0010
0000
0000
0000
,
0001
0000
0000
0000
,
0000
0000
0000
0000
,
1000
0000
0000
0000
;

//---------------dance-single - ----------------
#NOTES:
     dance-single:
     :
     Hard:
     7:
     0.386,0.492,0.092,0.285,0.025:
0000
0000
0000
0000
,
0000
0000
0000
0000
,
0000
0000
0000
0000
,
0000
0000
0000
0000
,
1000
0100
0010
0001
1000
0100
0010
0001
,
1000
0100
0010
0001
1000
0100
0010
0001
,
1000
0100
0010
0001
1000
0100
0010
0001
,
1000
0100
0010
0001
1000
0100
0100
0001
,
0020
0000
0000
0030
,
1100
0110
0011
0110
,
1100
0000
2200
0000
0000
0000
0000
3300
,
0000
0010
0100
0010
,
2002
0000
0000
3000
0200
0000
0000
0300
,
0020
0030
2000
3000
,
0020
0000
0033
0000
,
1000
0100
0010
0001
,
2000
0000
0100
0000
0100
0000
0100
3000
,
0020
0000
1000
0000
1000
0000
1000
0030
,
0001
0001
1000
1000
,
0001
0001
1000
1000
0001
0001
1000
1000
,
0020
0100
0000
0100
,
0100
0030
0020
0000
0100
0000
0130
0000
,
0002
0000
0020
0033
,
1000
1000
0100
0100
0010
0010
0001
0001
,
2000
0100
0100
0010
,
0001
0000
0001
0000
0010
0000
0100
3000
,
0010
0000
0010
0200
0000
0000
1000
0000
,
1000
0300
0001
0000
0010
0000
0100
0000
,
0100
0000
0100
0010
0010
0000
0002
0000
,
1000
0000
1000
0000
1000
0013
0000
0000
,
1002
0000
0003
0000
2001
0000
0000
3000
,
0010
0100
0010
0100
,
0100
0100
0100
0100
0100
0100
0100
0100
,
0020
0000
0001
0000
0001
0000
0001
0030
,
1000
1000
1000
1000
1000
1000
0000
0000
,
0020
0000
0031
0000
,
1000
0010
1000
0010
1000
0000
0000
0000
0001
0100
0001
0100
0001
0000
0000
0000
,
2000
0010
0010
0100
,
0002
0000
0000
0000
,
3003
0000
0000
0000
,
1000
1000
0100
0100
0010
0010
0001
0001
,
1000
1000
0100
0000
0010
0000
0001
0000
,
1000
0100
0010
0001
,
1000
0100
0010
0001
1000
0000
0010
0000
,
0100
0010
0100
0000
,
1000
0100
0010
0001
1000
0100
0010
0001
,
2000
0000
0000
0000
,
3001
0001
0001
1000
,
0020
0000
0000
0030
0000
0000
1000
0100
,
1000
0010
0001
1000
0000
0000
0010
0000
,
0100
0000
0001
0000
1000
0000
0010
0100
,
0001
0000
0000
1000
0010
0000
0000
0000
,
0100
1000
0001
0010
,
0100
0000
1000
0100
0010
0001
0010
0100
,
1000
0000
0200
0000
0000
0000
0000
0300
,
0000
0000
0000
0000
1000
0000
0001
0000
1000
0000
0000
1000
0001
0000
0020
0000
,
0000
0000
0000
0000
0000
0000
0000
0030
;
