#TITLE:ever snow;
#SUBTITLE:;
#ARTIST:ITG Edition;
#TITLETRANSLIT:;
#SUBTITLETRANSLIT:;
#ARTISTTRANSLIT:;
#CREDIT:;
#BANNER:ever snow.png;
#BACKGROUND:ever snow-bg.png;
#LYRICSPATH:;
#CDTITLE:215edit.png;
#MUSIC:ever snow.ogg;
#OFFSET:0.000;
#SAMPLESTART:29.810;
#SAMPLELENGTH:15.000;
#SELECTABLE:YES;
#DISPLAYBPM:145.000;
#BPMS:0.000=142.928,4.000=145.005;
#STOPS:;
#BGCHANGES:20.000=ever snow.avi=1.000=1=0=1,
218.667=ever snow-bg.png=1.000=1=0=1,
99999=-nosongbg-=1.000=0=0=0 // don't automatically add -songbackground-
;

//---------------dance-single - itgedition----------------
#NOTES:
     dance-single:
     itgedition:
     Challenge:
     17:
     1.000,1.000,0.489,0.234,1.000: // measure 1
0000
0000
0000
0000
,  // measure 2
2002
0000
0000
3003
,  // measure 3
0220
0000
0000
0330
,  // measure 4
0022
0000
0000
0033
2200
0000
3300
0000
,  // measure 5
2002
0000
0000
0000
0000
3003
0000
0000
,  // measure 6
0010
1000
0010
1000
0001
0100
0001
0100
0010
1000
0001
0010
0100
1000
0010
0100
,  // measure 7
0001
0100
0010
1000
0100
1000
0100
0010
0001
0010
0100
1000
0010
0100
0001
0100
,  // measure 8
0001
1000
0010
0001
0010
1000
0100
0001
0100
0010
1000
0100
0010
0001
0010
0100
,  // measure 9
0010
0001
0010
0100
1000
0010
1000
0100
0010
0001
0100
0001
0010
0100
1000
0010
,  // measure 10
0011
0000
1100
0000
0011
0000
1000
0100
0010
0001
0000
0010
0000
0100
1000
0000
,  // measure 11
0020
0000
0000
1100
0000
0000
0031
0000
0000
0000
0100
0010
1000
0100
0010
0001
,  // measure 12
0010
0001
0010
0100
1000
0010
0100
0001
0010
0100
1000
0010
1000
0100
0010
0001
,  // measure 13
0100
0001
0010
0100
1000
0010
0100
0001
1000
0010
1000
0001
0010
0001
1000
0010
,  // measure 14
1000
0001
0010
0001
0100
0001
1000
0100
1000
0001
0100
0001
0010
0001
1000
0010
,  // measure 15
0200
0000
0000
0011
0000
0000
1300
0000
0000
0000
0100
0010
0001
0010
0100
1000
,  // measure 16
0010
0100
0001
0100
1000
0100
0001
0100
1000
0100
0001
0010
0100
1000
0100
1000
,  // measure 17
0002
0000
0000
1010
0000
0000
0103
0000
0000
0000
0010
0100
0000
0001
0010
1000
,  // measure 18
0010
0001
0100
1000
0100
0010
1000
0100
0001
0100
1000
0010
0100
0001
0100
0010
,  // measure 19
1010
0000
0010
1000
0000
0010
1000
0000
0010
1000
0000
0010
1000
0000
0010
0000
,  // measure 20
0101
0000
0001
0100
0000
0001
0100
0000
0001
0100
0000
0001
0100
0000
0010
1000
,  // measure 21
0100
0000
0001
0010
0000
0001
0010
0000
0001
0010
0000
0001
0010
0000
1010
0000
,  // measure 22
0100
0000
0010
0100
0000
0010
0100
0000
0010
0100
0000
0010
0100
0001
1000
0010
,  // measure 23
0100
0000
0010
1000
0000
0010
1000
0000
0010
1000
0000
0010
1000
0000
0011
0000
,  // measure 24
0100
0000
0001
0100
0000
0001
0100
0000
0001
0100
0010
1000
0000
0001
0100
0000
,  // measure 25
0010
0000
0001
0010
0000
0100
1000
0000
0010
0100
0000
0001
0010
0000
0100
0000
,  // measure 26
1000
0000
0100
0001
0000
0001
0000
1000
0001
1000
0010
1000
0001
1000
0100
1000
,  // measure 27
0001
0010
0100
1000
1001
0000
0000
0000
0001
0010
0100
1000
1001
0000
0000
0000
,  // measure 28
1000
0100
0010
0001
1001
0000
0000
0000
1000
0100
0010
0001
1001
0000
0000
0000
,  // measure 29
1000
0100
0010
0100
1000
0001
0100
0010
0100
0001
0010
0100
0010
0001
0100
0010
,  // measure 30
1000
0100
1000
0010
0001
1000
0100
0001
0010
0001
0010
1000
0001
0100
1000
0001
,  // measure 31
0110
0000
0000
1010
0000
0000
0101
0000
0010
1000
0010
1000
0001
0100
0001
0100
,  // measure 32
1010
0000
0000
0110
0000
0000
0101
0000
0001
0010
0001
0010
0100
1000
0100
1000
,  // measure 33
0011
0000
0000
1100
0000
0000
1001
0000
0010
0100
1000
0100
0010
0001
0010
0100
,  // measure 34
1001
0000
0000
0110
0000
0000
1001
0000
0000
0000
0100
0000
0100
0000
0100
0000
,  // measure 35
0010
1000
0001
0100
0010
1000
0100
0010
0001
0100
0001
0010
0200
0000
0300
0000
,  // measure 36
0001
0010
1000
0001
0100
1000
0010
0100
0001
0100
0010
1000
0200
0000
0300
0000
,  // measure 37
0010
1000
0100
1000
0010
0000
0000
0000
0100
0001
0010
0001
0100
0000
0000
0000
,  // measure 38
0001
0010
1000
0100
1000
0010
0001
0010
1000
0100
0010
0001
0100
0000
0000
0000
,  // measure 39
0010
0100
0001
1000
0010
0100
0001
0010
0100
1000
0100
0010
0001
0100
0010
1000
,  // measure 40
0001
0010
0100
1000
0010
0100
0010
1000
0100
0010
0001
0010
0100
1000
0010
0100
,  // measure 41
0001
0010
0100
1000
0100
0010
0001
0010
1000
0001
0100
1000
0010
0100
0010
0100
,  // measure 42
1001
0000
0000
0000
2100
3000
0000
0000
0120
0030
0000
0000
0012
0003
0000
0000
,  // measure 43
1000
0010
0100
0010
1000
0100
1000
0100
0010
0001
0100
0010
0100
0000
0000
0000
,  // measure 44
0001
0100
0010
0100
0010
1000
0001
0010
0100
1000
0010
1000
0100
0000
0000
0000
,  // measure 45
1000
0100
0010
0100
1000
0000
0000
0000
0001
0010
0100
0010
0001
0000
0000
0000
,  // measure 46
0010
1000
0100
1000
0010
0100
0001
0010
1000
0010
0001
0100
0010
0100
0001
0010
,  // measure 47
1100
1000
0100
0001
0100
1000
0010
0100
0001
0100
1000
0001
0010
1000
0100
0010
,  // measure 48
0011
0001
0010
0100
1000
0010
1000
0001
0100
0010
1000
0100
0010
0100
1000
0010
,  // measure 49
0110
0100
0001
0010
0100
0010
0001
0010
0110
0100
1000
0100
0010
0100
1000
0100
,  // measure 50
0110
0010
0001
0010
0100
1000
0100
0010
0001
0010
0100
1000
0100
0010
0001
0010
,  // measure 51
0110
0000
0000
1001
0000
0000
2002
0000
0000
0000
0000
0000
3003
0000
0000
0000
,  // measure 52
0010
0001
1000
0010
1000
0001
0010
0001
1000
0010
1000
0001
0100
0000
0000
0000
,  // measure 53
1001
0000
0000
0110
0000
0000
2002
0000
0000
0000
0000
0000
0000
3003
0000
0000
,  // measure 54
0010
0100
0010
0100
0001
1000
0001
0000
0010
1000
0100
0000
0010
0001
0100
0000
;
