#TITLE:CHAOS;
#SUBTITLE:;
#ARTIST:CHAOS Special;
#TITLETRANSLIT:;
#SUBTITLETRANSLIT:;
#ARTISTTRANSLIT:;
#CREDIT:;
#BANNER:chaos(CHAOS Special).png;
#BACKGROUND:CHAOS-bg.png;
#LYRICSPATH:;
#CDTITLE:xk.png;
#MUSIC:CHAOS.mp3;
#OFFSET:-5.102;
#SAMPLESTART:53.200;
#SAMPLELENGTH:15.000;
#SELECTABLE:YES;
#DISPLAYBPM:*;
#BPMS:0.000=170.000;
#STOPS:6.000=0.350
,10.750=0.529
,20.750=0.882
,24.750=0.706
,26.750=0.706
,29.250=0.706
,31.250=0.529
,37.250=0.706
,39.250=0.706
,41.750=0.706
,43.250=0.706
,49.250=1.059
,51.750=0.529
,58.250=0.529
,64.750=0.529
,71.250=0.529
,75.250=0.706
,77.750=0.529
,79.750=0.706
,88.250=0.706
,92.250=0.529
,94.750=0.529
,102.250=0.706
,106.250=0.882
,113.750=0.706
,119.750=0.309
,119.875=0.353
,123.875=0.309
,124.000=0.309
,124.125=0.309
,124.250=0.353
,128.250=1.588
,131.750=0.309
,131.875=0.309
,132.000=0.309
,132.125=0.353
,137.125=0.309
,137.250=0.309
,137.375=0.353
,142.875=1.059
,146.375=0.353
,149.375=0.353
,152.375=0.353
;
#BGCHANGES:;

//---------------dance-single - ----------------
#NOTES:
     dance-single:
     :
     Challenge:
     17:
     0.933,1.000,0.543,0.334,1.000:
0000
0000
0000
0000
,
0000
0000
0000
0000
,
0000
0000
0000
1000
0000
0010
0000
0001
0000
0000
1000
0001
0000
1000
0000
0001
,
0100
0010
1000
0100
0010
0100
0000
0001
1000
0001
0100
0001
0100
0010
0000
1001
,
0000
0010
0000
0100
0001
1000
0001
0100
0010
0100
0000
0001
0010
0001
0010
0100
,
1000
0000
0000
0000
0100
0000
0000
0000
0010
0000
0000
0000
1001
0110
0000
0000
0000
0000
0000
0000
1001
0000
0000
0000
0000
0000
0000
0000
0100
0000
0000
0000
0010
0000
0000
0000
0100
0000
0000
0000
0010
0000
0000
0000
0100
0000
0000
0000
0000
0000
0000
0000
0110
0000
0000
0000
0000
0000
0000
0000
0001
0000
0000
0000
,
1000
0000
0000
0000
0001
0000
0000
0000
1000
0000
0000
0000
0001
0010
0000
0000
1000
0000
0000
0000
0010
0000
0000
0000
1000
0000
0000
0000
0010
0000
0000
0000
1000
0000
0000
0000
0010
0000
0000
0000
1000
0000
0000
0000
0010
0100
0000
0000
0010
0000
0000
0000
0100
0000
0000
0000
0010
0000
0000
0000
0100
0000
0000
0000
,
0010
0000
0000
0000
0100
0000
0000
0000
0010
0000
0000
0000
0100
0000
0000
0000
0000
0000
0000
0000
1001
0000
0000
0000
0000
0000
0000
0000
0000
0000
0000
0000
0000
0000
0000
0000
0001
0000
0000
0000
0100
0000
0000
0000
0010
0000
0000
0000
0100
0000
0000
0000
0110
1001
0000
0000
0000
0000
0000
0000
1001
0000
0000
0000
,
0000
0001
0100
0001
0100
0001
0000
1001
0000
0100
0010
0100
0010
0100
0000
1001
,
0000
0100
0001
0100
0001
0100
0000
0100
0000
0010
0100
1000
0001
0010
0000
0100
,
0000
0000
0000
0000
0001
0000
0000
0000
1000
0000
0000
0000
0010
0000
0000
0000
1000
0000
0000
0000
0001
0000
0000
0000
0000
0000
0000
0000
1001
0000
0000
0000
0000
0000
0000
0000
0100
0000
0000
0000
0010
0000
0000
0000
0100
0000
0000
0000
0010
0000
0000
0000
0100
0011
0000
0000
0000
0000
0000
0000
0010
0000
0000
0000
,
0001
0010
0001
0010
0001
1000
0001
1000
0001
0210
0000
0001
0000
1000
0000
0010
,
0000
1000
0000
0301
0000
1001
0000
1010
0000
0001
0010
0001
0100
0010
1000
0001
,
0000
1010
0000
0010
0001
0100
0010
1000
0001
0100
0000
0010
0100
0010
0100
0010
,
0000
0010
0000
1000
0001
1000
0001
1000
0001
0011
0000
1100
0000
0010
1000
0001
,
1000
0010
0000
1000
0000
0001
0100
1000
0100
0010
0000
1000
0001
1000
0010
0000
,
0100
0001
0100
0010
0000
0010
0000
0100
1010
0000
0010
1001
0000
1001
0000
1000
,
0001
1000
0001
1001
0000
0010
0000
0100
0001
1000
0001
1000
0001
0100
0000
0010
,
0000
1000
0100
0001
0100
1000
0000
0001
1000
0100
0010
0100
0010
1000
0000
0010
,
0100
0010
0100
0010
0100
0010
0100
0010
0000
0110
0000
1000
0100
0010
0100
1000
,
0000
0001
0000
1000
0100
1000
0100
0010
0000
0001
0010
0001
0010
0001
0010
2000
,
0000
0000
0000
3010
0100
0001
0100
0010
0000
1000
0100
1000
0001
0010
0001
0010
,
0100
0000
0000
0000
1000
0001
0000
0000
0100
0000
0000
0000
2000
0000
0000
0000
0000
0000
0000
0000
0000
0000
0000
0000
3000
0000
0000
0000
0001
0000
0000
0000
0010
0000
0000
0000
2000
0000
0000
0000
0000
0000
0000
0000
0000
0000
0000
0000
0000
0000
0000
0000
3010
0000
0000
0000
0001
0000
0000
0000
0010
0000
0000
0000
,
0100
0011
0000
0010
1000
0010
1000
0010
1000
0010
1000
0010
0000
0001
1000
0001
,
0000
0010
0100
0010
0000
0001
0010
1000
0000
0001
0010
1000
0000
0001
0100
1000
,
0000
0001
0100
1000
0000
1000
0010
0001
0000
1001
0000
0100
0000
0010
0001
0100
,
0000
0010
0001
0100
0000
0010
0001
0100
0000
0101
0000
1000
0001
0100
0000
1000
,
0001
0100
0000
1000
0001
0100
0000
0001
1000
0100
0000
0001
1000
0100
0000
0001
,
1000
0100
0000
0001
0100
1001
0010
1001
0000
0100
0000
1000
0100
1000
0000
0010
,
0100
0000
0000
0000
0010
0000
0000
0000
0000
0000
0000
0000
1000
0000
0000
0000
0100
0000
0000
0000
1000
0000
0000
0000
0000
0000
0000
0000
0010
0000
0000
0000
0001
0000
0000
0000
0010
0000
0000
0000
0100
0000
0000
0000
0010
0000
0000
0000
1000
0000
0000
0000
0010
0000
0000
0000
0001
0000
0000
0000
2002
3003
0220
0330
,
0000
0000
0000
0000
0000
0000
1001
0000
0000
0000
0000
0000
0000
0000
0010
0000
0000
0000
0001
0000
0000
0000
0100
0000
0000
0000
0010
0000
0000
0000
0100
0000
0000
0000
0001
0000
0000
0000
0010
0000
0000
0000
1000
0000
0000
0000
0010
0000
0000
0000
0100
0000
0000
0000
1000
0000
0000
0000
0001
0000
0000
0000
2020
3030
,
0220
0330
2200
3300
0202
0303
0000
0000
0000
0000
0000
0000
0110
0000
0000
0000
0000
0000
0000
0000
0100
0000
0000
0000
0001
0000
0000
0000
0100
0000
0000
0000
0010
0000
0000
0000
1000
0000
0000
0000
0100
0000
0000
0000
1000
0000
0000
0000
0100
0000
0000
0000
0010
0000
0000
0000
0001
0000
0000
0000
0010
0000
0000
0000
,
0001
0000
0000
0000
0010
1001
0000
0000
0000
0000
0000
0000
1000
0000
0000
0000
0010
0000
0000
0000
1000
0000
0000
0000
0010
0000
0000
0000
0100
0000
0000
0000
0001
0000
0000
0000
0010
0000
0000
0000
1000
0000
0000
0000
0010
0000
0000
0000
0001
0000
0000
0000
1000
0000
0000
0000
0010
0000
0000
0000
2002
3003
2200
3300
,
0022
0033
2020
3030
0000
0000
0000
0000
0000
0000
0100
0000
0000
0000
0001
0000
0000
0000
0010
0000
0000
0000
0100
0000
0000
0000
1000
0000
0000
0000
0010
0000
0000
0000
0100
0000
0000
0000
0010
0000
0000
0000
0100
0000
0000
0000
0001
0000
0000
0000
0010
0000
0000
0000
1000
0000
0000
0000
0010
0000
0000
0000
0100
0000
,
0000
0000
1000
0000
0000
0000
0010
0000
0000
0000
0001
0000
0000
0000
0010
0000
0000
0000
0202
0303
2002
3003
2020
3030
0000
0000
0000
0000
0000
0000
1001
0000
0000
0000
0000
0000
0000
0000
0100
0000
0000
0000
0010
0000
0000
0000
0100
0000
0000
0000
0010
0000
0000
0000
0100
0000
0000
0000
0010
0000
0000
0000
1001
0000
,
0000
0000
0000
0000
0000
0000
0100
0000
0000
0000
0010
0000
0000
0000
0100
0000
0000
0000
0010
0000
0000
0000
0100
0000
0000
0000
0001
0000
0000
0000
1000
0000
0000
0000
0001
0000
0000
0000
1000
0000
0000
0000
0001
0000
0000
0000
0210
0001
0300
0000
0000
0000
0000
0000
0011
0000
0000
0000
0000
0000
0000
0000
1000
0000
,
0000
0100
0000
1000
0000
0100
0000
0010
0000
0001
0000
0010
0000
0100
0000
0010
0000
0100
0000
0010
0000
0000
0000
1000
0000
0010
0000
0000
0000
0100
0000
0001
,
0000
0000
0000
1000
0000
0010
0000
1000
0000
0001
0000
0100
0000
0000
0000
0001
0000
1000
0000
0010
0000
0100
0000
0001
0000
0010
0000
0100
0000
1000
0000
0100
,
0000
1000
0000
0110
0000
0000
0000
0100
0000
0001
0000
1000
0000
0001
0000
0010
0000
0010
0000
0100
0000
0000
0000
1000
0000
1000
0000
0100
0000
0000
0000
1001
,
0000
0000
0000
1000
0000
0100
0000
1000
0000
0000
0000
1000
0000
0100
0000
1000
0000
0000
0000
0001
0000
0010
0000
0001
0000
0000
0000
0001
0000
0010
0000
0001
,
0000
0000
0000
0010
0000
1000
0000
0100
0000
0000
0000
0001
0000
0100
0000
0010
0000
0000
0000
0010
0000
0100
0000
1001
0000
0000
0000
1000
0000
0100
0000
0001
,
0000
0100
0000
1000
0000
0010
0000
0001
0000
0010
0000
1000
0000
0100
0000
0001
0000
0100
0000
1000
0000
0010
0000
0001
0000
0010
0000
1000
0000
0010
0000
0100
,
0000
0001
0000
1000
0000
0010
0000
1000
0000
0100
0000
1000
0000
0010
0000
0100
0000
0010
0000
1000
0000
0100
0000
0010
0001
0010
0100
1000
0001
0010
0100
2000
,
0000
3000
0000
0000
0000
0000
0000
0000
0000
0000
0000
0000
0000
0000
0000
0000
;
