#TITLE:Azul;
#SUBTITLE:-アズール-;
#ARTIST:ITGEdition;
#TITLETRANSLIT:Azul;
#SUBTITLETRANSLIT:;
#ARTISTTRANSLIT:;
#CREDIT:;
#BANNER:azul-banner.png;
#BACKGROUND:azul-bg.png;
#LYRICSPATH:;
#CDTITLE:215edit.png;
#MUSIC:azul.mp3;
#OFFSET:0.020;
#SAMPLESTART:86.149;
#SAMPLELENGTH:12.000;
#SELECTABLE:YES;
#BPMS:0.000=97.500,34.000=195.000,98.000=97.500,106.000=195.000,234.000=97.500,266.000=195.000;
#STOPS:33.500=1.280
;
#BGCHANGES:331.000=azul-bg.png=1.000=1=0=1,
99999=-nosongbg-=1.000=0=0=0 // don't automatically add -songbackground-
;

//---------------dance-single - obj by xkei51----------------
#NOTES:
     dance-single:
     obj by xkei51:
     Challenge:
     19:
     1.000,1.000,0.546,0.223,1.000: // measure 1
0001
0010
0100
0010
0002
0000
0000
0003
0000
0000
0000
0000
0000
0000
0010
0000
0010
0000
0100
0000
1000
0000
0001
0000
0100
0000
0010
0000
0010
0000
1000
0000
,  // measure 2
0001
0000
0000
0000
0000
0000
0010
0100
0010
0000
0000
0000
0000
0000
1000
0000
0100
0000
0010
0000
0010
0000
0100
0000
1000
0000
0000
0000
0000
0000
0001
0010
,  // measure 3
0100
0010
0001
0010
0100
1000
0100
1000
0010
0100
0001
1000
0001
0100
0010
0100
,  // measure 4
1010
0000
0000
0000
0000
0000
0101
0000
0101
0000
0000
0000
0000
0000
0000
0000
1001
0000
0000
0000
0110
0000
0000
0000
1000
0100
1000
0100
0010
0001
0010
0001
,  // measure 5
0010
0100
1000
0100
0020
0000
0000
0030
0000
0000
0000
0000
0000
0000
0001
0000
0001
0000
0100
0000
0100
0000
0010
0000
1000
0000
0100
0000
0010
0000
0100
0000
,  // measure 6
1000
0000
0000
0000
0000
0000
0001
0010
0001
0000
0000
0000
0000
0000
0010
0000
1000
0000
0010
0000
0100
0000
0010
0000
0101
0000
0000
0000
0000
0000
0100
0010
,  // measure 7
0001
0010
0001
0010
0100
1000
0100
1000
0010
0100
0001
0010
0100
1000
0100
0010
,  // measure 8
1001
0000
0000
0000
0000
0000
0110
0000
0110
0000
0000
0000
0000
0000
0000
0000
0011
0000
0000
0000
1100
0000
0000
0000
0001
0010
0001
0010
0100
1000
0100
1000
,  // measure 9
0011
0000
0000
0000
0000
0000
0000
0000
0100
0020
0000
0000
0030
0000
0000
0000
0100
0000
0000
0000
0010
0000
0000
0000
0001
0000
0000
0000
0100
0000
0000
0000
,  // measure 10
0010
1000
0001
0100
0010
1000
0100
0010
,  // measure 11
0001
0010
0100
1000
0010
0100
0001
0100
,  // measure 12
0001
0010
0100
1000
0010
1000
0001
0010
,  // measure 13
0001
1000
0100
1000
0001
0100
0001
1000
,  // measure 14
0010
1000
0100
0001
0100
1000
0010
0100
,  // measure 15
0001
0100
0001
0010
1000
0010
0001
0100
,  // measure 16
0010
1000
0010
0100
0001
1000
0100
1000
,  // measure 17
0001
0000
0100
0000
0010
0000
1000
0010
1000
0100
0010
0001
1000
0100
0010
0001
,  // measure 18
1000
0100
0010
0001
0010
0100
1000
0010
1000
0100
0010
0001
0010
0100
1000
0010
,  // measure 19
1000
0100
0010
0100
1000
0001
0100
0010
1000
0000
0100
0000
1000
0000
0100
0000
,  // measure 20
0010
0001
0100
0010
1001
0100
0010
1000
,  // measure 21
0001
0000
0100
0000
0010
0000
1000
0000
0001
0010
0100
1000
0001
0010
0100
1000
,  // measure 22
0001
0010
0100
1000
0001
0010
0100
1000
0001
0010
0001
0010
0100
1000
0100
1000
,  // measure 23
0010
0100
0010
0100
0001
0010
0100
1000
0010
0000
0100
0000
0010
0000
1010
0000
,  // measure 24
1010
0100
0001
0010
0011
0100
1000
0101
,  // measure 25
0101
0000
0001
0000
0010
0001
0010
0100
1000
0100
0001
0100
1000
0010
0100
0001
,  // measure 26
0100
1000
0100
0010
1000
0100
0001
0100
1000
0010
0001
1000
0100
0001
0010
0001
,  // measure 27
0100
1000
0100
0001
1000
0001
0100
0001
1000
0000
0010
0000
0100
0000
0001
0000
,  // measure 28
0100
0010
1000
0001
0100
1000
0100
0001
,  // measure 29
0100
0010
1000
0001
0100
1000
0100
0001
,  // measure 30
1000
0001
0010
1000
0010
0001
0100
0010
,  // measure 31
1000
0000
0010
0000
0100
0000
0001
0000
0101
0000
0010
1000
0020
0030
0000
0000
,  // measure 32
0011
0000
0001
0010
0002
0003
0000
0000
1001
0000
0010
1000
0020
0030
0000
0000
,  // measure 33
1001
0000
1000
0010
2000
3000
0000
0000
0110
0000
0100
0001
0200
0300
0000
0000
,  // measure 34
1010
0000
1000
0010
2000
3000
0000
0000
0110
0000
1000
0001
1000
0000
0101
0000
,  // measure 35
0010
0100
1000
0001
0010
0100
0010
0100
1000
0100
0010
0001
0010
0100
1000
0100
,  // measure 36
0010
0001
0010
0100
1000
0001
0010
0100
1000
0100
0010
0001
0010
0100
1000
0100
,  // measure 37
0010
0001
1000
0100
0010
0001
0010
0100
1001
0000
0100
0000
0010
0000
0100
0000
,  // measure 38
0010
1000
0001
0100
1010
0100
0001
0010
,  // measure 39
0100
0000
1000
0000
0010
0000
0100
0000
0001
0010
0100
1000
0100
1000
0100
1000
,  // measure 40
0001
0010
0100
1000
0100
1000
0100
1000
0001
0010
0100
1000
0001
0010
0100
0010
,  // measure 41
0100
1000
0010
0100
0001
1000
0100
0010
0001
0000
0100
0000
0010
0000
1010
0000
,  // measure 42
1010
0100
0001
0100
0101
0010
1000
0110
,  // measure 43
0110
0000
0001
0000
0001
1000
0100
0010
0001
0010
0100
1000
0001
0010
0100
1000
,  // measure 44
0001
0010
0100
1000
0010
1000
0100
0010
0001
0010
0100
1000
0001
0010
0100
0010
,  // measure 45
0100
0010
0001
0010
0001
1000
0100
1000
0100
1000
0100
0010
0001
0010
0100
1000
,  // measure 46
0100
0010
0001
0010
0001
0010
0100
1000
0100
1000
0100
0010
0001
0010
0100
1000
,  // measure 47
0100
0010
0001
0010
0100
1000
0100
1000
0001
0010
0100
1000
0010
0100
0001
0010
,  // measure 48
0100
1000
0010
0100
0001
0010
0100
1000
0010
0100
0001
1000
0100
0010
0001
0100
,  // measure 49
0010
0000
0000
1000
0000
0000
0100
0000
0000
0010
0000
0000
0001
0000
0000
0100
0000
0000
0010
0000
0000
1000
0000
0000
0001
0000
0000
0000
0001
0000
0000
0000
0101
0000
0000
0000
1000
0000
0000
0000
1000
0000
0000
0000
1010
0000
0000
0000
,  // measure 50
0001
0001
0011
1000
1000
1100
0001
0001
0101
1000
1000
1100
,  // measure 51
0010
0000
0000
0000
0010
0000
0000
0000
0110
0000
0000
0000
1000
0000
0000
0000
1000
0000
0000
0000
1001
0000
0000
0000
0100
0000
0000
0001
0000
0000
0100
0000
0000
0010
0000
0000
1000
0000
0000
0010
0000
0000
0100
0000
0000
0001
0000
0000
,  // measure 52
0010
0100
0010
0001
1000
0100
0010
0001
0100
0010
1000
0100
0010
0100
1000
0001
,  // measure 53
0010
0100
1000
0010
0100
0001
0100
0010
1000
0001
0100
0010
1000
0001
0010
0001
,  // measure 54
1000
0010
1000
0001
0010
0100
1000
0001
0100
0010
1000
0001
1000
0100
0010
0100
,  // measure 55
1000
0001
0010
0100
0010
0001
1000
0010
0100
0001
0010
1000
0010
0001
0100
0010
,  // measure 56
1000
0001
1000
0100
0001
0100
1000
0010
0100
0001
0010
1000
0001
0100
0010
1000
,  // measure 57
0100
0010
0100
0010
0001
0100
0010
1000
0100
0000
0220
0330
0000
0000
0022
0033
,  // measure 58
0000
0000
2200
3300
0000
0000
0011
0000
0001
0010
0100
1000
0001
0010
0100
1000
,  // measure 59
0001
0010
0100
1000
0100
1000
0100
1000
0100
0220
0000
0000
0330
0000
0000
0000
,  // measure 60
0001
0100
1000
0100
0220
0000
0330
0000
,  // measure 61
1000
0000
0100
0000
0001
0010
0000
0010
0110
2200
0000
0000
3300
0000
0000
0000
,  // measure 62
0100
0010
0001
1000
0202
0000
0303
0000
,  // measure 63
2020
3030
0000
0000
0202
0303
0000
0100
0100
0100
0000
0100
0001
0000
0000
0000
,  // measure 64
0001
0001
0101
0001
,  // measure 65
0001
0000
0000
0000
0001
0100
0000
0100
0101
0100
0000
0000
0101
0000
0000
0000
,  // measure 66
0101
0000
0101
0000
0101
0101
0101
0101
,  // measure 67
0010
0000
0010
0000
0010
0000
0010
0000
1000
0100
1000
0100
1000
0100
1000
0100
0010
0000
0001
0000
0010
0000
0100
0000
1000
0000
0001
0000
0010
0000
0100
0000
,  // measure 68
1000
0001
0010
0100
1000
0010
1000
0001
0010
0100
1000
0010
0100
0001
0010
0100
,  // measure 69
1000
0010
1000
0100
1000
0100
0010
0001
1000
0100
0010
0001
1000
0010
0100
0001
,  // measure 70
1000
0100
0010
0001
0100
0010
1000
0100
0010
0001
0100
0001
0100
0001
1000
0100
,  // measure 71
0010
0001
0100
0010
1000
0100
0010
0001
0010
0100
1000
0010
0100
1000
0100
0001
,  // measure 72
0010
0100
1000
0010
0100
0010
1000
0001
0100
0010
1000
0100
0010
0100
0010
0001
,  // measure 73
0100
0000
0000
0010
0000
0000
1000
0000
0000
0001
0000
0000
0100
0000
0000
0010
0000
0000
1000
0000
0000
0010
0000
0000
0100
0000
0000
0000
0100
0000
0000
0000
0101
0000
0000
0000
0010
0000
0000
0000
0010
0000
0000
0000
1010
0000
0000
0000
,  // measure 74
0100
0100
0110
0001
0001
0101
1000
1000
1010
0001
0001
0101
,  // measure 75
1000
0000
0000
0000
1000
0000
0000
0000
1010
0000
0000
0000
0001
0000
0000
0000
0001
0000
0000
0000
0101
0000
0000
0000
0010
0000
0000
1000
0000
0000
0100
0000
0000
1000
0000
0000
0010
0000
0000
0100
0000
0000
0001
0000
0000
1000
0000
0000
,  // measure 76
0010
1000
0100
1000
0001
0100
0010
1000
0001
0010
0001
1000
0100
0001
0100
1000
,  // measure 77
0010
0100
0001
1000
0010
0001
1000
0100
0001
0010
0001
0010
1000
0001
0100
1000
,  // measure 78
0010
0100
0001
0010
1000
0010
0001
1000
0010
0001
0010
1000
0100
0010
0001
0100
,  // measure 79
0010
1000
0100
1000
0010
1000
0001
0010
0001
1000
0010
1000
0100
1000
0001
0100
,  // measure 80
0001
0100
0010
1000
0100
0010
0100
1000
0001
0010
0100
1000
0100
0010
0100
1000
,  // measure 81
0001
0010
0100
0010
0001
1000
0100
1000
0010
0100
0001
0010
0100
1000
0001
0010
,  // measure 82
0100
1000
0010
1000
0100
0010
0001
1000
0100
0010
0001
0100
0010
1000
0100
0001
,  // measure 83
0100
0010
0100
1000
0100
1000
0001
0010
0011
0000
0000
0000
2002
0000
0000
0000
,  // measure 84
0000
0000
0000
3003
0000
0000
0000
0000
;
