#TITLE:ARE YOU READY TO FLY;
#SUBTITLE:(rainbowmix);
#ARTIST:ROZALLA;
#TITLETRANSLIT:;
#SUBTITLETRANSLIT:;
#ARTISTTRANSLIT:;
#CREDIT:;
#BANNER:bn.png;
#BACKGROUND:bg.png;
#LYRICSPATH:;
#CDTITLE:;
#MUSIC:ARE YOU READY TO FLY.mp3;
#OFFSET:0.040;
#SAMPLESTART:23.690;
#SAMPLELENGTH:9.960;
#SELECTABLE:YES;
#BPMS:0.000=90.820,5.750=130.440;
#STOPS:;
#BGCHANGES:;

//---------------dance-single - ----------------
#NOTES:
     dance-single:
     :
     Beginner:
     2:
     0.417,0.450,0.127,0.498,0.000:
0000
0000
0000
0000
,
0000
0000
1000
0010
,
0001
1000
0010
0001
,
1000
0100
0010
0001
,
1000
0100
0010
0001
,
1000
0010
0200
0310
,
0002
0000
1000
0003
0020
0000
0200
0030
,
0302
0003
1000
0010
0100
0001
1000
0010
,
0001
1000
0010
0001
1000
0010
0001
1000
,
0010
0001
0210
0000
0010
0000
0001
0300
,
1000
0000
0010
0100
0000
0001
0001
0000
,
0010
0010
0000
1000
0000
0000
0100
0000
,
0010
0001
2000
3010
,
0002
0000
0100
0003
0020
0000
0230
0000
,
0302
0000
2000
0003
0010
0000
0010
0000
,
0010
0000
0010
3000
1000
1000
1000
0000
,
0001
0001
0001
0000
1000
1000
1000
0000
,
0010
0010
0010
0000
0200
0000
0010
0000
,
0010
0300
0002
0000
1000
0000
1000
0003
,
2000
0000
0010
0000
0010
3000
0200
0000
,
0010
0000
0010
0300
0002
0000
1000
0000
,
1000
0003
0200
0000
0010
0000
0010
0300
,
0002
0000
1000
0000
1000
0003
0020
0000
,
0100
0000
0100
0030
0001
1000
0010
0000
,
0001
1000
0010
0000
0001
1000
0010
0000
,
0001
1000
0010
0000
1000
0010
0001
0010
,
1000
0000
0010
0001
0010
1000
0001
0010
,
0100
1000
0020
0000
0100
0000
0001
0000
,
1000
0000
0001
0000
1030
0010
0000
0100
,
2001
0000
3020
0000
,
0230
0000
0001
0001
,
0001
0000
0001
0300
0020
0000
0000
1000
,
0000
1000
0000
1000
1000
0000
1000
0000
,
1000
0000
0000
1030
0000
0200
0000
0010
,
0000
0001
0300
1000
0010
0100
0000
0001
,
0000
1000
0010
0000
0100
0000
0002
0000
,
0010
0010
0000
0003
0000
2000
0000
0000
,
0010
0010
3000
0000
0020
0000
0000
0230
,
0000
0302
0000
2003
0000
3020
0000
0230
,
0000
0302
0000
0023
0000
0230
0000
2300
,
0000
3002
0000
0023
0000
0230
0000
2300
,
3002
0000
0000
0023
0000
0230
0000
2300
,
0000
3020
0000
0230
0000
0302
0000
1000
,
0000
0010
0000
0100
0000
1003
0010
0100
,
0010
0100
0010
0100
0010
0001
1000
0001
,
1000
1001
0001
1000
0010
0100
0010
0100
,
0000
1001
1001
0001
0000
0020
0000
0100
,
0000
0100
0000
0100
0030
0002
0000
1000
,
0000
1000
0000
1000
0003
2000
0000
0010
,
0000
0010
0000
0010
3000
2000
0000
0001
,
0000
0001
0000
0001
3000
1000
0000
1000
,
0000
1000
0000
1000
0000
1000
0000
2000
,
3000
1000
0000
1000
0000
1000
0000
0000
,
2000
0000
0000
0001
0000
0001
0000
0001
,
0000
0001
0000
0001
0000
3000
0000
0010
,
0000
0100
0000
1001
0000
0000
0000
0000
,
0000
0000
0000
1001
0000
0000
0000
1001
,
0000
1001
0000
0110
0000
1001
0000
0110
,
0000
1001
0000
0110
0000
0000
0000
0000
;

//---------------dance-single - ----------------
#NOTES:
     dance-single:
     :
     Easy:
     4:
     0.453,0.531,0.208,0.281,0.018:
0000
0000
0000
0000
,
0000
0000
1000
0010
,
0001
1000
0010
0001
,
1000
0000
0010
0000
0100
0100
0001
1000
,
0010
0100
0010
0100
0001
0001
1000
1000
,
0010
0000
0100
0000
0010
0000
0000
0000
0001
0001
0001
0001
0001
0000
0000
0000
,
1000
1000
1000
1000
1000
0000
0000
0000
0020
0000
0000
0000
0100
0000
0030
0000
,
0001
1000
0010
0100
0002
0000
0010
0100
,
1000
0010
0100
1003
0020
0000
1000
0100
,
0000
0001
1000
0000
0100
0000
0031
0000
,
1000
0100
0010
0001
1000
0100
0010
0001
,
1000
0100
0010
0001
1000
0010
0100
0010
,
0100
1001
0020
0000
0000
0030
0001
1000
,
0010
0100
0010
0002
0000
0000
1000
0010
,
0100
0010
0100
1000
0010
0100
1000
0010
,
0100
0010
0100
0023
0000
0000
0230
0000
,
2300
0000
0002
3000
0020
0003
0200
0030
,
2000
0300
0000
0001
3010
0000
0100
0000
,
0010
0100
0010
0100
,
0010
0010
0010
0010
,
0010
0010
0010
0010
,
0010
0100
0010
0000
0010
0000
0010
0000
,
0010
0110
0010
0100
,
0010
0000
0010
0000
0010
0100
0000
0010
,
0000
0010
0000
0010
0010
0100
0010
0000
,
0010
0000
0000
0010
0000
1000
0000
1000
,
1000
0000
1000
0000
1000
1001
0001
0010
,
0100
0010
0000
0000
0000
1000
1001
1001
,
1000
0000
0001
0020
0100
0000
0001
0030
,
1010
0000
0100
0000
0011
0002
0100
0000
,
1000
0010
0100
1000
,
0010
0000
0100
0003
2001
0000
0000
0010
,
0000
0001
0010
0000
3002
0000
0010
0000
,
0100
0000
1000
0000
0010
0000
0000
0103
,
0000
0210
0000
0010
0001
0300
1002
0000
,
0000
0010
0100
0000
0010
0100
0000
1000
,
0010
0000
1000
0003
0000
0110
0000
2000
,
0000
0001
0010
0000
0100
0000
0010
0000
,
0200
0000
0300
0020
0000
0030
0020
0000
,
0030
0100
0000
3010
0000
0001
0010
0100
,
1000
0011
0100
0000
1000
0022
0033
1100
,
0000
0010
0000
0011
0000
0022
0033
1200
,
0000
0310
0000
0100
0010
0100
0010
0100
,
0010
0100
0010
0000
0000
0010
0100
0000
,
0000
0010
0000
0100
0000
0010
0000
0010
,
0000
0010
0010
0000
0010
0000
1000
1000
,
0000
1000
1000
0000
1000
0000
0001
0000
,
0001
0001
0000
0000
0000
0000
0000
0000
,
0010
0010
0010
0010
,
0010
0010
0000
0100
0010
0010
0000
0010
,
0010
0000
0010
0000
0010
0010
0000
0010
,
0000
0010
0000
0100
0000
1002
0003
0011
,
0000
1001
0000
2010
3000
1100
0000
0010
,
0000
0102
0000
0010
0100
1000
0010
0100
,
1000
0010
0100
1000
0010
0100
1000
0010
,
0100
1000
0010
0100
1000
0010
0100
1000
,
0000
0010
0000
1000
0010
0103
0000
0010
,
0100
0010
0200
0000
0310
0001
1000
0010
,
0100
0010
0001
1000
0000
0010
0000
0000
;

//---------------dance-single - ----------------
#NOTES:
     dance-single:
     :
     Medium:
     8:
     0.554,0.507,0.227,0.254,0.693:
0000
0000
0000
0000
,
0000
0000
0000
0000
0000
0000
0000
1001
0000
0000
0000
1001
0000
0000
0000
1001
,
0000
0000
0000
1001
0000
0000
1001
1001
0000
0000
0000
0020
0000
0000
0000
0100
,
0000
0000
0000
0000
0001
0030
0000
0000
1000
0010
0000
0000
0100
0000
0001
1001
,
0000
0000
0010
0000
0100
0000
0000
0000
0001
0000
1000
0000
0001
0000
0000
1000
,
0010
0000
0100
0000
0010
0000
0000
0000
0100
0000
0001
0000
1000
0000
0000
0010
,
1000
0000
0001
0000
0020
0000
0000
0000
0130
0000
0001
1000
0000
0010
0000
0100
,
0000
0001
0000
1000
0000
0010
0000
0100
0000
0010
0000
0100
0000
0010
0000
0000
,
0001
0001
0001
0000
1000
1000
0000
1000
0000
0020
0000
0000
0100
0000
0100
0000
,
0031
0000
1000
0010
0000
0100
0000
0001
0000
0010
0000
0100
0000
0000
0000
0110
,
0000
0110
0000
0110
0000
0001
1000
0000
0010
0000
0100
0000
0001
1000
0000
0000
,
1000
0000
0010
0000
0100
0000
0000
0000
0100
0000
1010
0000
0001
0010
0000
0100
,
0000
1010
0000
0100
0000
0000
0010
0000
0100
0000
0010
0000
1010
0000
0100
0000
,
0010
0100
0000
0010
0000
0002
0000
0010
0000
0100
0000
1000
0000
0010
0100
0000
,
1000
0000
0013
0000
0100
0000
0010
0000
0100
0000
0000
0000
1000
1000
1000
1000
,
0000
0001
0000
0001
0001
0001
0001
0000
0010
0000
0010
0000
0100
0000
0010
0000
,
0100
0010
0100
0010
0100
0010
0100
0010
,
0001
1000
0000
0001
0000
0000
0000
2000
0000
0000
0000
0000
0010
0000
0000
0000
,
0100
0000
0000
0000
0010
0000
0000
0000
0002
3000
0000
0000
0010
0000
0100
0000
,
1000
0000
0010
0000
0100
0000
1000
0000
0010
0000
0100
1000
0000
0010
0000
0100
,
0000
1003
0000
0010
0100
0010
0000
0100
0000
0001
1000
0000
0000
0110
0000
0000
,
0110
0000
0001
0000
1000
0000
0010
0000
0000
0100
0000
0001
0000
0000
1000
0000
,
0001
0000
0000
1000
0000
0000
0001
0000
0000
0000
0020
0000
0000
0100
0000
0000
,
0100
0000
0000
0100
0000
0000
0100
0030
0002
0000
0000
0000
1000
0000
0000
0000
,
1000
0000
0000
1000
0000
0000
1000
0000
0003
0000
0010
0000
0000
0000
0010
0000
,
0010
0000
0000
0010
0000
0000
0010
0000
0000
0000
0100
0000
0000
0000
0100
0000
,
0100
0000
0000
0100
0000
0000
0100
0000
0000
0000
0001
0000
0000
0001
0000
0000
,
0001
0000
0000
0001
0000
0000
0001
0000
1000
0000
0010
0000
0100
0000
0010
0000
,
0100
0001
0000
1000
0000
0010
0000
0100
0010
0000
0001
0000
1000
0000
0010
0000
,
0200
0000
0000
0000
0010
0000
0000
0001
0300
1000
0000
0010
0000
0100
0000
0010
,
0200
0000
0000
0010
0000
0001
0000
1000
0000
0010
0000
0001
0000
1000
0000
0010
,
0000
0001
0000
1000
0000
0010
0001
0300
0000
0010
0000
0100
0000
0001
0000
0010
,
0100
0000
1000
0000
0010
0000
0100
0000
0010
0100
0000
0010
0000
0100
0000
0010
,
0100
0000
0000
0000
0002
0000
0000
1000
0000
1000
0003
0000
0000
0020
0000
1000
,
0000
1000
0000
0000
0030
0001
0000
0010
0000
0100
0000
0010
0000
0100
0000
0010
,
0000
0100
0000
0000
0000
0000
0000
0000
0000
0000
0110
0000
1001
0000
0001
0000
,
0000
0010
0000
0000
0000
0100
0000
0000
0010
0000
0200
0000
0000
0310
0000
0000
,
0001
2000
0000
0000
0000
3010
0000
0000
0100
0000
0002
0000
0000
1000
0000
0000
,
0013
0100
0000
0000
0000
0010
0000
0000
0100
0010
0000
0000
0000
1000
0000
0000
,
0001
0000
0100
0000
0000
0010
0000
0000
0000
0000
1001
0000
0000
0000
1001
0000
,
0000
0000
1001
0000
0000
1001
0000
1001
1001
0000
0020
0000
0000
0000
0100
0000
,
0000
0000
0001
0030
0000
0000
1000
0000
0010
0000
0100
0000
0001
0000
0010
0000
,
0100
0010
0100
0010
0000
0002
0000
0000
,
0000
0000
0000
0000
0003
0000
0000
0000
0000
0000
1000
0000
1000
1000
0000
0000
,
0000
0010
0000
0010
0010
0000
0000
0000
0000
0001
0001
0001
0001
0000
0000
0000
,
1000
0000
1000
1000
1000
1000
0000
0000
0000
0020
0000
0000
0000
0000
0100
0000
,
0001
0000
1000
0000
0001
0000
0000
1000
0030
0000
0002
0000
0000
0000
0020
0000
,
0000
0030
0200
0000
0000
0300
2000
0000
0000
3000
0010
0000
0010
0000
0100
0000
,
1000
0000
0000
0010
0000
0000
0100
0000
1003
0000
0000
0000
0010
0000
0000
0000
,
0100
0000
0010
0000
0100
0010
0000
0200
0000
0000
0000
0300
0001
0000
0000
1000
,
0000
0001
0000
0000
0000
0010
0000
0100
0000
0000
0000
0000
1000
0000
0000
0000
,
0001
0000
1000
0000
0001
1000
0000
0000
0002
0000
0010
0000
0100
0000
0010
0000
,
0100
1003
0010
0100
0010
0002
1000
0013
,
0100
0000
0001
0000
0010
0000
0100
0000
1100
0000
0000
0001
0010
0000
0100
0000
,
0010
0000
0000
1100
0000
0010
0001
0000
0010
0000
0100
0000
0010
0000
0100
0000
,
0000
0010
0000
0100
0002
0000
0000
0000
0000
0000
1000
0000
0000
0010
0000
0000
,
0000
0100
0000
0000
0000
0010
0000
0000
0000
0100
0000
1003
0000
0020
0000
0000
,
0000
0100
0000
0100
0000
0100
0000
0032
,
0000
0000
1000
0000
0000
0000
1000
0000
0000
0000
0010
0000
0100
0000
0010
0003
;

//---------------dance-single - ----------------
#NOTES:
     dance-single:
     :
     Hard:
     10:
     0.576,0.557,0.625,0.172,0.992: // measure 1
0000
0000
0000
0000
,  // measure 2
0000
0000
0000
0000
0000
0000
0000
0000
0000
0000
0000
0110
0000
0000
0110
0000
0000
0110
0000
0000
0000
0000
0000
0002
,  // measure 3
0000
0000
0000
0000
0000
1000
0000
0000
0013
0000
0000
0110
0000
0000
0110
0000
0000
0110
0000
0000
0000
0000
0000
0001
,  // measure 4
0000
0000
1000
0000
0000
0010
0000
0000
0000
0000
0000
0100
0000
0000
1000
0000
0000
0001
0000
0000
0010
0000
0000
1000
,  // measure 5
0001
0000
0010
0000
0000
0000
0100
0000
0000
0000
0000
0000
1000
0000
0000
0001
0000
0000
1000
0000
0000
0000
0010
1000
,  // measure 6
0000
0000
0000
0010
0000
0000
0200
0000
0000
0000
0000
0301
0000
0000
0000
0010
0000
0000
0100
0000
0000
0010
0000
0001
,  // measure 7
0000
0000
1000
0000
0000
0010
0000
0000
0100
0000
0001
0000
0000
1000
0000
0000
0010
0000
0000
0100
0000
0000
0001
0000
,  // measure 8
0020
0000
0000
0000
0000
0000
0100
0000
0030
0001
0000
2000
0000
0000
0000
0000
0000
0010
0000
0000
0100
0000
0000
0010
,  // measure 9
0000
0000
0000
0000
0100
0000
0000
0000
3001
0000
0000
0000
0000
0000
0010
0000
0000
0000
0000
0100
0000
0000
0000
1001
,  // measure 10
0000
0000
0000
0000
0010
0000
0000
0000
0200
0000
0000
0000
0000
0000
0000
0010
0000
0000
0000
0000
0010
0000
0300
0002
,  // measure 11
0000
0000
1000
0000
0000
0010
0000
0000
0100
0000
0000
0000
0010
0000
0000
0100
0000
1000
0000
0000
0010
0000
0000
0100
,  // measure 12
0000
0000
1000
0003
0000
0000
0020
0000
0000
0100
0030
0010
0000
0000
0000
0100
0000
0001
0000
0000
1000
0000
0000
0010
,  // measure 13
0000
0000
0000
0000
0100
0000
0000
0000
0001
0000
0000
0000
0000
0000
1000
0000
0000
0000
0000
1000
0000
0000
0000
0000
,  // measure 14
0010
0000
0000
1000
0001
0000
1000
0000
0000
0000
0020
0000
0000
0000
0000
0000
0000
0000
0100
0030
0000
0100
0000
0000
,  // measure 15
0002
0000
0000
0000
0000
0000
1000
0003
0000
0010
0000
0000
0100
0000
0000
0010
0000
0000
0000
0100
0000
0000
0000
0000
,  // measure 16
0110
0110
0110
0000
0001
0000
0001
0000
,  // measure 17
0001
0000
0000
0000
0000
0000
0001
0000
0000
0000
0000
0000
0000
1001
0000
0000
0000
0000
1001
0000
0000
0000
1001
0000
,  // measure 18
0000
0000
0000
0000
0000
0000
0000
0000
0000
0000
0000
0000
1001
0000
0000
0000
0000
1001
0000
0000
0000
1001
0000
0000
,  // measure 19
0000
0000
0000
0000
0000
0000
0000
0000
0000
0000
0000
0000
0000
1001
0000
0000
0000
0000
1001
0000
0000
0000
1001
0000
,  // measure 20
0000
0000
0000
0000
0000
0000
0000
0000
0000
0000
0000
0000
1001
0000
0000
0000
0000
0110
0000
0000
0000
0000
1001
0000
,  // measure 21
0110
0000
0000
0000
0000
0001
0010
0000
0000
0000
0100
0000
0000
0000
0000
0000
0010
0000
0000
0000
0000
0100
0000
0000
,  // measure 22
0000
1000
0000
0000
0100
0000
1000
0000
0000
0000
0010
0000
0000
0000
0000
0000
0001
0000
0000
0000
0000
1000
0000
0000
,  // measure 23
0000
0010
0000
0000
0100
0000
0010
0000
0000
0000
0002
0000
0000
0000
0000
0000
0000
1000
0000
0000
0000
0010
0000
0000
,  // measure 24
0000
0100
0000
0000
0000
0010
0000
0000
0000
0000
1000
0000
0000
0000
0010
0003
0000
0000
0000
0100
0000
0000
0000
0010
,  // measure 25
0000
0100
0000
0000
0010
0000
0100
0000
0000
0000
0001
0000
0000
0000
0000
0000
0000
1000
0000
0000
0000
0010
0000
0000
,  // measure 26
0000
1000
0000
0000
0000
0010
1000
0000
0000
0000
0001
0000
0000
0000
0000
0000
0000
0010
0000
0000
0000
0100
0000
0000
,  // measure 27
0000
0010
0000
0000
0000
1000
0000
0010
0000
0000
0001
0000
0000
0000
0000
0000
0000
0010
0000
0000
0000
0100
0000
0000
,  // measure 28
0000
0010
0000
0000
0100
0000
0010
0000
0000
0000
0001
0000
0000
1000
0000
0000
0010
0000
0000
0000
0100
0000
0000
0010
,  // measure 29
0000
0000
0001
0000
0000
1000
0000
0000
0010
0000
0000
0100
0000
0010
0000
0000
0000
0000
1001
0000
0000
0000
0000
1001
,  // measure 30
0000
0000
0010
0000
0000
0000
0000
0100
0000
0000
0000
0000
0000
1001
0000
0000
0000
1001
0000
0000
1001
0000
0000
0000
,  // measure 31
0000
0000
1001
0000
1001
0000
0000
1001
0000
0000
0000
0000
0000
0000
1001
0000
0000
0000
1001
0000
0000
0000
0000
0000
,  // measure 32
0000
0010
0000
0000
0100
0000
0000
0002
0000
0000
0000
0000
0000
0000
1000
0000
0010
0000
0000
0000
0100
0000
0010
0000
,  // measure 33
0000
0000
0100
0000
1000
0000
0000
0010
0000
0000
0100
0000
0000
0010
0003
0000
0000
0100
0000
0000
1000
0000
0000
0010
,  // measure 34
0000
0000
0100
0000
0000
0001
0000
0000
0000
0010
0000
0000
0100
0000
0020
0000
0000
0000
0000
0000
0000
0031
0000
0000
,  // measure 35
1000
0000
0010
0000
0000
0100
0000
0000
0001
0000
0000
0010
0000
0000
0100
0000
0000
1000
0000
0000
0001
0000
0000
0010
,  // measure 36
0000
0000
0100
0000
0000
0000
0010
0000
0000
0000
0000
0000
0000
0000
0000
0110
0000
0000
0000
1001
0000
0000
0000
1001
,  // measure 37
0000
0000
0110
0000
0000
0000
0000
1001
0000
0000
0000
1001
0000
0000
0110
0000
0000
0000
0000
1001
0000
0000
0000
1001
,  // measure 38
0000
0000
0110
0000
0000
0000
0000
1001
0000
0000
0000
1010
0000
0000
0000
0010
0000
0000
0000
0000
0100
0000
0000
0000
,  // measure 39
0010
0000
0001
0000
0000
1000
0000
0000
0010
0000
0000
0100
0000
0000
0020
0000
0000
0000
0000
0000
0000
0001
0000
0000
,  // measure 40
0000
0000
0000
0001
0000
0000
0000
0000
0001
0000
0000
0030
0000
0000
1000
0000
0000
0010
0000
0000
0000
0100
0000
0000
,  // measure 41
0000
0000
0010
0000
0100
0000
0000
0000
0010
0100
0000
0000
0000
0000
0001
0000
0000
0000
0000
0000
0000
1000
0000
0000
,  // measure 42
0000
0000
0000
0001
0000
0000
1000
0001
0000
0000
0000
0000
1000
0000
0000
0000
0000
0000
0010
0000
0000
0100
0000
0010
,  // measure 43
0000
0000
0100
0001
0000
0000
1000
0000
0010
0000
0000
0000
0100
0000
0000
0000
0000
0000
0010
0000
0000
0000
0001
1000
,  // measure 44
0000
0000
0001
0000
1000
0000
0000
0010
0000
0100
0000
0000
0010
0000
0000
0001
0000
0000
0010
0000
0000
0100
0000
0000
,  // measure 45
0010
0001
0010
0100
1000
0001
0010
0100
,  // measure 46
0010
0000
0000
0000
1000
1000
0000
1000
0000
0000
0001
0000
0001
0001
0000
0000
0020
0000
0000
0000
0000
0000
0100
0000
,  // measure 47
0000
0000
0000
0001
0000
0000
0000
0000
1000
0030
0000
0010
0000
0000
0100
0000
0000
0001
0000
0000
0000
1000
0000
0000
,  // measure 48
0010
0100
0010
0100
0010
0100
0010
0100
,  // measure 49
0010
0000
0000
0001
0000
0000
1000
0000
0001
0000
0000
1000
0000
0010
0001
0000
0000
0000
0000
0010
0000
0000
0100
0000
,  // measure 50
0000
0010
0000
0000
0100
0000
0000
0010
0100
0000
0000
0002
0000
0000
0000
0000
1000
0003
0010
0000
0000
0100
0000
0000
,  // measure 51
0001
0000
0000
1000
0000
0000
0010
1000
0000
0001
0000
1000
0000
0010
0000
0000
0000
0000
0100
0000
0000
0010
0000
0000
,  // measure 52
0001
1000
0010
0100
0000
1001
0000
1001
,  // measure 53
0000
1001
0000
1001
1001
1001
0000
1001
,  // measure 54
0000
0000
0000
1001
0000
0000
0000
0000
1001
0000
1001
0000
0000
0000
0000
0000
1001
0000
0000
0000
0000
0000
1001
0000
,  // measure 55
0000
0000
0000
0000
1001
0000
0000
0000
0000
0000
1001
0000
0000
0000
0000
0000
1001
0000
0000
0000
0000
1001
0000
0000
,  // measure 56
0000
1001
1001
1001
0000
1001
0000
1001
,  // measure 57
0000
0000
0110
0000
0000
0000
0000
0000
1001
0000
0000
0000
0000
0000
0000
0110
0000
0000
1000
0000
0000
0001
0000
0000
,  // measure 58
0000
0000
0010
0000
0000
0000
0000
0000
0200
0000
0000
0000
0000
0000
0020
0000
0300
0000
0000
0000
0000
0002
0030
0000
,  // measure 59
0000
0000
0000
2000
0000
0000
0000
3000
0000
0010
0000
0000
0000
0000
0103
0000
0000
0000
0000
0000
0000
0000
0000
0000
;
