#TITLE:air;
#SUBTITLE:challenge edit;
#ARTIST:DJ SIMON;
#TITLETRANSLIT:;
#SUBTITLETRANSLIT:;
#ARTISTTRANSLIT:;
#CREDIT:;
#BANNER:air.png;
#BACKGROUND:air-bg.png;
#LYRICSPATH:;
#CDTITLE:./CDTITLES/beatmania.PNG;
#MUSIC:air.ogg;
#OFFSET:0.000;
#SAMPLESTART:8.973;
#SAMPLELENGTH:15.000;
#SELECTABLE:YES;
#DISPLAYBPM:130.000;
#BPMS:0.000=130.435,4.000=129.996;
#STOPS:;
#BGCHANGES:;

//---------------dance-double - ----------------
#NOTES:
     dance-double:
     :
     Easy:
     5:
     0.234,0.289,0.129,0.000,0.000:
00000000
00000000
00000000
00000000
,
00000000
00000000
00000000
00000000
,
00000000
00000000
00000000
00000000
,
10000000
10000000
01000000
01000000
,
00010000
00010000
00001000
00001000
,
00001000
00000100
00000001
00000000
,
00000001
00000000
00000100
00000000
,
00000001
00000100
00001000
00000000
,
00010000
00000000
01000000
00000000
,
00010000
01000000
10000000
00000000
,
10000000
00000000
01000000
00000000
,
10000000
01000000
00010000
00000000
,
00001000
00000000
00000100
00000000
,
00000010
00000001
00000100
00000000
,
00001000
00000000
00001000
00000000
,
00001001
00000100
00000001
00000000
,
00000100
00000000
00001000
00000000
,
00010000
01000000
10000000
00000000
,
00100000
00000000
01000000
00000000
,
10010000
01000000
00100000
00000000
,
00010000
00000000
00001000
00000000
,
00010000
01000000
10000000
00000000
,
00100000
00000000
01000000
00000000
,
10000000
10000000
01000000
00010000
,
00001000
00000100
00000001
00000001
,
00000110
00000001
00000100
00000000
,
00000100
00001000
00010000
00000000
,
00010000
00001000
00000100
00000000
,
00000100
00000001
00000110
00000000
,
00000001
00000010
00001000
00000000
,
00000100
00001000
00010000
00000000
,
00010000
00001000
00000100
00000000
,
00001000
00000010
00000001
00000000
,
00001001
00000100
00001000
00010000
,
00100000
10000000
01000000
10010000
,
01100000
00010000
00001000
00000100
,
00010000
00000100
00010000
00000100
,
00001001
00000010
00001000
00010000
,
00001000
00000010
00000001
00001001
,
00000110
00001000
00010000
01000000
,
10000000
00100000
00010000
01000000
,
00000000
00000000
00000000
00000000
;

//---------------dance-double - ----------------
#NOTES:
     dance-double:
     :
     Medium:
     7:
     0.365,0.343,0.116,0.052,0.000:
00000000
00000000
00000000
00000000
,
00000000
00000000
00000000
00000000
,
00000000
00000000
00000000
00000000
,
00010010
00001000
00000100
00001000
,
00010000
00010010
00001000
00000100
,
00000001
00000010
00001000
00000010
,
00000110
00000000
00000010
00010000
00000010
00001000
00000100
00000000
,
00000010
00001000
00010000
01000000
,
01100000
00000000
00100000
00001000
00100000
00010000
01000000
00000000
,
00100000
00001000
00010000
01000000
,
01100000
00000000
00100000
00001000
00100000
00010000
01000000
00000000
,
00100000
00010000
00001000
00000100
,
00000110
00000000
00000010
00010000
00000010
00001000
00000100
00000000
,
00000001
00000100
00001000
00000100
,
00000001
00000100
00001000
00010000
,
00100000
00010000
00001000
00010000
,
01000000
00000000
00010000
00001000
00000100
00001000
00010000
00000000
,
00010010
00001000
00000010
00000001
,
00000100
00000000
00001000
00010000
01000000
00010000
00001000
00000000
,
00010100
00001100
00001000
00000010
,
00000100
00000000
00001000
00010000
01000000
00010000
00001000
00000000
,
00010000
00100000
10000000
01000000
,
01000000
00000000
00010000
00001000
00000100
00001000
00010000
00000000
,
00100000
00000000
10000000
00000000
01000000
10000000
01000000
00000000
,
00010000
00000000
00001000
00000000
00000100
00001000
00000100
00000000
,
00000001
00000000
00000010
00000000
00001000
00000010
00001000
00000000
,
00010000
00000000
01000000
00000000
00010000
00001000
00010000
00000000
,
00000100
00000000
00000001
00000000
00000100
00000001
00000100
00000000
,
00001000
00000000
00010000
00000000
01000000
00010000
01000000
00000000
,
10000000
00000000
01000000
00000000
00010000
01000000
00010000
00000000
,
00001000
00000000
00000100
00000000
00001000
00010000
00001000
00000000
,
00000010
00000001
00000100
00001000
,
00010000
00100000
10000000
01000000
,
00200000
00010000
10300000
00100000
,
00010000
00001000
00000100
00000000
00001000
00000100
00000001
00000000
,
00000200
00000001
00001300
00000100
,
00000010
00010000
00001000
00000000
00100000
00001000
00010000
00000000
,
02000000
00010000
03100000
01000000
,
00010000
00001000
00000100
00000000
00001000
00010000
01000000
00000000
,
20000000
00100000
31000000
10000000
,
01000000
00010000
00001000
00000000
00000100
00010000
00001000
00000100
,
00000000
00000000
00000000
00000000
;

//---------------dance-double - ----------------
#NOTES:
     dance-double:
     :
     Hard:
     10:
     0.459,0.422,0.310,0.103,0.000:
00000000
00000000
00000000
00000000
,
00000000
00000000
00000000
00000000
,
00000000
00000000
00000000
00000000
,
00100000
00001000
01000000
00000000
00100000
00010000
01000000
00000000
,
00100000
10000000
01000000
00000000
00100000
00001000
01000000
00000000
,
01001000
00000000
00011000
00000000
00010000
00002000
00000010
00000000
,
00013000
00000000
00000010
00001000
00010000
00001000
00000100
00000000
,
00000110
00000000
00010010
00000000
00001000
00020000
01000000
00000000
,
00031000
00000000
00010000
01000000
10000000
01000000
00010000
00000000
,
11000000
00000000
00110000
00000000
00001000
00200000
00010000
00000000
,
10300000
00000000
00100000
00001000
00010000
00001000
00000100
00000000
,
00001100
00000000
00000110
00000000
00000001
00002000
00000010
00000000
,
00003100
00000000
00000010
00001000
00010000
01000000
10000000
00000000
,
11000000
00010000
00110000
00001000
,
00011000
00000100
00001100
00000001
,
00000011
00000000
00001000
00000000
00000010
00010000
00001000
00010000
,
00000010
00000000
00000100
00010000
00001000
00010000
00000100
00000000
,
00001100
00000000
00000001
00000000
00000100
00010000
00001000
01000000
,
00010000
00000000
10000000
01000000
00010000
01000000
10000000
00000000
,
10010000
00000000
00100000
00000000
00100000
00010000
01000000
00100000
,
00010000
00000000
01000000
00010000
00100000
01000000
10000000
00000000
,
01100000
00000000
00010000
00000000
00001000
00000100
00000010
00001000
,
00000100
00000000
00010000
00000010
00001000
00000100
00010000
00000000
,
00001000
00000100
00000001
00000010
,
00001000
00000100
00000001
00000010
,
00000001
00000100
00002000
00000000
00010000
00000000
00003100
00000000
,
00010000
00001000
00000100
00000000
00001000
00010000
01000000
00000000
,
00100000
00002000
01000000
00000000
00010000
00000000
00003100
00000000
,
00000001
00000010
00001000
00000000
00010000
00100000
01000000
00000000
,
10000000
00200000
00010000
00000000
01000000
00000000
10300000
00000000
,
01000000
00010000
00100000
00000000
01000000
00001000
00100000
00000000
,
00010000
00200000
00001000
00000000
00010000
00000000
00301000
00000000
,
00010000
01000000
10000000
00000000
10000000
01000000
00010000
00000000
,
00110000
00010000
01000000
00000000
00110000
00010000
01000000
00000000
,
10000000
00100000
00010000
00001000
00000010
00000001
00000100
00000000
,
00001010
00001000
00000100
00000000
00001010
00001000
00000100
00000000
,
00000010
00010000
00001000
00100000
00001000
01000000
00010000
00000000
,
11000000
01000000
00010000
00000000
11000000
01000000
00010000
00000000
,
10000000
01000000
00010000
00001000
01000000
00010000
00000100
00000000
,
00001100
00000100
00000001
00000000
00001100
00000100
00000001
00000000
,
00000001
00000010
00001000
00010000
00100000
10000000
01000000
00010000
,
00000000
00000000
00000000
00000000
;

//---------------dance-single - ----------------
#NOTES:
     dance-single:
     :
     Challenge:
     11:
     0.468,0.530,0.232,0.090,0.006: // measure 1
0000
0000
0000
0000
,  // measure 2
0000
1000
0000
0000
0010
0000
0000
0000
,  // measure 3
0100
0001
0010
0100
,  // measure 4
1000
1000
1001
0000
0010
0010
0100
0000
,  // measure 5
0010
0001
1000
2000
,  // measure 6
0010
0000
0100
0000
0001
0010
0100
0000
,  // measure 7
0001
0010
3100
0000
0010
0110
0001
0000
,  // measure 8
2000
0000
0010
3000
0100
0000
0010
0000
,  // measure 9
0110
0110
0110
0001
1000
0010
0100
0010
,  // measure 10
0001
1000
0010
0001
1000
0001
0010
0001
,  // measure 11
1000
0001
0000
0010
0001
0000
0010
0000
,  // measure 12
1000
0100
1000
0100
1000
0100
1000
0100
,  // measure 13
1000
0010
1000
0010
1000
0010
1000
0010
,  // measure 14
1000
0100
1000
0100
1000
0100
1000
0100
,  // measure 15
0010
0001
0010
0001
0010
0001
0010
0001
,  // measure 16
0010
0001
0100
0001
0100
0001
0001
0010
,  // measure 17
0001
0010
0001
0010
0201
0000
0000
0000
,  // measure 18
1000
0000
1000
0010
0001
0000
1000
0010
,  // measure 19
0301
0000
0010
0100
0000
1000
1000
1000
,  // measure 20
0010
0000
0100
0100
0100
0000
1000
1000
,  // measure 21
1000
0000
0001
0001
0001
0000
0010
0010
,  // measure 22
0010
0000
0100
0100
0100
0000
1000
1000
,  // measure 23
1000
0000
0100
0100
0100
0000
0010
0010
,  // measure 24
0010
0000
0001
0001
0001
0000
0001
0001
,  // measure 25
0001
0000
0001
0001
0001
0000
0001
0001
,  // measure 26
0001
0000
0010
0010
0010
0000
0010
0010
,  // measure 27
0010
0000
0010
0010
0010
0000
0010
0010
,  // measure 28
0010
0000
1000
1000
1000
0000
0100
0100
,  // measure 29
0100
0000
0010
0010
0010
0000
0001
0001
,  // measure 30
0001
0000
1000
1000
0010
0100
0010
0001
,  // measure 31
0010
0100
0010
0100
0000
0010
0000
0002
,  // measure 32
0000
1000
0003
2000
,  // measure 33
0000
0000
0001
0000
0000
3000
0000
0000
,  // measure 34
1100
0010
0101
0011
,  // measure 35
0101
0101
0010
0100
0010
0100
0010
0000
,  // measure 36
0100
0010
0100
0000
0010
0100
0000
0000
,  // measure 37
0200
0000
0000
0000
0010
0010
0010
0000
,  // measure 38
0000
0000
0010
0010
0010
0010
0300
0002
,  // measure 39
0000
1000
0013
0000
0110
0100
0010
0001
,  // measure 40
0010
0100
1000
0001
0010
0100
1000
0000
,  // measure 41
1001
0000
0000
0000
1001
0000
0000
0000
1001
0000
0000
0000
1001
0000
0000
1001
,  // measure 42
0000
1001
0000
0000
0000
0000
0000
0000
;
