#TITLE:WILD;
#SUBTITLE:;
#ARTIST:9MUSES;
#TITLETRANSLIT:;
#SUBTITLETRANSLIT:;
#ARTISTTRANSLIT:;
#GENRE:;
#CREDIT:wild_muses;
#BANNER:wild.png;
#BACKGROUND:wildbkg.png;
#LYRICSPATH:;
#CDTITLE:;
#MUSIC:02 Wild.mp3;
#OFFSET:0.413;
#SAMPLESTART:100.000000;
#SAMPLELENGTH:12.000000;
#SELECTABLE:YES;
#BPMS:0.000000=133.000000
;
#STOPS:
;
#BGCHANGES:0.000=Wild.avi=1.000=0=0=0=StretchNoLoop====,
99999=-nosongbg-=1.000=0=0=0 // don't automatically add -songbackground-
;
#KEYSOUNDS:;
#ATTACKS:;

//---------------dance-single - ----------------
#NOTES:
     dance-single:
     :
     Hard:
     11:
     0.604193,0.737462,0.135382,0.963923,0.368240,578.000000,25.000000,178.000000,224.000000,1.000000,14.000000,0.604193,0.737462,0.135382,0.963923,0.368240,578.000000,25.000000,178.000000,224.000000,1.000000,14.000000:
// measure 0
0000
0000
0000
0000
,  // measure 1
0000
0000
0020
0000
0000
0030
1000
0000
0000
0000
1000
0000
0000
0000
0000
0000
,  // measure 2
0000
0000
0010
1000
0010
0002
0003
1000
,  // measure 3
0000
M100
0000
1000
0000
0010
0000
0000
,  // measure 4
0010
0100
01M0
0000
0010
0010
0000
1000
,  // measure 5
0000
M100
0000
1000
0000
0001
0000
0000
,  // measure 6
0000
0000
0000
0000
2000
3000
0001
0000
1000
0000
0020
0000
0030
0000
0010
0000
,  // measure 7
0000
10M0
0000
0010
0000
0001
0000
0000
,  // measure 8
0010
0000
0000
0000
0440
0000
0000
0330
1000
0000
0000
0000
M200
0300
M000
0000
,  // measure 9
0100
0000
1000
0000
1000
0000
0200
0000
0010
0000
0002
0000
00M0
0303
0000
0000
,  // measure 10
2000
3000
0002
0003
M000
M000
0000
0000
2000
0000
3000
0000
0020
0000
0030
0000
,  // measure 11
0100
00M0
0100
0000
0010
0000
0010
0000
2000
3000
0002
0000
0000
0000
0003
0000
,  // measure 12
0200
0300
0020
0030
0000
0000
0000
0000
2000
0000
3000
0000
2000
0000
0000
0000
,  // measure 13
3100
0000
0100
0000
0001
0M00
0010
0000
0100
0000
1000
0000
0000
0000
0200
0300
,  // measure 14
0200
0300
0200
0300
0000
0M00
0020
0030
0020
0030
0020
0030
0000
0000
00M1
0000
,  // measure 15
0100
0000
1000
0M00
0010
0000
01M0
0000
0010
0000
0001
0010
0100
2000
0000
3000
,  // measure 16
0000
0000
1000
0000
0010
0000
0100
00M0
0001
0000
0020
0000
0000
0030
0200
0000
,  // measure 17
0300
2000
0000
3010
0002
02M0
0303
0000
,  // measure 18
0000
0000
0010
0000
02M0
0000
0020
0300
0031
0000
2000
0M00
0000
3000
0100
0000
,  // measure 19
0000
0000
0000
0000
0000
0000
0020
0000
0000
0030
0000
0000
0000
0000
0000
0000
00M0
0000
0200
0000
0000
0000
0000
0000
0310
0000
0000
0000
0000
0000
0020
0000
0000
0000
0000
0000
0000
0000
0000
0030
0000
0000
0000
0000
0000
0000
0000
0000
,  // measure 20
0000
0000
0000
1000
0000
0000
0001
0000
0000
0010
0000
M000
0100
0000
0000
2000
0000
0000
0000
0000
0000
3010
0000
0000
,  // measure 21
0000
0002
0000
1003
0020
0230
0000
0300
,  // measure 22
0000
0000
0010
0000
2000
0000
0000
0000
3002
0000
0000
0000
0203
M000
0000
0000
,  // measure 23
2300
0000
3M10
0000
0020
0000
0130
0000
0002
0000
0013
0100
0010
0200
0000
0300
,  // measure 24
0000
0000
0002
0000
2003
0000
3000
0000
0010
0000
0200
00M0
0300
0000
0010
0000
,  // measure 25
1000
0200
0300
0M10
0002
0203
0000
0300
,  // measure 26
0000
0000
1M00
0000
0020
0000
0130
0000
0010
0000
0002
0000
0003
0000
0200
0300
,  // measure 27
2000
3000
0020
0000
0000
0030
2000
00M0
0002
3000
4003
0000
0000
0000
3000
0000
,  // measure 28
0000
0000
0020
0000
2030
0000
3001
0000
0100
0000
0002
0000
0000
0003
1000
0000
,  // measure 29
0001
0000
0200
0000
0000
0300
0001
0000
0020
0000
4030
0000
0000
0000
3000
0000
,  // measure 30
0000
M000
0020
0000
4030
0000
0000
0000
3001
0000
0000
0000
0004
0000
0000
0000
,  // measure 31
1003
0000
0000
0000
0020
0030
0020
0030
0020
0030
1000
0100
0010
0001
0000
0000
,  // measure 32
0000
0000
0000
0000
1000
0000
1000
0000
1000
0000
0020
0000
0230
0000
0300
00M0
,  // measure 33
0001
0000
0000
0000
0000
0000
0010
0000
0000
0001
0000
0000
0200
0000
0000
0300
0000
0000
1000
0000
0000
1000
0000
0000
0000
0000
1000
0000
0000
0000
0010
0000
0000
0100
0000
0000
0010
0000
0000
0100
0000
0000
0020
0000
0000
0030
0000
0000
,  // measure 34
0001
0000
0000
0000
0000
0000
0000
0000
0000
0000
0000
0000
0000
0000
0000
0000
0000
0000
0000
0000
0000
0000
0000
0000
1000
0000
0000
0000
0000
0000
0000
0000
0000
0000
0000
0000
0100
0000
0000
0000
0000
0000
0000
0000
0000
0000
0000
0000
0010
0000
0000
0000
0000
0000
0000
0000
0000
0000
0000
0000
0000
0000
0000
0000
0000
0000
0000
0000
0000
0000
0000
0000
0001
0000
0000
0000
0000
0000
0000
0000
0000
0000
0000
0000
M000
0000
0000
0000
0000
0000
0000
0000
0000
0000
0000
0000
0010
0000
0000
0000
0000
0000
0000
0000
0000
0000
0000
0000
0000
0000
0000
0000
0100
0000
0000
0000
0000
0000
0000
0000
0000
0000
0000
0000
0000
0000
0000
0000
0000
0000
0000
0000
0000
0000
0000
0000
0000
0000
1000
0000
0000
0000
0000
0000
0000
0000
0000
0000
0000
0000
0000
0000
0001
0000
0000
0000
0M00
0000
0000
0000
0000
0000
0000
0000
0000
0000
0000
0000
1000
0000
0000
0000
0000
0000
0000
0000
0001
0000
0000
0000
0000
0000
0000
0000
0000
0000
0000
0000
0000
0000
0000
0000
,  // measure 35
0010
0000
0000
0000
0000
0000
0000
0000
0000
0000
0000
0000
0000
0000
0000
0000
0100
0000
0000
0000
0000
0000
0000
0000
0000
0000
0000
0000
0000
0000
0000
0000
0000
0000
0000
0000
0001
0000
0000
0000
0000
0000
0000
0000
0000
0000
0000
0000
0001
0000
0000
0000
0000
0000
0000
0000
0000
0000
0000
0000
0000
0000
0000
0000
0000
0000
1000
0000
0000
0000
0000
0000
0000
0000
0000
0000
0000
0000
1000
0000
0000
0000
0000
0000
0000
0000
0000
0000
0000
0000
1000
0000
0000
0000
0000
0000
00MM
0000
0000
0000
0000
0000
0000
0000
0000
0000
0000
0000
1000
0000
0000
0000
0000
0000
0000
0000
0000
0000
0000
0000
0000
0000
0000
0000
0000
0000
0000
0000
0000
0000
0000
0000
0000
0000
0000
0000
1100
0000
0000
0000
0000
0000
0000
0000
0000
0000
0000
0000
0000
0000
0000
0000
0011
0000
0000
0000
0000
0000
0000
0000
0000
0000
0000
0000
0000
0000
0000
0000
1100
0000
0000
0000
0000
0000
0000
0000
0000
0000
0000
0000
0000
0000
0000
0000
0011
0000
0000
0000
0000
0000
0000
0000
,  // measure 36
0000
0000
0000
0000
0000
1001
0M00
0000
1001
0000
1001
0000
0010
0000
0000
0100
0000
0000
0002
0000
0000
0000
0000
0103
,  // measure 37
0000
0000
0000
0000
0000
0000
1000
0000
0000
00M0
0000
0000
0001
0000
0000
0000
0000
0000
1000
0000
0100
0000
0000
0000
0010
0000
0000
0000
0001
0000
0000
0000
0000
0000
4000
0000
0000
0000
0000
0000
3000
0000
0004
0000
0000
0000
0000
0000
,  // measure 38
00M3
0000
0000
0000
0100
0000
0000
0000
0000
0000
1000
0000
0000
0000
0000
0000
0100
0000
0000
0000
0010
0000
0000
0000
0001
0000
0000
M010
0000
0000
0001
0000
0000
0000
0000
0000
0400
0000
0000
0000
0000
0000
0300
0000
0010
0000
0000
0000
,  // measure 39
1000
0000
0000
0000
0000
0000
0000
0000
0000
0000
0000
0000
0010
0000
0000
0000
0000
0000
0000
0000
0000
0000
0000
0000
0001
0000
0000
0000
0000
0000
0000
0000
0000
0000
0000
0000
0100
0000
0000
0000
0000
0000
0000
0000
0000
0000
0000
0000
0001
0000
0000
0000
0000
0000
0000
0000
0000
0000
0000
0000
0000
0000
0000
0000
0000
0000
0000
0000
0010
0000
0000
0000
0000
0000
0000
0000
0000
0000
0000
0000
1000
0000
0000
0000
0000
0000
0000
0000
0000
0000
0000
0000
0000
0000
0000
0000
0100
0000
0000
0000
0000
0000
0000
0000
0000
0000
0000
0000
010M
0000
0000
0000
0000
0000
0000
0000
0000
0000
0000
0000
0000
0000
0000
0000
0100
0000
0000
0000
0000
0000
0000
0000
0000
0000
0000
0000
0000
0000
0000
0000
0000
0000
0000
0000
0000
0000
0000
0000
0000
0000
0000
0000
0000
0000
0000
0000
0010
0000
0000
0000
0000
0000
0000
0000
0000
0000
0000
0000
0000
0000
0000
0000
0000
0000
0001
0000
0000
0000
0000
0000
M000
0000
0000
0000
0000
0000
0000
0000
0000
0000
0000
0000
,  // measure 40
0010
0000
0000
0001
0000
0000
0000
0000
0000
0000
0000
0000
0000
0000
0000
0000
0020
0000
0000
0000
0030
0000
0000
0000
2000
0000
0000
0000
3000
0000
0000
0010
,  // measure 41
0000
0000
0000
0010
0000
0000
0000
0000
0010
0000
0000
0000
0010
0000
0000
0000
0200
0000
00M0
0000
2300
0000
0000
0000
3000
0000
0000
0000
0000
0000
0000
0000
,  // measure 42
0002
0003
2000
3000
000M
0000
0000
0000
0001
0000
0000
0000
0010
0000
0000
0000
,  // measure 43
01M0
0000
0000
0000
1000
0000
0000
0000
0010
0000
0000
0000
0010
0000
0000
0000
0010
0000
0000
0000
0020
0000
0000
0030
0000
0000
0000
0000
0000
0000
0000
0000
,  // measure 44
02M2
0303
2020
3M30
0000
0000
0000
0000
02M0
0000
0300
0000
0020
0000
0000
0000
,  // measure 45
103M
0100
0001
0100
0001
0100
0000
0010
,  // measure 46
1M0M
0010
0000
0100
M001
0100
M000
0100
,  // measure 47
M01M
0100
0010
0100
0010
0200
0300
0000
,  // measure 48
1001
0000
0010
0000
1000
0000
0100
0000
0001
0000
0020
0000
MM00
0030
0020
0000
,  // measure 49
0000
0030
2000
0000
0000
3000
0020
0000
0230
0000
0301
0000
0000
0000
0000
0000
,  // measure 50
MM00
0000
0001
0000
0010
0000
0100
0000
1000
0000
0002
0000
0MM0
0003
2000
0000
,  // measure 51
0000
3000
2000
0000
00M0
0000
3200
0000
0320
0000
0032
0000
0003
0000
M000
0000
,  // measure 52
0000
0010
010M
0010
0100
0002
M000
0103
,  // measure 53
0000
0000
0022
0000
0033
0000
1100
00MM
0100
0000
2200
0000
0000
0000
33MM
0000
,  // measure 54
0000
0002
1MM3
0000
0200
0000
M31M
0000
,  // measure 55
0020
0130
M001
M001
0001
4000
00MM
30MM
,  // measure 56
0000
0000
0010
0001
0001
0000
0010
1000
000M
0010
1000
0000
0001
0000
M001
0001
,  // measure 57
0000
0000
0000
0000
1000
0000
0010
0000
100M
0000
0000
0000
00M0
1000
0000
0000
0000
1000
0000
0000
0010
0000
0000
0001
MM00
0000
0000
0010
MM00
0001
0000
0000
,  // measure 58
0000
0000
0000
0000
01M0
0000
0000
0000
1000
0000
0000
1000
0000
0000
0010
0000
0000
0000
0100
0000
0100
0000
0100
0000
1000
0000
0000
1000
00MM
0000
1000
0000
,  // measure 59
0000
1000
0100
0010
0001
0010
0100
1000
0100
0010
0001
0010
0100
0000
1000
0100
,  // measure 60
0000
0000
0000
2MM2
0000
0000
3003
0220
0000
0000
2332
0000
0000
3003
0020
0000
,  // measure 61
0230
0000
0000
0000
0000
0000
0000
0000
0000
0000
0000
0000
0000
0000
0000
0000
0000
0000
0000
0000
0000
0000
0000
0000
M300
0000
0000
0000
0000
0000
0000
0000
0000
0000
0000
0000
0000
0000
0000
0000
0001
0000
0000
0000
0000
0000
0000
0000
0000
0000
0000
0000
0000
0000
0000
0000
0000
0000
0000
0000
0000
0000
0000
0000
0100
0000
0000
0000
0000
0000
0000
0000
0000
0000
0000
0000
0000
0000
0000
0000
0000
0000
0000
0000
0000
0000
0000
0000
1000
0000
0000
0000
0000
0000
0000
0000
000M
0000
0000
0000
0000
0000
0000
0000
0010
0000
0000
0000
0000
0000
0000
0000
0000
0000
0000
0000
0000
0000
0000
0000
0010
0000
0000
0000
0000
0000
0000
0000
0000
0000
0000
0000
0000
0000
0000
0000
0000
0000
0100
0000
0000
0000
0000
0000
0000
0000
0000
0000
0000
0000
1000
0000
0000
0000
0000
0000
0000
0000
0000
0000
0000
0000
0001
0000
0000
0000
0000
0000
0000
0000
0000
0000
0000
0000
0000
0000
0000
0000
0000
0000
0000
0000
0000
0000
0000
0000
0010
0000
0000
0000
0000
0000
,  // measure 62
0000
0000
1000
0001
0010
0000
0100
0100
M00M
0100
0100
0000
0010
M001
0010
0001
,  // measure 63
0010
0000
1000
0100
0001
0000
1000
0100
0010
0001
1000
0010
0001
0100
0010
0000
,  // measure 64
1001
0200
0302
0003
2000
3020
0M00
0032
,  // measure 65
1003
0400
0000
0310
0002
1003
0000
0MM0
,  // measure 66
0000
0000
1000
0000
0100
0000
0010
0000
0001
0000
2000
00M0
0000
0000
3100
0000
,  // measure 67
0010
0002
0000
1003
0200
0310
0000
0000
,  // measure 68
00M0
0000
1000
0000
0100
0000
0010
0000
0001
0000
2000
00M0
0000
0000
3100
0000
,  // measure 69
0010
0000
0002
0000
0000
0MM0
1003
0000
2000
0000
0002
0MM0
0000
0000
3003
0000
,  // measure 70
0000
0000
M010
0000
0200
0000
0000
000M
1300
0000
0000
0000
0020
0000
0000
0000
,  // measure 71
M031
0000
0000
0000
0010
0000
010M
0000
1000
0000
0004
0000
0000
MM00
0000
MM00
,  // measure 72
0000
MM00
0003
MM00
0000
0000
0000
0000
10MM
0000
00MM
0000
02MM
0000
00MM
0300
,  // measure 73
0100
0000
0000
0000
0002
0M00
0000
0000
1003
0000
0020
0000
0000
0000
0000
0000
,  // measure 74
0130
0000
1000
0000
0000
00MM
0000
00MM
2000
0000
0000
0000
3100
0000
0010
0000
,  // measure 75
M001
0000
0010
0000
0200
0000
0000
M000
0301
0000
0020
M000
0M00
0000
000M
0000
,  // measure 76
0130
0000
0010
0000
0000
0000
0000
00MM
0200
0000
0000
0000
130M
0000
0010
0000
,  // measure 77
0010
0000
MM10
0000
0002
0000
0000
0000
1003
00M0
2000
0000
0000
0000
3100
0000
,  // measure 78
0000
0000
0202
0000
0000
0000
0303
0000
1010
0000
0202
0000
0000
M0M0
0303
0000
,  // measure 79
0101
0000
0220
0000
0000
M00M
0330
0000
0110
0000
0000
0000
0000
0000
0020
MM00
,  // measure 80
0000
MM31
0000
0000
MMMM
MMMM
MMMM
0000
,  // measure 81
0000
10MM
0100
0010
0001
0MM2
0000
1003
,  // measure 82
0100
200M
0000
3M20
0032
1003
0000
MMMM
,  // measure 83
0000
0000
2000
0000
3010
0000
0001
0M00
0010
0000
2000
0000
0000
00MM
3100
0000
,  // measure 84
1000
0020
MM00
MM31
MM10
0001
0000
MMMM
,  // measure 85
0000
0100
M10M
0100
0010
0002
0MM0
1003
,  // measure 86
0100
0020
M000
0031
0100
1000
0000
MMMM
,  // measure 87
0000
0000
0100
0000
0200
M0MM
0000
0300
0100
0000
0000
0000
M2MM
0000
0000
0300
,  // measure 88
0100
0000
0000
0000
M001
0000
0010
0000
0100
0000
4000
0000
00MM
0000
0000
3000
,  // measure 89
0000
0020
MM31
0000
0002
0103
0000
100M
,  // measure 90
1000
0020
0000
M130
0001
0002
MM00
0003
,  // measure 91
0000
0000
1000
0000
0010
0M00
1000
0000
0010
0000
0002
0000
M003
0000
0200
0000
,  // measure 92
0320
0032
M000
0023
0230
2300
000M
3000
,  // measure 93
0000
1000
01MM
1000
0100
0020
M000
0032
,  // measure 94
0023
0230
0000
2300
32MM
2300
3000
0000
,  // measure 95
MM00
0001
M020
0000
0130
0000
20MM
0000
,  // measure 96
3100
0000
M001
0010
0100
4000
00MM
3000
,  // measure 97
0000
0000
1000
0100
0000
1000
0000
0100
,  // measure 98
0000
0001
0000
0001
0010
0001
0000
0000
,  // measure 99
0000
0000
1000
0100
1000
0100
0000
1000
,  // measure 100
0000
0010
0000
0100
0000
2002
0000
3003
;
