#TITLE:Wiggle Wiggle;
#SUBTITLE:;
#ARTIST:Hello Venus;
#TITLETRANSLIT:;
#SUBTITLETRANSLIT:;
#ARTISTTRANSLIT:;
#GENRE:;
#CREDIT:wild_muses;
#BANNER:wigglebn.png;
#BACKGROUND:wigglebg.png;
#LYRICSPATH:;
#CDTITLE:;
#MUSIC:Wiggle Wiggle.mp3;
#OFFSET:-2.610000;
#SAMPLESTART:62.015942;
#SAMPLELENGTH:12.000000;
#SELECTABLE:YES;
#BPMS:0.000000=101.000000
;
#STOPS:
;
#BGCHANGES:0.000=Wiggle Wiggle.avi=1.000=0=0=0=StretchNoLoop====,
99999=-nosongbg-=1.000=0=0=0 // don't automatically add -songbackground-
;
#KEYSOUNDS:;
#ATTACKS:;

//---------------dance-single - ----------------
#NOTES:
     dance-single:
     :
     Hard:
     11:
     0.513718,0.555916,0.289448,0.210954,0.463608,631.000000,59.000000,43.000000,47.000000,0.000000,10.000000,0.513718,0.555916,0.289448,0.210954,0.463608,631.000000,59.000000,43.000000,47.000000,0.000000,10.000000:
// measure 0
0000
0000
0000
0000
0000
0000
0000
0000
0000
0000
0000
0000
0000
0000
0010
1M00
,  // measure 1
0010
0000
0000
0010
0000
0000
0100
0000
0000
1000
0000
0000
0000
0000
0001
0000
,  // measure 2
0001
0000
0000
0010
0000
0000
01M0
0000
0000
0010
0000
0000
0000
0000
1000
0000
,  // measure 3
0100
0000
0000
0100
0000
0000
0M01
0000
0000
0100
0000
0000
1000
0000
0100
0010
,  // measure 4
0000
0000
0000
0000
0000
0001
0100
0000
0010
0010
1000
0100
0000
0000
0000
0000
,  // measure 5
0000
0000
0000
0000
0000
0000
0001
0100
1000
0000
1000
0000
0000
0000
0000
0000
,  // measure 6
0000
0000
0010
1000
0010
0001
M010
0100
0000
1000
0000
1000
0000
0000
0000
0000
,  // measure 7
0000
0000
0100
0000
0010
0000
0200
0000
0300
0000
0000
0000
1000
0001
0000
0000
,  // measure 8
0000
0000
0100
0000
0000
0100
0000
0000
0100
0000
0010
0000
0100
0000
1000
0001
,  // measure 9
0000
0000
001M
0000
0000
0010
0000
0000
0010
0000
0100
0000
0010
0000
0001
10M0
,  // measure 10
0000
0000
1000
0000
0000
1000
0000
0000
1000
0000
0010
0000
1000
0000
0100
0001
,  // measure 11
M000
0000
0101
0000
0000
1100
0000
0000
0010
0000
0001
0000
0100
M001
0000
0000
,  // measure 12
1000
0010
1000
0010
0000
0000
0100
0000
0100
0000
0100
0000
0010
0000
0001
0010
,  // measure 13
0001
0100
0001
0100
0000
0000
1000
0000
1000
0000
1000
0000
0010
M000
0001
0000
,  // measure 14
1000
0100
1000
0100
0000
0000
0010
0000
0001
0000
0010
0000
1000
0000
00M1
0000
,  // measure 15
1000
0100
0010
0001
0000
0000
1000
000M
1000
0100
0010
0001
0000
0000
0000
0000
,  // measure 16
0100
0001
0010
0001
0000
0000
1000
0000
0001
0000
0010
0000
1000
0000
1000
0100
,  // measure 17
0010
0100
0010
0100
0000
0000
00M1
0000
0100
0000
0010
0000
1000
0000
0100
0000
,  // measure 18
0001
0100
1000
0010
0000
0000
0001
0000
0010
0000
0100
0000
1000
0000
1000
0000
,  // measure 19
0100
0010
0001
1000
0000
0000
1000
0000
0001
0010
0100
1000
0000
0000
0000
0000
,  // measure 20
0000
0000
0010
0000
1000
0000
0001
1000
0100
0000
0100
0000
0010
1M00
0010
0000
,  // measure 21
0002
0000
0000
0003
1000
0000
0100
0000
0010
0000
0000
0040
0000
0000
0030
0000
,  // measure 22
0000
0000
0010
0000
0010
0000
1000
0001
01M0
0000
0001
0000
1000
000M
0100
0000
,  // measure 23
0002
0000
0003
0004
0000
0000
0000
0003
0000
0000
000M
0000
1000
0100
0010
0100
,  // measure 24
0100
0000
0010
0000
0100
0000
00M2
0000
0203
0000
0310
0001
0000
0000
0100
0000
,  // measure 25
0100
0000
1000
0000
0200
0000
M000
0310
0000
M000
0000
0000
0010
1000
0000
0001
,  // measure 26
0000
0000
0000
0000
0100
0100
0000
002M
0000
0030
0002
0000
0013
0000
1000
0000
,  // measure 27
0100
0000
0010
0000
0002
0000
0000
0000
0000
0003
0000
0000
0400
0000
0000
0300
,  // measure 28
1000
0000
1M1M
0000
1000
0000
0011
0000
0001
0000
0011
0000
1000
0100
1000
0400
,  // measure 29
0000
0000
0000
0000
0000
0300
0M00
0000
,  // measure 30
1001
0000
0110
0000
1001
0000
0110
0000
0011
0000
1100
0000
0010
0001
0010
0004
,  // measure 31
0000
0000
0000
0000
0000
0003
000M
0000
,  // measure 32
1000
0010
0010
1000
0000
0000
0010
0000
0100
0000
0010
0000
0001
0000
0010
0001
,  // measure 33
1000
0100
01M0
1000
0000
0000
0010
0000
0110
0000
0010
0000
0110
0000
0100
0000
,  // measure 34
0010
0100
0100
0010
0000
0000
0101
0000
0011
0000
1001
0000
0101
0000
0011
0000
,  // measure 35
1000
0100
1000
1000
0000
0000
00M1
0000
0001
0010
0001
0010
0000
0000
0000
0000
,  // measure 36
1000
0010
0100
0001
0000
0000
1100
0000
0110
0000
0011
0000
1M00
0000
0010
0001
,  // measure 37
1000
0100
0010
0001
M000
0000
0110
0000
110M
0000
0110
0000
M011
0000
0110
0000
,  // measure 38
1000
1000
0001
0001
0000
0000
0010
0000
1000
0000
0001
0000
0010
0000
0100
0000
,  // measure 39
100M
1000
0010
0M10
0000
0000
1001
0000
1100
0100
0010
0002
0000
0000
0003
0000
,  // measure 40
0000
0000
0000
0000
1100
0000
0010
0000
0002
0000
1003
0100
0000
01M0
0001
0000
,  // measure 41
0000
0000
0000
0000
0101
0000
0010
0000
0200
0000
1300
0100
0000
0010
0001
0000
,  // measure 42
0000
0000
0000
0010
0100
0000
1001
0000
0220
0000
0330
0000
0002
0000
0013
0100
,  // measure 43
0000
1000
00M0
0100
1000
0100
0010
0000
0010
0000
0110
0000
0220
0000
0000
0330
,  // measure 44
0000
0000
0000
0000
0001
1000
0000
0000
1000
0001
0000
0000
0200
0300
0200
0300
,  // measure 45
0200
0000
0300
0000
0010
0100
0000
0000
0010
0100
0000
0000
0022
0033
0022
0033
,  // measure 46
0022
0000
0033
0000
1000
0000
0100
0000
0010
0000
0001
0000
0011
0000
0001
1000
,  // measure 47
0000
0100
0000
0000
0110
0000
0001
0001
1000
0000
0010
0000
0100
0000
0100
0000
,  // measure 48
0100
1000
0100
0010
0001
0010
0100
1000
0100
0000
0010
0002
0000
0000
0003
0000
,  // measure 49
0000
0100
1000
0100
0010
0100
0010
0100
0001
0000
0010
0001
0000
0000
0001
1000
,  // measure 50
0100
0100
0000
0010
0001
0010
0001
0000
0100
0000
1000
0200
0000
0000
0300
0000
,  // measure 51
0000
0000
0001
1000
0010
0100
0001
0000
0001
0000
0001
0001
0000
0000
0010
0000
,  // measure 52
0010
0000
1000
0000
1000
0000
0001
0001
0001
0000
0010
0100
1000
1000
0000
0001
,  // measure 53
0100
0001
0100
0100
0001
0000
0010
0100
1000
0000
0000
0000
1000
0010
1000
0010
,  // measure 54
0001
0001
0010
0100
1000
0100
1000
1000
1000
0000
0000
0000
0001
0010
0001
0010
,  // measure 55
0001
0010
0100
1000
0001
0100
0001
0010
0010
0000
0000
0000
0200
0000
0000
0300
,  // measure 56
0000
0000
0001
0000
0010
0000
0001
1000
0100
0000
0100
0000
0010
0001
0100
0000
,  // measure 57
0400
0000
0000
0300
0010
0M00
0010
0000
0002
0000
0003
0004
0000
0000
0003
0000
,  // measure 58
000M
0000
1000
0000
0010
0000
1000
0100
0001
0000
0010
0000
0100
0000
0100
0000
,  // measure 59
2000
0000
3000
0040
0000
0000
0030
0000
00M0
0000
0000
0000
0001
0010
0100
1000
,  // measure 60
0100
0000
0010
0000
0001
0000
0100
0000
2000
0000
3100
0020
M000
0030
0001
00M0
,  // measure 61
0001
0000
0100
0000
0020
0000
0030
0100
0000
0000
0000
0000
1000
0100
0000
1000
,  // measure 62
0000
0000
0000
0000
0010
0100
0000
0001
0000
0000
0001
0000
0001
0000
0010
0000
,  // measure 63
0010
0010
02M0
0000
0300
0000
0020
0030
,  // measure 64
0101
0000
0011
0000
0101
0000
1100
0000
1010
0000
1100
0000
0100
0001
0100
0004
,  // measure 65
0000
0000
0000
0000
0000
0003
000M
0000
,  // measure 66
1100
0000
1001
0000
0011
0000
0110
0000
1100
0000
1001
0000
0010
0001
0010
0004
,  // measure 67
0000
0000
0000
0000
0000
0003
000M
0000
,  // measure 68
1000
0010
0100
0010
0000
0000
0011
0000
1100
0000
0110
0000
0010
0000
0001
0010
,  // measure 69
1000
0100
010M
0010
0000
0000
0001
0000
0011
0000
0001
0000
0101
0000
0010
0000
,  // measure 70
1000
0100
1000
0010
0000
0000
1000
0000
0110
0000
0001
0000
0110
0000
1000
0000
,  // measure 71
1000
0001
1000
0001
0000
0000
1000
0000
1000
0001
1000
0002
0000
0000
0003
0000
,  // measure 72
0010
0001
1000
0100
0000
0000
1000
0000
0010
0000
0001
0000
0100
0000
1000
0100
,  // measure 73
0010
0100
0001
1000
0000
0000
0010
0000
0100
0000
0001
0000
1000
0000
0001
0000
,  // measure 74
1000
0100
0010
0001
0000
0000
0001
0000
0001
0000
0001
0000
0010
0000
0100
0000
,  // measure 75
1000
0100
0010
0001
0000
0000
1000
0000
1000
0100
0010
0002
0000
0000
0003
0000
,  // measure 76
0000
0010
0001
0100
0001
0100
0000
0010
,  // measure 77
0100
0000
1000
0000
0001
0000
0010
0000
1000
0000
1000
1000
0000
0000
0001
0000
,  // measure 78
0100
0001
0010
0100
2000
3000
0010
0002
,  // measure 79
0000
0003
000M
0010
0100
2000
0000
3000
,  // measure 80
M000
0100
0001
0010
0001
0010
0000
1000
,  // measure 81
1000
0000
1000
0000
0100
0000
0010
0000
0001
0000
0100
0200
0000
0000
0300
0000
,  // measure 82
0000
0001
1000
0100
0001
0010
0100
1000
,  // measure 83
1000
0000
0000
2000
0000
0000
0000
3000
0000
0000
0000
0000
1MM1
0000
0010
0100
;
