#TITLE:Wicked Plastik;
#SUBTITLE:;
#ARTIST:nc ft. Electric Touch;
#TITLETRANSLIT:;
#SUBTITLETRANSLIT:;
#ARTISTTRANSLIT:;
#CREDIT:;
#BANNER:Wicked Plastik.png;
#BACKGROUND:Wicked Plastik-bg.png;
#LYRICSPATH:;
#CDTITLE:./CDTITLES/DanceDanceRevolution 2010.png;
#MUSIC:Wicked Plastik.mp3;
#OFFSET:1.606;
#SAMPLESTART:69.559;
#SAMPLELENGTH:15.000;
#SELECTABLE:YES;
#BPMS:0.000=145.000;
#STOPS:;
#BGCHANGES:;

//---------------dance-single - ----------------
#NOTES:
     dance-single:
     :
     Beginner:
     3:
     0.153,0.199,0.043,0.000,0.000:
0000
0000
0000
0000
,
0000
0000
0000
0000
,
0000
0000
0000
0000
,
1000
0000
0000
0000
,
0000
0000
0000
0000
,
0001
0000
1000
0000
,
0001
0000
0000
0000
,
0001
0000
0000
0000
,
0000
0000
0000
0000
,
1000
0000
0001
0000
,
1001
0000
0000
0000
,
1000
1000
1000
0000
,
0010
0000
0000
0000
,
0001
0001
0001
0000
,
0010
0000
0000
0000
,
1000
1000
1000
0000
,
0010
0000
0000
0000
,
0001
0001
0001
0000
,
0100
0000
0000
0000
,
1000
1000
0000
0001
,
0001
0001
0000
1000
,
1000
1000
0000
0001
,
0001
0001
0000
0000
,
1000
1000
0000
0001
,
0001
0001
0000
1000
,
1000
1000
0000
0000
,
0001
0000
1000
0000
,
1001
0000
0000
0000
,
0000
0000
0000
0000
,
0000
0000
0000
0000
,
0000
0000
0000
0000
,
1001
0000
0000
0000
,
0000
0000
0000
0000
,
0000
0000
0000
0000
,
0000
0000
0000
0000
,
1000
0000
0000
0000
,
1000
0000
0000
0000
,
0001
0000
0000
0000
,
0001
0000
0000
0000
,
1000
0000
1000
0000
,
0001
0000
0001
0000
,
1000
0000
0001
0000
,
1001
0000
0000
0000
,
1000
1000
1000
1000
,
1000
1000
1000
0000
,
0001
0000
0010
0000
,
1000
0000
0010
0000
,
0001
0001
0001
0001
,
0001
0001
0001
0000
,
1000
0000
0001
0000
,
0000
0000
0000
0000
,
1000
1000
1000
1000
,
1000
1000
1000
0000
,
0001
0000
0010
0000
,
1000
0000
0010
0000
,
0001
0001
0001
0001
,
0001
0001
0001
0000
,
1000
0000
0001
0000
,
0000
0000
0000
0000
,
1000
1000
1000
1000
,
1000
1000
1000
0000
,
0001
0000
0100
0000
,
1000
0000
0100
0000
,
0001
0001
0001
0001
,
0001
0001
0001
0000
,
1000
0000
0001
0000
,
1000
0000
0001
0000
,
1001
0000
0000
0000
;

//---------------dance-single - ----------------
#NOTES:
     dance-single:
     :
     Easy:
     4:
     0.199,0.255,0.026,0.068,0.000:
0000
0000
0000
0000
,
0000
0000
0000
0000
,
0000
0000
0000
0000
,
0001
0001
0001
0000
,
0100
0100
0100
0000
,
0010
0010
0010
0000
,
0001
0001
1000
0000
,
1000
0100
1000
0000
,
0001
0010
0001
0000
,
0100
0010
0100
0000
,
0000
0000
0000
0000
,
1000
1000
0100
0000
,
0010
0000
0000
0000
,
0010
0000
0010
0000
,
0110
0000
0001
1000
,
0001
0001
0100
0000
,
1000
0000
0000
0000
,
0010
0000
0010
0000
,
0000
0000
0000
0000
,
1000
0000
0001
0000
,
0001
0000
0100
0000
,
0010
0000
0100
0000
,
0010
0010
1000
0000
,
1000
0000
1000
0000
,
0001
0000
0001
0000
,
1000
0001
1000
0001
,
0000
0000
0000
0000
,
0001
0000
0000
0000
,
0000
0000
0000
0000
,
0100
0000
0000
0000
,
0000
0000
0000
0000
,
2000
0000
3000
0000
,
0000
0000
0000
0000
,
0020
0000
0030
0000
,
0000
0000
0000
0000
,
0002
0000
1003
0000
,
2000
0000
3010
0000
,
0020
0000
0130
0000
,
0200
0000
0301
0000
,
0001
1000
2000
3000
,
1000
0001
0002
0003
,
0001
0001
1000
1000
,
0000
0000
0000
0000
,
1000
0001
0001
1000
,
0001
1000
0100
0000
,
0001
0001
1000
0000
,
1000
1000
0100
0000
,
0001
1000
1000
0001
,
1000
0001
0100
0000
,
1000
0010
0010
0010
,
0000
0000
0000
0001
,
0001
1000
1000
0001
,
1000
0001
0100
0000
,
1000
1000
0001
0000
,
0001
0001
0100
0000
,
1000
0001
0001
1000
,
0001
1000
0100
0000
,
0001
1000
1000
1000
,
1001
0000
0000
0000
,
1000
0001
0001
1000
,
0001
1000
0010
0000
,
0001
0001
1000
0000
,
1000
1000
1001
0000
,
0001
1000
1000
0001
,
1000
0001
0010
0000
,
1000
0001
1000
0100
,
0001
0100
0010
1000
;

//---------------dance-single - ----------------
#NOTES:
     dance-single:
     :
     Medium:
     8:
     0.306,0.370,0.017,0.085,0.004:
0000
0000
0000
0000
,
0000
0000
0000
0000
,
0000
0000
0000
0000
,
0001
0001
0001
0010
,
0100
0100
0100
1000
,
0010
0010
0010
0100
,
0001
0001
1000
0100
,
1000
0100
1000
0000
1000
0100
1000
0000
,
0001
1000
0001
0000
0001
1000
0001
0000
,
0100
0010
0100
0000
0100
0010
0100
0000
,
0000
0000
0000
0000
,
0010
0100
0001
0010
,
0100
0000
1000
1000
0000
0100
0100
0000
,
0010
0001
0100
0000
0001
0000
0100
0000
,
0101
0000
0000
0001
0001
0000
1010
0000
,
0100
0010
1000
0100
,
0010
0000
0001
0001
0000
0010
0010
0000
,
0100
1000
0010
0000
1000
0001
1000
0000
,
0000
0000
0000
0000
,
0001
1000
0001
1000
,
0001
0001
0100
0000
,
0010
1000
0001
0100
,
0010
0010
0100
0100
,
0001
0100
1000
0100
,
1000
1000
0001
0000
,
1000
0001
0100
0100
,
0000
0000
0000
0000
,
0001
0000
0000
0000
,
1000
0000
0000
0000
,
0100
0000
0000
0000
,
0010
0000
0000
0000
,
2000
0000
3000
0000
,
0001
0001
0000
0000
,
0020
0000
0030
0000
,
0100
0100
0000
0000
,
0002
0000
0103
1000
,
2000
0000
3100
0010
,
0020
0000
0031
0100
,
0200
0000
0310
0001
,
0002
0103
2000
3010
,
0002
0013
2000
3100
,
0001
0010
0001
0000
1000
0010
1000
0001
,
0000
0000
0000
0000
,
1000
0100
0001
0000
0001
0000
0100
0000
,
0010
0001
1000
0000
,
0001
0001
0010
0000
1000
0000
0010
0000
,
1000
0001
1000
0001
0100
0000
0000
0000
,
0001
0100
1000
0000
1000
0000
0100
0000
,
0010
1000
0001
0000
,
1000
1000
0010
0000
0010
0000
0010
1000
,
0000
0000
0000
0000
0000
0000
0001
0001
,
1000
0010
0001
0000
0001
0000
0010
0000
,
0100
0001
1000
0000
,
0001
0001
0100
0000
1000
0000
0100
0000
,
1000
0001
1000
0001
0010
0000
0000
0000
,
0001
0010
1000
0000
1000
0000
0010
0000
,
0100
1000
0001
0000
,
0001
0001
0100
0000
0010
0000
0010
0100
,
0000
0000
0010
0000
0000
0010
0000
0000
0010
0000
0000
0000
1000
0000
1000
0000
,
0001
0010
1000
0000
1000
0000
0010
0000
,
0100
1000
0001
0000
,
1000
1000
0100
0000
0001
0000
0100
0000
,
0001
1000
0001
1000
0010
0010
0000
0000
,
1000
0010
0001
0000
0001
0000
0010
0000
,
0100
0001
1000
0000
,
1000
0100
0100
0000
0010
0000
0010
0000
,
0001
0010
0001
0000
0010
0001
1000
0100
;

//---------------dance-single - ----------------
#NOTES:
     dance-single:
     :
     Hard:
     13:
     0.483,0.569,0.145,0.068,0.204:
0000
0000
0000
0000
,
0000
0000
0000
0000
,
0000
0000
0000
0000
,
0010
1000
1000
0110
,
0100
0001
0001
0110
,
0001
1000
1000
0110
,
0001
1000
0010
0110
,
0001
0010
0001
0100
0001
0010
0011
0000
,
1000
0010
1000
0100
1000
0010
1010
0000
,
0001
0100
0001
0010
0001
0100
0101
0000
,
0000
0000
0000
0000
,
0100
0100
0010
1000
0000
1000
0100
0010
,
0000
0010
0001
1000
0100
0010
0011
0000
,
1000
0010
0100
0001
0000
1000
0010
1000
,
1010
0000
0000
1000
1100
0000
0101
0000
,
1100
0100
0010
0001
0000
0001
0100
0010
,
0000
0010
1000
0001
0100
0010
1010
0000
,
0001
0010
0100
1000
0000
0001
0010
0001
,
0000
0000
0000
0000
,
1000
0100
1000
0100
,
1000
0100
1000
0100
0010
0001
0100
0010
,
0100
0000
0001
0000
1000
1000
0010
0000
,
0100
0001
0100
0001
0010
0000
0100
0000
,
1000
0100
1000
0000
0010
0001
0010
0000
,
0001
0100
0001
0100
0010
1000
0001
0000
,
0001
1000
0010
0100
1000
0100
1000
0000
,
0000
0000
0000
0000
,
1000
0000
0000
0000
0000
0000
0000
0100
,
0100
0000
0000
0000
,
0001
0000
0000
0000
0000
0000
0000
0010
,
0010
0000
0000
0000
,
1000
0000
1000
0000
0000
0000
0000
0001
,
0001
0001
0000
0000
,
0010
0000
0010
0000
0000
0000
0000
0100
,
0100
0100
0000
0000
,
2001
0000
0100
0000
0010
0000
3001
0100
,
0002
0000
1000
0000
0010
0000
0103
0010
,
0200
0000
0001
0000
1000
0000
0310
0100
,
0020
0000
1000
0000
0100
0000
1030
0001
,
2000
0000
3010
1000
0002
0000
0103
0001
,
2000
0000
3100
1000
0002
0000
0013
0100
,
1000
0100
1000
0010
0100
0001
1000
0001
,
0000
0000
0000
0000
,
0100
0000
0100
0000
0010
0000
0100
0000
1000
0100
1000
0000
0100
0000
0100
0000
,
0010
0001
0000
0100
0000
0000
0001
0000
1000
0010
0000
0100
0000
0000
0001
0000
,
0000
0000
1000
0000
0100
0000
1000
0000
0001
0000
0100
0000
0010
1000
0001
0000
,
0000
0000
0100
0000
0001
0000
0100
0000
0010
0000
1000
0000
0100
0010
0001
0100
,
0010
0000
0010
0000
0100
0000
0010
0000
1000
0010
1000
0000
0010
0000
0010
0000
,
0100
0001
0000
0010
0000
0000
0001
0000
1000
0100
0000
0010
0000
0000
0001
0000
,
0000
0000
1000
0000
0010
0000
1000
0000
0000
0000
0010
0000
0100
1000
0001
0000
,
0000
0000
0000
0000
0000
0000
0000
0000
0000
0000
0000
0000
0100
0010
1000
0001
,
0100
0000
0100
0000
0010
0000
0100
0000
0001
0100
0001
0000
0100
0000
0100
0000
,
0010
1000
0000
0100
0000
0000
1000
0000
0001
0010
0000
0100
0000
0000
1000
0000
,
0000
0000
0001
0000
0100
0000
0001
0000
1000
0000
0100
0000
0010
0001
1000
0000
,
0000
0000
0100
0000
1000
0000
0100
0000
0010
0000
0001
0000
0100
0010
1000
0100
,
0010
0000
0010
0000
0100
0000
0010
0000
0001
0010
0001
0000
0010
0000
0010
0000
,
0100
1000
0000
0010
0000
0000
1000
0000
0001
0100
0000
0010
0000
0000
1000
0000
,
0000
0000
0001
0000
0010
0000
0001
0000
0100
0000
0010
0000
0100
0001
1000
0000
,
0000
0000
1100
0000
0000
1100
0000
0000
0011
0000
0000
0000
0001
0100
0010
1000
,
0010
0000
0010
0000
0100
0000
0010
0000
1000
0010
1000
0000
0010
0000
0010
0000
,
0100
0001
0000
0010
0000
0000
0001
0000
1000
0100
0000
0010
0000
0000
0001
0000
,
0000
0000
1000
0000
0010
0000
1000
0000
0001
0000
0010
0000
0100
1000
0001
0000
,
0000
0000
0010
0000
0001
0000
0010
0000
0100
0000
1000
0010
0000
0000
0000
0000
,
0100
0000
0100
0000
0010
0000
0100
0000
1000
0100
1000
0000
0100
0000
0100
0000
,
0010
0001
0000
0100
0000
0000
0001
0000
1000
0010
0000
0100
0000
0000
0001
0000
,
0000
0000
1000
0000
0010
0000
1000
0000
0100
0000
0010
0000
0100
1000
0001
0000
,
0000
0000
0100
0000
0100
0000
0010
0000
0100
0000
0001
0000
1000
0100
0010
0001
;

//---------------dance-double - ----------------
#NOTES:
     dance-double:
     :
     Easy:
     5:
     0.265,0.352,0.162,0.043,0.000:
00000000
00000000
00000000
00000000
,
00000000
00000000
00000000
00000000
,
00000000
00000000
00000000
00000000
,
00000000
00000000
00000000
00000000
,
00000000
00000000
00000000
00000000
,
00001000
00000100
00000001
00000100
,
00001000
00000100
00000001
00000100
,
00000010
00000010
00000001
00001000
,
00010000
00100000
00010000
10000000
,
00100000
10000000
00010000
01000000
,
10000000
01000000
00010000
00000000
,
00001000
00000010
00000100
00000001
,
00000010
00000001
00001000
00000100
,
00000010
00001000
00000001
00000100
,
00000010
00000001
00001000
00010000
,
00100000
00100000
00010000
10000000
,
00100000
00100000
10000000
00010000
,
10000000
10000000
00010000
00001000
,
00000100
00000100
00000100
00001001
,
00000010
00000011
00000000
00000000
,
00001000
00001100
00000000
00000000
,
00010000
00011000
00000000
00000000
,
00100000
00110000
00000000
00000000
,
10000000
10010000
00000000
00000000
,
00010000
10010000
00000000
00000000
,
10000000
11000000
00000000
00000000
,
00010000
01010000
00000000
00000000
,
00011000
00000000
00000000
00000000
,
00000010
00000000
00000001
00000000
,
00000010
00000000
00001000
00000000
,
00000010
00000000
00000001
00000000
,
00001000
00010000
00100000
00000000
,
10000000
01000000
00010000
00000000
,
00100000
00010000
10000000
00000000
,
00100000
10000000
00010000
00000000
,
00001001
00000000
00000001
00000000
,
00001001
00000000
00000010
00000100
,
00000002
00000100
00000100
00000103
,
00002000
00010000
00010000
00013000
,
00100000
10100000
00010000
01010000
,
10000000
11000000
00010000
01010000
,
00100000
00010000
00001000
00000100
,
00000000
00000000
00000000
00000000
,
00000001
00001000
00000001
00000000
,
00001000
00000001
00001000
00000000
,
00000010
00001000
00000010
00000000
,
00001000
00010000
01000000
00000000
,
00010000
00100000
00010000
00000000
,
10000000
01000000
10000000
00000000
,
10010000
10000000
00010000
00000000
,
20000000
30010000
00000000
00000000
,
00001000
00000000
00000010
00001000
,
00000001
00000100
00001000
00000100
,
00000010
00000000
00001000
00000100
,
00001000
00010000
01000000
00010000
,
00100000
00000000
00010000
01000000
,
10000000
01000000
00010000
01000000
,
00100000
00000000
00010000
00001000
,
00000000
00000000
00001000
00000000
,
00000001
00000010
00001000
00000100
,
00000010
00000001
00001000
00000100
,
00000010
00001000
00010000
01000000
,
00100000
10000000
00000000
10010000
,
10000000
01000000
00010000
01000000
,
10000000
01000000
00010000
01000000
,
00100000
00010000
00001000
00000100
,
00000010
00001000
00000000
00000001
,
00002002
00000000
00000000
00000000
,
00000000
00000000
00000000
00000000
,
00003003
00000000
00000000
00000000
;

//---------------dance-double - ----------------
#NOTES:
     dance-double:
     :
     Medium:
     11:
     0.380,0.432,0.051,0.162,0.009:
00000000
00000000
00000000
00000000
,
00000000
00000000
00000000
00000000
,
00000000
00000000
00000000
00000000
,
00000000
00000000
00000000
00000000
,
00000000
00000000
00000000
00000000
,
01000000
10000000
00010000
01000000
,
00100000
00010000
00001000
00010000
,
00001000
00000010
00000001
00000100
,
00001000
00000100
00001000
00000000
00010000
00001000
00010000
00000000
,
01000000
00010000
00001000
00000000
00010000
00100000
10000000
00000000
,
11000000
00000000
00000000
00000000
,
00100000
00010000
01000000
00010000
,
00001000
00000000
00000100
00000000
00000001
00000100
00001000
00000000
,
00010000
00001000
00010000
00100000
,
10000000
00000000
01000000
00000000
10000000
00100000
00010000
00000000
,
00100000
00010000
01000000
00010000
,
00001000
00000000
00000100
00000000
00000001
00000100
00001000
00000000
,
00010000
00000000
00001000
00010000
00100000
00000000
10000000
00100000
,
00010000
00000000
01000000
00000000
00010000
00100000
10000000
00000000
,
00100000
00000000
00010000
00000000
00100000
00000000
00010000
00001000
,
00000010
00001000
00000010
00000000
00000001
00000000
00000010
00000000
,
00001000
00000000
00000100
00000000
00001000
00000000
00000100
00001000
,
00010000
00001000
00010000
00000000
00100000
00000000
10000000
00000000
,
00100000
10000000
00100000
00000000
00010000
00000000
01000000
00000000
,
00010000
00001000
00010000
00000000
00001000
00000000
00000010
00000001
,
00000010
00001000
00000100
00000000
00000100
00001000
00010000
00000000
,
00100000
00000000
00010000
00000000
01000000
00010000
00100000
10000000
,
00200000
00310000
00020000
01030000
,
00022000
00000000
00000000
00033000
,
00000100
00001000
00000010
00000001
,
00000020
00000000
00002000
00003030
,
00010000
00100000
00010000
00000000
,
10000000
01000000
10000000
00100000
,
00020000
00000000
00002000
00033000
,
00000010
00000001
00000000
00000100
,
00002200
00000000
00000000
00000000
,
00000000
00000000
00000000
00003300
,
00020000
00000000
00000000
00030000
,
02000000
00000000
00000000
03000000
,
10000000
10000000
00100000
00100000
,
00010000
00100000
00010000
00001000
,
00000010
00001000
00000010
00000000
00000001
00000100
00000001
00000000
,
00002002
00000000
00000000
00000000
00003003
00000000
00000100
00001000
,
00010000
00001000
00010000
00000000
01000000
00000000
10000000
01000000
,
00100000
00000000
10000000
00000000
00100000
00010000
01000000
00000000
,
00010000
00000000
00001000
00000000
00000010
00000000
00000001
00000010
,
00001000
00000000
00000010
00000000
00001000
00000100
00001000
00000000
,
00010000
00001000
00010000
00000000
01000000
00000000
10000000
01000000
,
00100000
00000000
10000000
00000000
00100000
00010000
01000000
00000000
,
00010000
00001000
00000010
00000001
,
00002020
00000000
00000000
00003030
,
00000010
00001000
00010000
00000000
00010000
00100000
10000000
00000000
,
10000000
00100000
10000000
00000000
00100000
00000000
00010000
01000000
,
00010000
00001000
00000010
00000001
00000100
00000000
00000001
00000000
,
00000010
00000000
00001000
00000000
00010000
00100000
00010000
00000000
,
00100000
00010000
00001000
00000000
00001000
00000010
00000001
00000000
,
00000001
00000010
00000001
00000000
00000010
00000000
00001000
00000100
,
00001000
00000000
00010000
00000000
00100000
00000000
10000000
00000000
01000000
00000000
00000000
00000000
10000000
00000000
00000000
00100000
,
00000000
00000000
00010000
00000000
00000000
01000000
00000000
00000000
20000000
00000000
00000000
00000000
31000000
00000000
00000000
00000000
,
00010000
00100000
00010000
10000000
00010000
01000000
00010000
00000000
,
00000010
00001000
00000001
00001000
00000100
00000000
00001000
00010000
,
00100000
00010000
01000000
10000000
01000000
00010000
00100000
00000000
,
00100000
00010000
00001000
00000010
00000001
00000010
00000100
00000000
,
00001000
00000010
00001000
00000001
00001000
00000100
00001000
00000000
,
00100000
00010000
10000000
00010000
01000000
00000000
00010000
00001000
,
00000010
00001000
00000100
00000001
00000100
00001000
00000010
00000000
,
00000010
00001000
00010000
00100000
10000000
00000000
00100000
00000000
,
02020000
00000000
00000000
03030000
;

//---------------dance-double - ----------------
#NOTES:
     dance-double:
     :
     Hard:
     13:
     0.499,0.627,0.060,0.102,0.221:
00000000
00000000
00000000
00000000
,
00000000
00000000
00000000
00000000
,
00000000
00000000
00000000
00000000
,
00000000
00000000
00000000
00000000
,
00000000
00000000
00000000
00000000
,
00100000
01000000
00010000
00000000
00001000
00000100
00000001
00001000
,
00000010
00000100
00001000
00000000
00000010
00000010
00001000
00001000
,
00000001
00000010
00000100
00000000
00001000
00001000
00010000
00010000
,
01000000
00010000
00100000
00000000
01000000
00100000
10000000
00100000
,
00010000
00001000
00010000
00000000
00000100
00000100
00001000
00001000
,
00002200
00000000
00003300
00000000
00000000
00000010
00000100
00001000
,
00010000
00000000
00010000
00000000
01000000
00000000
01000000
00000000
00100000
00000000
00100000
00000000
10000000
00000000
00010000
10000000
,
00100000
00000000
00100000
00000000
00010000
00000000
00010000
00000000
00001000
00000000
00001000
00000000
00000100
00000000
00000001
00000010
,
00000001
00000000
00000001
00000000
00000010
00000000
00000010
00000000
00001000
00000000
00001000
00000000
00010000
00000000
00010000
00001000
,
00010000
00000000
00010000
00000000
01000000
00000000
01000000
00000000
00100000
00000000
00100000
00000000
00010000
00000000
10000000
00010000
,
00100000
00000000
00100000
00000000
00010000
00000000
00010000
00000000
00001000
00000000
00001000
00000000
00000100
00000000
00000010
00000100
,
00000010
00000000
00000010
00000000
00000001
00000000
00000001
00000000
00000100
00000000
00000100
00000000
00001000
00000000
00001000
00010000
,
01000000
00000000
01000000
00000000
00100000
00000000
00100000
00000000
10000000
00000000
10000000
00000000
00010000
00000000
10000000
00010000
,
01000000
00000000
01000000
00000000
00010000
00000000
00010000
00000000
00001000
00000000
00001000
00000000
00000100
00000000
00000100
00000010
,
00001000
00000000
00000000
00000000
00000010
00000000
00000000
00000000
00000100
00000000
00000000
00000000
00001000
00000000
00010000
00001000
,
00000000
00010000
00001000
00000000
00000100
00000000
00000000
00000000
00001000
00000000
00000000
00000000
00010000
00000000
00000000
00000000
,
01000000
00000000
00000000
00000000
00100000
00000000
00000000
00000000
10000000
00000000
00000000
00000000
00010000
00000000
01000000
00100000
,
00000000
01000000
00100000
00000000
00010000
00000000
00000000
00000000
00001000
00000000
00000000
00000000
00000100
00000000
00000000
00000000
,
00000010
00000000
00000000
00000000
00000001
00000000
00000000
00000000
00000100
00000000
00000000
00000000
00001000
00000000
00000001
00001000
,
00000000
00000001
00001000
00000000
00000100
00000000
00000000
00000000
00001000
00000000
00000000
00000000
00010000
00000000
00000000
00000000
,
01000000
00000000
00000000
00000000
00100000
00000000
00000000
00000000
00010000
00000000
00000000
00000000
00100000
00000000
00010000
01000000
,
00000000
00010000
01000000
00000000
00010000
00000000
00000000
00000000
00001000
00000000
00000000
00000000
00000100
00000000
00001000
00000000
,
00002020
00000000
00000000
00000000
00003030
00000000
00000000
00000000
00000000
00000000
00000000
00000000
00000000
00000000
00001000
00010000
,
00000000
00001000
00010000
00000000
00000000
00000000
00000000
00000000
00000000
00000000
00000000
00000000
00000000
00000000
00000000
00000000
,
02200000
00000000
00000000
00000000
00000000
00000000
00000000
00000000
03300000
00000000
00000000
00000000
00000000
00000000
00010000
00001000
,
00000000
00010000
00001000
00000000
00000000
00000000
00000000
00000000
00000000
00000000
00000000
00000000
00000000
00000000
00000000
00000000
,
00000220
00000000
00000000
00000000
00000000
00000000
00000000
00000000
00000330
00000000
00000000
00000000
00000000
00000000
00000001
00000100
,
00000000
00000001
00000100
00000000
00000000
00000000
00000000
00000000
00000000
00000000
00000000
00000000
00000000
00000000
00000000
00000000
,
00022000
00000000
00000000
00000000
00000000
00000000
00000000
00000000
00033000
00000000
00000000
00000000
00000000
00000000
00010000
01000000
,
00000000
00010000
01000000
00000000
00000000
00000000
00000000
00000000
00000000
00000000
00000000
00000000
00000000
00000000
00000000
00000000
,
00100000
00000000
00000000
00000000
00000000
00000000
00000000
00000000
00000000
00000000
00000000
00000000
00000000
00000000
00010000
10000000
,
00010000
00000000
00000000
00000000
00000000
00000000
00000000
00000000
00000000
00000000
00000000
00000000
00000000
00000000
00010000
00001000
,
00010000
00000000
00000000
00000000
00000000
00000000
00000000
00000000
00000000
00000000
00000000
00000000
00000000
00000000
00001000
00000100
,
00001000
00000000
00000000
00000000
,
00000010
00000000
00000001
00000010
00000001
00000000
00001000
00000000
00000100
00000000
00001000
00000000
00000100
00000000
00000000
00000000
,
00001000
00000000
00010000
01000000
00010000
00000000
01000000
00000000
00100000
00000000
00010000
00000000
01000000
00000000
00000000
00000000
,
00010000
00001000
00010000
00000000
00001000
00000100
00001000
00000000
00000010
00000001
00000010
00000000
00001000
00000100
00001000
00000000
,
00022000
00000000
00000000
00033000
,
00010000
00000000
00010000
00000000
01000000
00000000
01000000
00000000
10000000
00000000
10000000
00000000
00100000
00000000
01000000
00100000
,
01000000
00000000
01000000
00000000
00010000
00000000
00010000
00000000
00001000
00000000
00001000
00000000
00000100
00000000
00000010
00000100
,
00000010
00000010
00000001
00000001
00000100
00000100
00001000
00001000
,
00010000
00010000
00100000
00100000
10000000
10000000
01000000
01000000
,
00010000
00010000
00001000
00001000
00000010
00000010
00000001
00000001
,
00000100
00000100
00001000
00001000
00010000
00010000
00100000
00100000
,
10000000
10000000
01000000
01000000
00010000
00010000
00001000
00001000
,
00010000
00000000
00000000
00000000
00000000
00000000
00000000
00000000
00000000
00000000
00000000
00000000
00010000
00001000
00010000
00001000
,
00000100
00000000
00000010
00000100
00001000
00000000
00000000
00000000
00000001
00000000
00000001
00000000
00000100
00000000
00000100
00000000
,
00001000
00000000
00010000
00001000
00010000
00000000
00000000
00000000
01000000
00000000
01000000
00000000
00100000
00000000
00100000
00000000
,
01000000
00000000
00100000
01000000
00100000
00000000
00000000
00000000
00010000
00000000
00010000
00000000
00001000
00000000
00001000
00000000
,
00000100
00000000
00000100
00000010
00001000
00000000
00000000
00000000
00000010
00000000
00000010
00000000
00000001
00000000
00000001
00000000
,
00001000
00000000
00001000
00000100
00001000
00000000
00000000
00000000
00010000
00000000
00010000
00000000
01000000
00000000
01000000
00000000
,
00100000
00000000
00100000
00010000
10000000
00000000
00000000
00000000
01000000
00000000
01000000
00000000
00010000
00000000
00010000
00000000
,
00001000
00000000
00001000
00000100
00000010
00000000
00000000
00000000
00000001
00000000
00000001
00000000
00000100
00000000
00000100
00001000
,
00000000
00000000
00001000
00000000
00000000
00010000
00000000
00000000
00010000
00000000
00000000
00000000
00000000
00000000
00000000
00000000
,
00010000
00000000
00000000
00000000
00100000
00000000
00100000
00000000
10000000
00000000
00000000
00000000
01000000
00000000
01000000
00100000
,
00010000
00000000
00000000
00000000
00001000
00000000
00001000
00000000
00000100
00000000
00000000
00000000
00000010
00000000
00000100
00000010
,
00001000
00000000
00000000
00000000
00000010
00000000
00000010
00000000
00001000
00000000
00000000
00000000
00010000
00000000
01000000
00010000
,
01000000
00000000
00100000
00100000
00010000
00000000
00001000
00000000
,
00000100
00000000
00000000
00000000
00000010
00000000
00000000
00000000
00000100
00000000
00000100
00000000
00010000
00000000
00100000
00010000
,
00100000
00000000
00000000
00000000
00100000
00000000
00000000
00000000
00010000
00000000
00010000
00000000
00001000
00000000
00001000
00000100
,
00000010
00000000
00000000
00000000
00000100
00000000
00000000
00000000
00000010
00000000
00000010
00000000
00001000
00000000
00010000
00001000
,
00010000
00000000
01000000
00000000
00010000
00010000
00001000
00001000
,
00011000
00000000
00000000
00000000
;

//---------------dance-single - ----------------
#NOTES:
     dance-single:
     :
     Challenge:
     15:
     0.718,0.684,0.357,0.230,0.655: // measure 1
0000
0000
0000
0000
,  // measure 2
0000
0000
0000
0000
,  // measure 3
0000
0000
0000
0000
,  // measure 4
0001
0000
1000
0000
0000
0000
0000
0010
0000
0000
0100
0000
0000
0001
0000
0010
,  // measure 5
0000
0000
0100
0000
0000
0000
0000
1000
0000
0000
0001
0000
0000
0100
0000
0010
,  // measure 6
0000
0000
1000
0000
0000
0000
0000
0001
0000
0000
0010
0000
0000
0100
0000
1000
,  // measure 7
0000
0000
0010
0000
0000
0000
0000
0100
0000
0000
0001
0000
0000
0010
0000
0100
,  // measure 8
0000
0000
1100
0000
0000
0000
0000
1001
0000
0000
0011
0000
0000
0010
0000
0100
,  // measure 9
0000
0000
1001
0000
0000
0000
0000
0101
0000
0000
0110
0000
0000
0100
0000
0001
,  // measure 10
0000
0000
0011
0000
0000
0000
0000
0110
0000
0000
1100
0000
0000
0100
0000
1000
,  // measure 11
0000
0000
0010
1000
0000
0100
0010
0100
0000
0010
0001
0000
0000
0000
0000
0000
,  // measure 12
1100
1000
1001
0010
0000
0010
1001
0010
,  // measure 13
0100
1000
0101
0010
0000
0010
0101
1000
,  // measure 14
0010
0100
0011
0100
0000
0100
0011
0100
,  // measure 15
1000
0001
0110
1000
0000
1000
0110
1000
,  // measure 16
0001
0100
1010
0100
0000
0100
1010
0100
,  // measure 17
0001
0010
1100
0001
0000
0001
1100
0001
,  // measure 18
0010
0100
1001
0100
0000
0100
1001
0100
,  // measure 19
0010
0000
0001
0000
0110
0000
1000
0100
0000
1000
0010
0000
0200
0000
0000
0000
,  // measure 20
0301
0000
0100
0000
0110
0000
1000
0000
0001
0000
0010
0000
0110
0000
1000
0001
,  // measure 21
0000
1000
0001
0000
0110
0000
1000
0000
0010
0000
0100
0000
0101
0000
0010
0000
,  // measure 22
0100
0000
1000
0000
0110
0000
1000
0000
0001
0000
0010
0000
0110
0000
0100
0010
,  // measure 23
0000
0100
0010
0000
1001
0000
0100
0000
0010
0000
1000
0000
0101
0000
0010
0000
,  // measure 24
1000
0000
0001
0000
0010
0000
0100
1000
0000
0010
1000
0000
0100
0010
0001
0100
,  // measure 25
0000
0001
1000
0000
0010
0000
0100
0000
0001
0000
0010
0000
0100
1000
0000
0002
,  // measure 26
0000
0000
0103
0000
0010
0000
1000
0000
0100
0000
0010
0000
0001
0100
0000
0020
,  // measure 27
0000
0000
1030
0000
0001
0000
0010
0000
0100
0000
1000
0000
0010
0100
0010
0100
,  // measure 28
0002
0000
1000
0000
1000
0000
0000
0000
0010
0000
0000
0000
0013
0000
0100
1000
,  // measure 29
0000
0100
1000
0000
0002
0000
0000
0000
0100
0000
0000
0000
0100
0000
0000
0000
,  // measure 30
2003
0000
0010
0000
0010
0000
0000
0000
0100
0000
0000
0000
3100
0000
0010
0001
,  // measure 31
0000
0010
0002
0000
0100
0000
0000
0000
0100
0000
0000
0000
0100
0000
0000
0000
,  // measure 32
0203
0000
0010
0000
0010
0000
0000
0000
0010
0000
0000
0000
0310
0000
1000
0001
,  // measure 33
0000
1000
0002
0000
0010
0000
0000
0000
0010
0000
0000
0000
0013
0000
0000
0000
,  // measure 34
0200
0000
1000
0000
1000
0000
0000
0000
1000
0000
0000
0000
1300
0000
0010
0100
,  // measure 35
0000
0010
0200
0000
0001
0000
0000
0000
0001
0000
0000
0000
0301
0000
0000
0000
,  // measure 36
2001
0010
0010
3010
,  // measure 37
0102
0010
0010
0013
,  // measure 38
2100
0010
0001
3100
,  // measure 39
0012
1000
0100
0013
,  // measure 40
1010
0000
0100
0000
0001
0000
0010
0001
0000
0100
0001
0000
1000
0000
0010
1000
,  // measure 41
0000
0100
1000
0000
0010
0000
0100
0001
0000
0010
0001
0000
0010
0000
0100
1000
,  // measure 42
0000
0010
1000
0001
0000
0010
0001
1000
0000
0100
1000
0001
0000
0100
0001
0000
,  // measure 43
0000
0000
1000
0000
0010
0000
0100
0000
0001
0000
0010
0000
0100
1000
0001
0010
,  // measure 44
0100
0000
1000
0000
0010
0000
0100
0001
0000
0010
0001
0100
0001
1000
0010
0100
,  // measure 45
0000
0010
0100
0000
0010
1000
0100
1000
0010
0000
0010
0000
0100
0001
0010
0200
,  // measure 46
0000
0000
1300
0000
0001
0000
0010
0000
0100
0000
1000
0000
0010
0100
0001
0020
,  // measure 47
0000
0000
0130
0000
1000
0000
0010
0000
0100
0000
0001
0000
1000
0100
0010
0002
,  // measure 48
0000
0000
1003
0000
0010
0000
0100
0001
0000
0010
0001
0100
0001
1000
0010
0100
,  // measure 49
0000
0010
1000
0000
0001
0010
0100
0010
0001
0000
1000
0000
0010
0100
0001
0020
,  // measure 50
0000
0000
0130
0000
1000
0000
0001
0000
0100
0000
0010
0000
1000
0100
0010
0001
,  // measure 51
0000
0000
0000
1000
0001
0100
0010
0100
0000
0000
0000
0000
0010
1000
0001
0010
,  // measure 52
0100
0000
1000
0000
0010
0000
0100
0001
0000
1000
0010
1000
0001
0010
1000
0010
,  // measure 53
0000
0001
0100
0000
0010
1000
0100
1000
0010
0000
0100
0000
0001
0010
0100
0020
,  // measure 54
0000
0000
0031
0000
1000
0000
0010
0000
0100
0000
0001
0000
0010
0100
1000
0020
,  // measure 55
0000
0000
0130
0000
0001
0000
1000
0000
0010
0000
1000
0000
0100
0001
0100
2000
,  // measure 56
0000
0000
3010
0000
0100
0000
0001
0010
0000
1000
0010
0100
0010
0001
0100
0010
,  // measure 57
0000
1000
0100
0000
0010
0001
0100
1000
0100
0000
0010
0000
1000
0100
0001
0200
,  // measure 58
0000
0000
0310
0000
0001
0000
0100
0000
1000
0000
0100
0000
0010
1000
0100
0001
,  // measure 59
0000
0000
0000
0000
0000
0000
0101
0000
0000
0000
0000
0000
0000
0000
0000
1100
0000
0000
0000
0000
0000
0000
0000
0000
1010
0000
0000
0000
0000
0000
0000
0000
0000
0000
0000
0000
0010
0000
0001
0000
0010
0000
0001
0000
0010
0000
0001
0000
,  // measure 60
0010
0000
0100
0000
1000
0000
0010
0001
0000
0010
1000
0100
0001
0100
1000
0010
,  // measure 61
0000
0100
0001
0000
0010
1000
0010
0001
0100
0000
1000
0000
0100
0010
0000
2000
,  // measure 62
0000
0000
3100
0000
0001
0000
0100
0000
1000
0000
0010
0000
0100
0001
0010
2000
,  // measure 63
0000
3010
0001
0100
0010
1000
0001
0000
,  // measure 64
0110
0000
0001
0000
1000
0000
0010
0100
0000
0100
0001
0010
0100
1000
0010
0100
,  // measure 65
0000
0100
0001
0000
1000
0100
0001
0100
1000
0000
0010
0000
0100
0001
0010
0200
,  // measure 66
0000
0000
1300
0000
0001
0000
0010
0000
1000
0000
0010
0000
0001
0100
1000
0002
,  // measure 67
0000
0000
0013
0000
1000
0000
0100
0000
0010
0000
0001
0000
0100
0010
1000
0001
,  // measure 68
0010
0000
0000
0000
;
