#TITLE:Weird part of the Night;
#SUBTITLE:;
#ARTIST:Louis Cole;
#TITLETRANSLIT:;
#SUBTITLETRANSLIT:;
#ARTISTTRANSLIT:;
#CREDIT:;
#BANNER:Weird Part of the Night Bn.png;
#BACKGROUND:Weird Part of the Night BG.png;
#LYRICSPATH:;
#CDTITLE:;
#MUSIC:Weird Part of the Night - Louis Cole.ogg;
#OFFSET:-0.841;
#SAMPLESTART:52.368;
#SAMPLELENGTH:12.000;
#SELECTABLE:YES;
#BPMS:0.000=116.022,2.000=116.017,3.000=116.022,4.000=116.017,5.000=116.022,7.000=123.288,8.000=118.347,9.000=115.048,10.000=117.339,11.000=114.417,12.000=115.375,13.000=117.339,14.000=114.729,15.000=116.022,17.000=116.017,18.000=116.677,19.000=116.017,20.000=113.484,21.000=116.022,22.000=116.017,23.000=116.022,24.000=118.681,25.000=116.022,26.000=116.017,27.000=116.022,28.000=113.479,29.000=116.022,30.000=118.692,31.000=116.017,32.000=113.479,33.000=116.017,34.000=117.339,35.000=118.004,36.000=116.022,37.000=115.390,38.000=116.017,39.000=116.022,40.000=116.017,41.000=116.022,42.000=116.017,43.000=116.022,44.000=116.017,45.000=116.022,46.000=115.390,47.000=116.017,48.000=115.390,49.000=116.022,50.000=116.017,51.000=116.677,52.000=116.017,53.000=116.022,55.000=112.850,56.000=116.022,58.000=116.017,59.000=116.022,60.000=116.017,61.000=116.022,63.000=116.017,64.000=116.022,66.000=116.017,67.000=116.022,68.000=116.017,69.000=116.022,71.000=120.060,72.000=116.022,74.000=116.017,75.000=114.101,76.000=116.017,77.000=116.022,79.000=116.017,80.000=116.022,82.000=118.004,83.000=116.022,84.000=116.017,85.000=116.022,87.000=116.017,88.000=116.022,90.000=116.017,91.000=113.475,92.000=116.017,93.000=116.022,94.000=116.017,95.000=116.022,96.000=116.017,97.000=116.022,98.000=116.017,99.000=116.022,100.000=118.004,101.000=114.101,102.000=116.017,103.000=116.022,104.000=118.681,105.000=116.022,106.000=116.017,107.000=114.101,108.000=116.017,109.000=116.022,110.000=116.017,111.000=116.022,112.000=116.017,113.000=116.022,114.000=116.017,115.000=116.022,116.000=116.017,117.000=116.022,118.000=118.004,119.000=116.022,120.000=116.017,121.000=116.022,122.000=116.017,123.000=111.636,124.000=118.681,125.000=116.022,126.000=116.017,127.000=116.022,128.000=116.017,129.000=116.022,130.000=116.017,131.000=116.022,132.000=112.850,133.000=118.009,134.000=116.017,135.000=116.022,136.000=116.017,137.000=116.022,138.000=114.096,139.000=121.476,140.000=113.470,141.000=116.022,142.000=116.017,143.000=116.022,144.000=116.017,145.000=116.022,146.000=116.017,147.000=116.022,148.000=116.017,149.000=116.022,150.000=116.017,151.000=116.022,152.000=116.017,153.000=116.022,154.000=116.017,155.000=115.375,156.000=116.017,157.000=116.022,158.000=116.017,159.000=116.022,160.000=116.017,161.000=116.022,162.000=116.017,163.000=116.022,164.000=116.017,165.000=116.022,166.000=116.017,167.000=116.022,168.000=111.631,169.000=119.372,170.000=116.017,171.000=116.022,172.000=116.017,173.000=116.022,174.000=114.096,175.000=116.022,176.000=117.334,177.000=114.734,178.000=116.017,179.000=117.339,180.000=114.729,181.000=113.475,182.000=121.471,183.000=113.475,184.000=120.761,185.000=116.022,186.000=116.017,187.000=113.787,188.000=116.017,189.000=117.673,190.000=114.412,191.000=118.347,192.000=113.782,193.000=118.347,194.000=115.048,195.000=115.375,196.000=117.668,197.000=115.375,198.000=116.672,199.000=116.022,200.000=117.002,201.000=115.053,202.000=116.017,203.000=116.022,204.000=114.096,205.000=116.022,206.000=116.017,207.000=118.009,208.000=113.470,209.000=116.677,210.000=116.017,211.000=116.349,212.000=117.002,213.000=114.101,214.000=117.002,215.000=117.673,216.000=116.017,217.000=115.375,218.000=116.672,219.000=114.101,220.000=115.370,221.000=117.339,222.000=115.048,223.000=116.349,224.000=114.412,225.000=115.053,226.000=118.342,227.000=116.022,228.000=117.002,229.000=115.375,230.000=117.334,231.000=116.677,232.000=116.017,233.000=116.022,234.000=116.017,235.000=113.475,236.000=115.692,237.000=117.339,238.000=114.412,239.000=116.022,240.000=116.017,241.000=116.022,242.000=117.002,243.000=114.734,244.000=115.048,245.000=116.022,246.000=117.668,247.000=115.697,248.000=114.096,249.000=116.677,250.000=114.729,251.000=117.339,252.000=115.048,253.000=117.007,254.000=115.048,255.000=116.022,256.000=116.017,257.000=116.349,258.000=115.370,259.000=116.022,260.000=116.672,261.000=115.053,262.000=116.017,263.000=117.007,264.000=115.048,265.000=116.022,266.000=116.343,267.000=112.855,268.000=117.002,269.000=115.053,270.000=116.017,271.000=123.656,272.000=117.334,273.000=114.734,274.000=116.672,275.000=114.417;
#STOPS:;
#BGCHANGES:0.000=Weird Part of the Night - Louis Cole(1)(1).mpg=1.000=1=0=1,
99999=-nosongbg-=1.000=0=0=0 // don't automatically add -songbackground-
;

//---------------dance-single - ----------------
#NOTES:
     dance-single:
     :
     Challenge:
     10:
     0.750,0.970,0.452,0.689,0.720:
0000
0000
0000
0000
,
0000
0000
0000
0000
0000
0000
0000
0000
0000
0000
0000
0000
0000
0000
0000
0000
0000
0000
0000
0000
0000
0000
0000
1000
,
0001
0000
0000
1000
0000
0100
1000
0000
0000
0001
0000
0100
0001
0000
0000
1000
0000
0010
1000
0000
0000
0001
0000
0010
,
0001
0000
0000
1000
0000
0100
1000
0000
0000
0001
0000
0100
0001
0000
0000
1000
0000
0001
1000
0000
0000
0000
0000
0001
,
0000
0000
0010
0100
0000
0000
1000
0000
0000
0010
0000
0000
0000
0000
1010
0000
0000
0011
0000
0000
1010
0000
0000
1000
,
0000
0000
0000
0000
0000
0000
0000
0000
0000
0000
0000
0000
0000
0000
0000
0000
0100
0000
0000
0000
0000
0000
0000
0000
0010
0000
0000
0000
0000
0000
0000
0000
0000
0000
0000
0000
0000
0000
0000
0000
0000
0000
0000
0000
0000
0000
0000
0000
0001
0000
0000
0000
0000
0000
0000
0000
0000
0000
0000
0000
0000
0000
0000
0000
0000
0000
0000
0000
0000
0000
0000
0000
2100
0000
0000
0000
0000
0000
0000
0000
0000
0000
0000
0000
0000
0000
0000
0000
0000
0000
0000
0000
0000
0000
0000
0000
0001
0000
0000
0000
0000
0000
0000
0000
0000
0000
0000
0000
0000
0000
0000
0000
0000
0000
0000
0000
0000
0000
0000
0000
0001
0000
0000
0000
0000
0000
0000
0000
0000
0000
0000
0000
0000
0000
0000
0000
0000
0000
0000
0000
0000
0000
0000
0000
0001
0000
0000
0000
0000
0000
0000
0000
0000
0000
0000
0000
0000
0000
0000
0000
0000
0000
0000
0000
0000
0000
0000
0000
0001
0000
0000
0000
0000
0000
0000
0000
0000
0000
0000
0000
0000
0000
0000
0000
0000
0000
0000
0000
0000
3000
0000
0000
,
1001
0000
0100
0010
0001
0000
0010
0100
,
1000
0010
1000
0100
1001
0000
0200
0000
,
1301
0000
0100
0010
0001
0000
0010
0100
,
1000
0000
0000
0010
0000
0000
0010
0000
0000
1000
0000
0000
0001
0000
0000
0010
0000
0000
0100
0000
0000
0000
0000
0001
,
1000
0000
0010
0100
0001
0000
1000
0100
,
0001
0100
1000
0010
0101
0000
1100
0010
,
0101
0000
2000
3020
0230
0300
0001
0010
,
0100
0000
0000
0000
0000
0000
0000
0000
1000
0000
0000
0000
0000
0000
0000
0000
0010
0000
0000
0000
0000
0000
0000
0000
1000
0000
0000
0000
0000
0000
0000
0000
0002
0000
0000
0000
0000
0000
0000
0000
1000
0000
0000
0000
0000
0000
0000
0003
0101
0000
0000
0000
0000
0000
0000
0000
0000
0000
0000
0000
0000
0000
0000
0000
,
0001
0010
0100
1000
0010
0100
0010
1000
0001
0010
0100
1000
0010
0100
0010
1000
,
1000
0100
0010
0001
0100
0010
0100
0001
1000
0100
0010
0001
0100
0010
0100
0001
,
0000
0000
0000
0000
0000
0000
0000
0000
1001
0000
0000
0000
0000
0000
0000
0000
0200
0300
0000
0000
0000
0000
0000
0000
1001
0000
0000
0000
0000
0000
0000
0000
0000
0000
0000
0000
0000
0000
0000
0000
0000
0000
0000
0000
0000
0000
0000
0000
0200
0300
0000
0000
0000
0000
0000
0000
0000
0000
0000
0000
0000
0000
0000
0000
,
0200
0000
0000
0300
0000
0000
0000
0000
0000
0000
0000
0000
0000
0000
0000
0000
0000
0000
0000
0000
0000
0000
0000
0000
1001
0000
0000
0000
0000
0000
0000
0000
0000
0000
0000
0000
0000
0000
0000
0000
0000
0000
0000
0000
0000
0000
0000
0000
0200
0000
0000
0300
0000
0000
0000
0000
0000
0000
0000
0000
0000
0000
0000
0000
0000
0000
0000
0000
0000
0000
0000
0000
1001
0000
0000
0000
0000
0000
0000
0000
0000
0000
0000
0000
0000
0000
0000
0000
0000
0000
0000
0000
0000
0000
0000
0000
0200
0000
0000
0300
0000
0000
0000
0000
0000
0000
0000
0000
0000
0000
0000
0000
0000
0000
0000
0000
0000
0000
0000
0000
0000
0000
0000
0000
0000
0000
0000
0000
0000
0000
0000
0000
0000
0000
0000
0000
0000
0000
0000
0000
0000
0000
0000
0000
0200
0000
0000
0300
0000
0000
0000
0000
0000
0000
0000
0000
0000
0000
0000
0000
0000
0000
0000
0000
0000
0000
0000
0000
0000
0000
0000
0000
0000
0000
0000
0000
0000
0000
0000
0000
0000
0000
0000
0000
1000
0000
0000
0000
0000
0000
0000
0000
,
0001
0000
2000
3200
0320
0032
0023
0230
,
2300
0000
0000
3010
0000
1000
0100
0000
0000
0010
0000
0001
0100
0000
0000
0010
0000
1000
0100
0000
0000
0010
0000
0001
,
0100
0000
0000
0010
0000
1000
0100
0000
0000
0200
0000
0000
0320
0000
0000
0032
0000
0000
0023
0000
0000
0230
0000
0000
,
2300
0000
0000
0000
0000
0000
0000
0000
0000
3001
0000
0000
1001
0000
0000
0010
0000
1000
0100
0000
0000
0010
0000
0001
,
0100
0000
0000
0010
0000
1000
0100
0000
0000
0002
0000
0000
2003
0000
0000
3200
0000
0000
0320
0000
0000
0032
0000
0000
,
2003
0000
0000
0000
0000
0000
3002
0000
0000
1103
0000
0000
0000
0000
0000
1000
0000
0100
0010
0000
0000
0001
0000
0100
,
0010
0000
0000
1000
0000
0100
0020
0000
0000
0032
0000
0000
0023
0000
0000
0230
0000
0000
2300
0000
0000
3020
0000
0000
,
2030
0000
0000
0000
0000
0000
0000
0000
0000
3001
0000
0000
0000
0000
0000
0000
0000
0000
0000
0000
0000
0000
0000
0001
,
0000
0000
0010
0100
0000
0000
1000
0000
0000
0010
0000
0000
0000
0000
1010
0000
0000
0011
0000
0000
1010
0000
0000
0001
,
0000
0000
0010
0100
0000
0000
1000
0000
0000
0010
0000
0000
0000
0000
1100
0000
0000
0101
0000
0000
1100
0000
0000
0001
,
0000
0000
0010
0100
0000
0000
1000
0000
0000
0010
0000
0000
0000
0000
1010
0000
0000
0011
0000
0000
1010
0000
0000
0001
,
0000
0000
0010
0100
0000
0000
1000
0000
0000
0010
0000
0000
0000
0000
1100
0000
0000
0101
0000
0000
1100
0000
0000
0001
,
0000
0000
0010
0100
0000
0000
1000
0000
0000
0010
0000
0000
0000
0000
1010
0000
0000
0011
0000
0000
1010
0000
0000
1000
,
0000
0000
0100
0010
0000
0000
0001
0000
0000
0010
0000
0000
0001
0000
0000
1000
0000
0010
1000
0000
0000
0000
0000
0001
,
0000
0000
0010
0100
0000
0000
1000
0000
0000
0010
0000
0000
0000
0000
1010
0000
0000
0011
0000
0000
1010
0000
0000
1000
,
0000
0000
0000
0000
0100
0000
0010
0000
0000
0000
0000
0000
0001
0000
0000
0000
0000
0000
0111
0000
0000
0000
0000
0000
0000
0000
0000
0000
0000
0000
0000
0000
0000
0000
0000
0000
2200
0000
0000
3300
0000
0000
0000
0000
0000
0000
0000
0000
,
1001
0000
0100
0010
0001
0000
0010
0100
,
1000
0010
1000
0100
0010
0000
0002
1000
,
0103
0000
0010
0100
0001
0000
0010
0100
,
0010
0000
1000
0000
1001
0100
1001
0000
,
0001
0000
0002
0023
0230
0300
1100
0010
,
1100
0100
0010
0100
1000
0000
0012
0000
,
0013
0000
0100
1000
0010
0000
0010
0100
,
0001
0000
0100
0000
0011
1000
0011
0000
,
0001
0010
0100
1000
0010
0100
0010
1000
0001
0010
0100
1000
0010
0100
0010
1000
,
1000
0100
0010
0001
0100
0010
0100
0001
1000
0100
0010
0001
0100
0010
0100
0001
,
0000
0000
0000
0000
0000
0000
0000
0000
1001
0000
0000
0000
0000
0000
0000
0000
0200
0300
0000
0000
0000
0000
0000
0000
1001
0000
0000
0000
0000
0000
0000
0000
0000
0000
0000
0000
0000
0000
0000
0000
0000
0000
0000
0000
0000
0000
0000
0000
0200
0300
0000
0000
0000
0000
0000
0000
0000
0000
0000
0000
0000
0000
0000
0000
,
0200
0000
0000
0300
0000
0000
0000
0000
0000
0000
0000
0000
0000
0000
0000
0000
0000
0000
0000
0000
0000
0000
0000
0000
1001
0000
0000
0000
0000
0000
0000
0000
0000
0000
0000
0000
0000
0000
0000
0000
0000
0000
0000
0000
0000
0000
0000
0000
0200
0000
0000
0300
0000
0000
0000
0000
0000
0000
0000
0000
0000
0000
0000
0000
0000
0000
0000
0000
0000
0000
0000
0000
1001
0000
0000
0000
0000
0000
0000
0000
0000
0000
0000
0000
0000
0000
0000
0000
0000
0000
0000
0000
0000
0000
0000
0000
1000
0000
0000
0000
0000
0000
0000
0000
0100
0000
0000
0000
0000
0000
0000
0000
0010
0000
0000
0000
0000
0000
0000
0000
0100
0000
0000
0000
0000
0000
0000
0000
1000
0000
0000
0000
0000
0000
0000
0000
0010
0000
0000
0000
0000
0000
0000
0000
0100
0000
0000
0000
0000
0000
0000
0000
0010
0000
0000
0000
0000
0000
0000
0000
1000
0000
0000
0000
0000
0000
0000
0000
0100
0000
0000
0000
0000
0000
0000
0000
0010
0000
0000
0000
0000
0000
0000
0000
0100
0000
0000
0000
0000
0000
0000
0000
,
1000
0000
2000
3200
0320
0032
0023
0230
,
2300
0000
0000
3010
0000
1000
0100
0000
0000
0010
0000
0001
0100
0000
0000
0010
0000
1000
0100
0000
0000
0010
0000
0001
,
0100
0000
0000
0010
0000
1000
0100
0000
0000
0200
0000
0000
0320
0000
0000
0032
0000
0000
0023
0000
0000
0230
0000
0000
,
2300
0000
0000
0000
0000
0000
0000
0000
0000
3001
0000
0000
1001
0000
0000
0010
0000
1000
0100
0000
0000
0010
0000
0001
,
0100
0000
0000
0010
0000
1000
0100
0000
0000
0002
0000
0000
2003
0000
0000
3200
0000
0000
0320
0000
0000
0032
0000
0000
,
2003
0000
0000
0000
0000
0000
3002
0000
0000
1103
0000
0000
0000
0000
0000
1000
0000
0100
0010
0000
0000
0001
0000
0100
,
0010
0000
0000
1000
0000
0100
0020
0000
0000
0032
0000
0000
0023
0000
0000
0230
0000
0000
2300
0000
0000
3020
0000
0000
,
2030
0000
0000
0000
0000
0000
0000
0000
0000
0000
0000
0000
0000
0000
0000
0000
0000
0000
3001
0000
0000
0000
0000
0000
1000
0000
0000
0000
0000
0000
1000
0000
0000
0100
0000
0000
0010
0000
0000
0001
0000
0000
0000
0000
0000
0000
0001
0000
,
0000
0000
0010
0100
0000
0000
1000
0000
0000
0010
0000
0000
0000
0000
1010
0000
0000
0011
0000
0000
1010
0000
0000
1000
,
0000
0000
0100
0010
0000
0000
0001
0000
0000
0100
0000
0000
0000
0000
0002
0000
0000
0023
0000
0000
0230
0000
0000
1300
,
0000
0000
0100
0010
0000
0000
0001
0000
0000
0100
0000
0000
0000
0000
0101
0000
0000
1100
0000
0000
0101
0000
0000
0001
,
0000
0000
0010
0100
0000
0000
1000
0000
0000
0100
0000
0000
0000
0000
2000
0000
0000
3200
0000
0000
0320
0000
0000
0032
,
0000
0000
0013
0100
0000
0000
1000
0000
0000
0010
0000
0000
0000
0000
1010
0000
0000
0011
0000
0000
1010
0000
0000
1000
,
0000
0000
0100
0010
0000
0000
0001
0000
0000
0100
0000
0000
0000
0000
0002
0000
0000
0023
0000
0000
0230
0000
0000
2300
,
0000
0000
3001
0100
0000
0000
0001
0000
0000
1000
0000
0000
0000
0000
0011
0000
0000
1010
0000
0000
0011
0000
0000
1001
,
0000
0000
1000
0001
0000
0000
0100
0000
0000
1001
0000
0000
0001
0010
0100
1000
0100
0010
0100
1000
0100
0010
0001
0010
,
0001
0010
0100
1000
0100
0010
0001
0100
0010
1000
0100
0010
0100
1000
0100
0010
,
0001
0100
0001
0010
0100
1000
0010
0100
0010
1000
0100
0010
0001
0010
0001
0100
,
0001
0010
0100
1000
0100
0010
0001
0100
0001
1000
0001
0010
0100
1000
0100
0010
,
0001
0100
0010
1000
0100
0010
0001
0010
0100
1000
0010
0100
0010
1000
0100
0010
0100
1000
0100
0010
0001
1000
0100
0010
,
0002
1000
1000
1000
,
2003
0000
0000
3200
0320
0032
0023
0230
2300
3200
0320
0032
,
0003
0000
0000
0000
;
