#TITLE:We wanna (DvF SM Edit);
#SUBTITLE:;
#ARTIST:Alexandra Stan & Inna;
#TITLETRANSLIT:;
#SUBTITLETRANSLIT:;
#ARTISTTRANSLIT:;
#GENRE:Dance;
#CREDIT:;
#BANNER:dvf_wewanna - banner.png;
#BACKGROUND:dvf_wewanna - BG.png;
#LYRICSPATH:;
#CDTITLE:;
#MUSIC:dvf_wewanna.mp3;
#OFFSET:0.000000;
#SAMPLESTART:51.299999;
#SAMPLELENGTH:12.000000;
#SELECTABLE:YES;
#BPMS:0.000000=110.000000
;
#STOPS:
;
#BGCHANGES:0.000=dvf_wewanna.mp4=1.000=0=0=0=StretchNoLoop====,
99999=-nosongbg-=1.000=0=0=0 // don't automatically add -songbackground-
;
#KEYSOUNDS:;
#ATTACKS:;

//---------------dance-single - ----------------
#NOTES:
     dance-single:
     :
     Beginner:
     3:
     0.237501,0.225587,0.131251,0.313544,0.000000,167.000000,18.000000,43.000000,0.000000,0.000000,0.000000,0.237501,0.225587,0.131251,0.313544,0.000000,167.000000,18.000000,43.000000,0.000000,0.000000,0.000000:
0000
0000
0000
0000
0000
0020
0000
0000
,
0000
2030
0000
0000
3000
0200
0000
0000
,
0000
0300
0000
0000
0000
0002
0000
0000
,
0003
2000
0000
0000
3000
0200
0000
0000
,
0000
0300
0000
0000
0000
0002
0000
0000
,
0000
2003
0000
0000
3000
0000
0200
0000
,
0000
0000
0000
0300
0000
0020
0000
0000
,
0030
2000
0000
0000
0000
3000
0000
0000
,
0000
0000
1001
0000
0000
0010
0000
0010
,
0000
0010
0000
0000
0000
0100
0000
0100
,
0000
0100
0000
0000
0000
0001
0000
0001
,
0000
0001
0000
0000
0000
1000
0000
1000
,
0000
1000
0000
0100
0000
0010
0000
0000
,
0000
0000
1000
0100
,
0000
0000
0010
0001
,
0000
0000
1000
0100
,
0010
0001
0000
0110
,
0000
0001
0000
1000
0000
0000
0000
0000
,
0000
0110
0000
0001
0000
1000
0000
0000
,
0000
0110
0000
0001
0000
1000
0000
0010
,
0000
0010
0000
0000
0000
1001
0000
0000
,
0000
0010
0000
0100
0000
1001
0000
0000
,
0000
0010
0000
0100
0000
1001
0000
0000
,
0000
0010
0000
0100
0000
1000
0000
0000
,
0000
0000
0001
0001
0000
0020
0000
0000
,
0030
0200
0000
0000
0300
2000
0000
0000
,
0000
3000
1000
1000
0000
0200
0000
0000
,
0300
0020
0000
0000
0032
0000
0000
0000
,
0000
0003
1001
1001
0000
0020
0000
0030
,
0000
0200
0000
0000
0300
2000
0000
0000
,
0000
3000
0001
0001
0000
2000
0000
0000
,
0000
3020
0000
0000
0230
0000
0000
0300
,
0000
0000
0001
0000
0001
0010
0000
0100
,
0000
1000
0100
0000
0000
0001
0010
0100
,
0000
1000
0000
0100
0000
0001
0000
0010
,
0000
0100
0000
1000
0000
0100
0100
0001
,
0000
0010
0100
0000
0000
1000
0000
0100
,
0000
0010
0001
0000
0000
1000
1000
0100
,
0000
0010
0100
0000
0000
1000
0000
0001
,
0000
0010
0010
0000
0000
0100
0100
0100
,
0000
0001
0000
0000
0000
1001
0000
0010
,
0000
0100
0000
0010
0000
1001
0000
0010
,
0000
0100
0000
0010
0000
1001
0000
0100
,
0000
0010
0000
0100
0000
1001
0000
0100
,
0000
0000
0000
0000
0000
2000
0000
0000
,
0000
0200
0000
0000
3000
0020
0000
0300
,
0000
0032
0000
0000
0000
2003
0000
0000
,
0000
0200
0000
0000
3000
0020
0000
0000
,
0300
0032
0000
0000
0003
2000
0000
0000
,
0000
0100
0010
0000
0001
0000
0000
0000
,
0000
0000
0000
0100
0000
0010
0000
0000
,
0000
0001
0000
0100
0020
0000
0000
0000
,
0000
3030
0000
1001
0000
0010
0000
0010
,
0000
0100
0000
0010
0000
2000
0000
0000
,
0000
3000
0000
0001
0000
0010
0000
0100
,
0000
1000
0000
0100
0020
0000
0000
0000
,
0000
0030
0001
0001
0000
0020
0000
0000
,
0030
0200
0000
0300
2000
0000
0000
0000
,
0000
3000
1001
1001
0000
0020
0000
0000
,
0030
0200
0000
0000
0300
2000
0000
0000
,
3000
0011
2200
0000
,
0000
0000
0000
0000
0000
0000
0000
3300
;

//---------------dance-single - ----------------
#NOTES:
     dance-single:
     :
     Medium:
     5:
     0.339585,0.358388,0.247918,0.422919,0.218751,234.000000,34.000000,58.000000,0.000000,0.000000,0.000000,0.339585,0.358388,0.247918,0.422919,0.218751,234.000000,34.000000,58.000000,0.000000,0.000000,0.000000:
0000
0000
0000
0000
0000
0000
0000
0000
0000
0000
0000
2000
0000
0000
0000
0000
,
0000
0000
0000
3020
0000
0000
0000
0000
0000
0000
0230
0000
0000
0000
0000
0000
,
0000
0000
0302
0000
0000
0000
0000
0000
0000
2003
0000
0000
0000
0000
0000
0000
,
0000
0000
3200
0000
0000
0000
0000
0000
0000
0320
0000
0000
0000
0000
0000
0000
,
0000
0030
0000
0000
0000
0000
0000
0000
0000
0000
2000
0000
0000
0000
0000
0000
,
0000
3020
0000
0000
0000
0000
0000
0000
0000
0200
0030
0000
0000
0000
0000
0000
,
0000
0000
0302
0000
0000
0000
0000
0000
0000
2003
0000
0000
0000
0000
0000
0000
,
0000
0000
0020
3000
0000
0000
0000
0000
0000
0030
2000
0000
0000
0000
0000
0000
,
3000
0000
0000
0000
1001
0000
0000
1001
1001
0000
0000
0100
0000
0000
0000
0100
,
0000
0000
0000
0100
0000
0000
0100
0000
0000
0000
0010
0000
0000
0000
0010
0000
,
0000
0000
0010
0000
0000
0001
0000
0000
0000
0100
0000
0000
0000
0000
0100
0000
,
0000
0100
0000
0100
0000
0110
0110
0110
,
0000
0001
0000
0001
0000
1000
0000
0100
,
0000
0010
0000
0001
0000
0001
0000
0010
,
0000
0100
0000
1000
0000
1000
0000
0100
,
0000
0010
0000
0001
0000
0011
0000
0100
,
0000
1000
0000
1000
0000
0110
0000
1000
,
0000
0010
0000
0001
0000
0101
0000
0010
,
0000
1000
0000
1100
0000
0010
0000
0001
,
0000
0011
0000
0110
0000
1000
0000
1000
,
0000
0000
0010
0000
0000
0000
0000
0001
0000
0000
1000
0001
0000
0000
1001
0000
,
0000
0000
0110
0000
0000
0110
0000
0000
0000
0000
0002
0000
0000
0000
0000
0003
,
0000
0000
0110
0000
0000
0110
0000
0000
0000
0000
2000
0000
0000
0000
0000
3000
,
0000
0000
0110
0000
0000
0110
0000
0000
0000
0000
0202
0000
0000
0000
0000
0000
,
0000
0303
0000
0000
1010
0000
0101
0000
0000
0000
0010
0000
0000
0010
0000
0000
,
0100
0000
0001
0000
0000
1000
0000
0000
0200
0000
0000
0000
0000
0000
0000
0000
,
0000
0300
0000
0000
1001
0000
1001
0000
0000
0000
0010
0000
0000
0100
0000
0000
,
0010
0000
0001
0000
0000
1000
0000
0200
0000
0000
0000
0000
0000
0000
0000
0000
,
0000
0300
0000
0000
0101
0000
0101
0000
0000
0000
0020
0000
0000
0000
0000
0030
,
0000
1000
0000
0200
0000
0000
0000
0000
0320
0000
0032
0000
0000
0000
0000
0000
,
0000
0003
0000
0000
0101
0000
0101
0000
0000
0000
0020
0000
0000
0000
0000
0030
,
0000
0200
0000
0000
0000
0000
0300
0000
2000
0000
0000
0000
0000
0000
0000
3000
,
0000
0000
0000
0001
0000
0001
0000
0001
0001
0000
0000
0100
0000
0000
0100
0000
,
0000
0100
0000
0100
0000
0010
0100
0100
,
0000
0100
0000
0100
0000
0001
0000
0001
,
0000
0000
0000
1000
0000
1000
0000
0000
0000
0000
0100
0000
0100
0000
0100
0000
,
0000
0100
0000
0010
0000
0100
0000
0100
,
0000
0100
0000
0100
0000
0100
0100
0100
,
0000
0000
0001
0000
0000
0100
0000
0000
0000
0000
0010
0000
0000
0000
0010
0000
,
0000
0000
0010
0000
0000
0010
0000
0000
0000
0000
0001
0000
0001
0000
0000
0001
,
0000
0100
0000
1000
0000
2000
0000
3002
,
0000
0000
0023
0000
0000
0000
0230
0000
0000
0000
2300
0000
0000
0000
0200
3000
,
0000
0000
0320
0000
0000
0000
0002
0030
0000
0000
2003
0000
0000
0000
0200
3000
,
0000
0000
0020
0300
0000
0000
0002
0030
0000
0000
2003
0000
0000
0000
3200
0000
,
0000
0000
0000
0300
0000
0001
0001
0000
0000
0000
1000
0000
0000
0100
0000
0000
,
0010
0000
0001
0000
0000
0010
0000
0000
0100
0000
1000
0000
0000
0100
0000
0000
,
0010
0000
0001
0000
0000
0010
0000
0000
0100
0000
1000
0000
0000
0100
0000
0000
,
0010
0000
0001
0000
0000
0010
0000
0000
0100
0000
1000
0000
0000
0100
0000
0000
,
0010
0000
0001
0000
0000
1000
0000
0010
0000
0000
0100
0000
0000
0010
0000
0000
,
0001
0000
1000
0000
0000
0100
0000
0000
0010
0000
0100
0000
0000
1000
0000
0000
,
0100
0000
0010
0000
0000
0001
0000
0000
1000
0000
0100
0000
0000
0010
0000
0000
,
0001
0000
1000
0000
0000
0001
0000
0000
1000
0000
0010
0000
0000
0100
0000
0000
,
0010
0100
0000
0000
0000
0202
0000
0000
,
0303
0000
2020
0000
0000
0000
0000
3030
0000
0202
0000
0000
0000
0000
0000
0000
,
0000
0300
0003
0000
0010
0000
1000
0000
0000
0000
0200
0000
0000
0000
0000
0300
,
0000
0000
0020
0000
0000
0000
0000
0030
0000
0002
0000
0000
0000
0000
0000
0003
,
1001
0000
1001
0000
0000
0000
0200
0000
0000
0300
0020
0000
0000
0000
0000
0030
,
1000
0000
0100
0000
0000
0010
0000
0000
0001
0000
0002
0000
0000
0000
0000
0000
,
0000
0000
0003
1000
0000
0000
0100
0000
0000
0000
0020
0000
0000
0000
0000
0000
,
0030
0000
0200
0000
0000
0000
0000
0300
0000
2002
0000
0000
0000
0000
0000
0000
,
3003
0000
0000
0010
0000
0010
0000
0100
0200
0000
0000
0000
0000
0000
0000
0000
,
0000
0000
0000
0000
0000
0000
0000
0300
0000
0000
0000
0000
0000
0000
0000
0000
;

//---------------dance-single - ----------------
#NOTES:
     dance-single:
     :
     Easy:
     4:
     0.356252,0.360940,0.444794,0.517712,0.000000,210.000000,61.000000,71.000000,0.000000,1.000000,0.000000,0.356252,0.360940,0.444794,0.517712,0.000000,210.000000,61.000000,71.000000,0.000000,1.000000,0.000000:
0000
0000
0000
0000
0000
0020
0000
0000
,
0000
2030
0000
0000
0000
3200
0000
0000
,
0000
0302
0000
0000
0000
2003
0000
0000
,
0000
3020
0000
0000
0030
0200
0000
0000
,
0300
0000
0000
0000
0000
2020
0000
0000
,
3030
0202
0000
0000
0303
2020
0000
0000
,
3030
0220
0000
0000
0000
2330
0000
0000
,
0000
3002
0000
0000
0003
0202
0000
0000
,
0000
0000
0303
0000
0000
1000
0000
1000
,
0000
1000
0000
1000
0000
0001
0000
0001
,
0000
0001
0000
0001
0000
1000
0000
1000
,
0000
1000
0000
1000
0000
1000
0100
0010
,
0000
0001
0000
0010
0000
0110
0000
0101
,
0000
0101
0000
0101
0000
1010
0000
0110
,
0000
0110
0000
0110
0000
1010
0000
1010
,
0000
1010
0000
1010
0000
0101
0000
0110
,
0000
1100
0000
0011
0000
0110
0000
1100
,
0000
0010
0000
0100
0000
0010
0000
0001
,
0000
1000
0000
0100
0000
0010
0000
0001
,
0000
1000
0000
0100
0000
0010
0000
0001
,
0000
0010
0100
0000
0000
2000
0000
0000
,
3000
0101
0000
0010
0000
0002
0000
0000
,
0003
1010
0100
0000
0000
2002
0000
0000
,
3003
0010
0100
0000
0000
0200
0000
0000
,
0000
0300
1001
1001
0000
0020
0000
0000
,
0230
0000
0000
0000
0000
2300
0000
0000
,
0000
3000
0001
0001
0000
2000
0000
0000
,
0000
3010
0100
0000
0001
0020
0000
0000
,
0000
0030
0110
0110
0000
0002
0000
0000
,
2003
0000
0000
3000
0002
0023
0000
0000
,
0030
0000
0101
0101
0000
0020
0000
0000
,
0030
2000
0000
3000
0000
2020
0000
0000
,
3000
0030
0110
0110
0001
1000
0000
1000
,
0000
1000
1000
0000
0000
0100
0100
0100
,
0000
0010
0000
0010
0000
0001
0000
0001
,
0000
0001
0001
0000
0000
0100
0100
0100
,
0000
0010
0000
0100
0000
1100
0000
1100
,
0000
1100
0000
1100
0000
0011
0011
0011
,
0000
0100
0000
0100
0000
0110
0000
0110
,
0000
0110
0000
0110
0000
0101
0101
0101
,
0000
0020
0000
0000
0030
2000
0000
3200
,
0000
0320
0000
0032
0000
2003
0000
3002
,
0000
0023
0000
0230
0000
0320
0000
0032
,
2003
0000
0000
3200
0000
0320
0000
0032
,
0000
0003
1000
0100
0010
0001
0000
0001
,
1000
0100
0010
0000
0010
0020
0000
0000
,
0000
0030
0001
0001
1000
0100
0000
0010
,
0010
1000
0000
0100
0010
0200
0000
0000
,
0000
0300
1000
0001
0010
0100
0000
0100
,
1000
1000
0100
0000
0010
0002
0000
0000
,
0000
0003
1000
1000
0100
0010
0000
0001
,
0110
0110
0001
0000
2000
0000
0000
0000
,
3000
0000
1001
1001
0000
0020
0000
0000
,
0230
0000
0000
0300
0000
0202
0000
0000
,
0300
0003
1010
1010
0000
0200
0000
0000
,
0300
0020
0000
0030
0000
0200
0000
0000
,
0000
0300
1001
1001
0000
0200
0000
0000
,
0320
0000
0000
0030
2002
0000
0000
0000
,
0000
3003
0101
0101
0000
0020
0000
0000
,
0230
0000
2300
0000
,
3000
0000
0001
0001
2000
0000
0000
0000
,
0000
0000
0000
0000
0000
0000
0000
3000
;

//---------------dance-single - ----------------
#NOTES:
     dance-single:
     :
     Hard:
     9:
     0.546878,0.809380,0.473961,0.590629,0.616150,379.000000,65.000000,81.000000,0.000000,0.000000,0.000000,0.546878,0.809380,0.473961,0.590629,0.616150,379.000000,65.000000,81.000000,0.000000,0.000000,0.000000:
// measure 0
0000
0000
0000
0000
0000
0000
0000
0000
1000
0000
1000
0000
0000
0000
0000
0200
0000
0000
0000
0000
0000
0000
0000
0000
,  // measure 1
0000
0000
0000
0320
0000
0000
0000
0000
0000
0000
0000
0000
0032
0000
0000
2000
0003
0000
0000
0000
0000
0000
0000
0000
,  // measure 2
0000
0000
0200
3000
0000
0000
0000
0000
0000
0000
0000
0000
0310
0000
0000
0001
2000
0000
0000
0000
0000
0000
0000
0000
,  // measure 3
0000
3100
0000
0020
0000
0000
0000
0000
0032
0000
0000
0000
2003
0000
0000
3200
0000
0000
0000
0000
0000
0000
0000
0000
,  // measure 4
0000
0000
0000
0300
0000
0000
0110
0000
0000
0110
0000
0000
0001
0000
0000
2000
0000
0000
0000
0000
0000
0000
0100
3000
,  // measure 5
0000
0010
0000
0002
0000
0000
0000
2003
0000
0000
0000
3100
0000
0000
0020
0000
0000
0000
0000
0000
0000
0000
0000
0000
,  // measure 6
0000
0000
0000
0030
0001
0000
1000
0000
0000
0100
0000
0010
0000
0000
0002
0000
0000
0000
0000
0000
2000
0003
0000
0000
,  // measure 7
0000
3100
0000
0020
0000
0000
0000
0000
0000
0000
0000
0000
0031
0000
2000
0000
0000
0000
0000
0000
0000
0000
0000
0000
,  // measure 8
3000
0000
0000
0000
0000
0101
0000
0000
0101
0000
0101
0000
0101
0000
0000
0000
0110
0000
0110
0000
0000
0110
0000
0000
,  // measure 9
0000
0110
0000
0000
0110
0000
0110
0000
0110
0000
0000
0110
0110
0000
0000
0000
0110
0000
0000
0110
0000
0000
0110
0000
,  // measure 10
0110
0000
0000
0000
0110
0000
0110
0000
0110
0000
0000
0110
0110
0000
0000
0000
0101
0000
0101
0000
0000
0101
0000
0000
,  // measure 11
0101
0000
0000
0101
0000
0000
0101
0000
0101
0000
0101
0000
0101
0000
0000
0000
1010
0000
1000
0010
0000
1010
0000
0000
,  // measure 12
0000
0000
0000
0100
0000
0000
0000
0000
0100
0000
0000
0000
0000
0000
0020
0000
0000
0000
0000
0000
0030
2000
0000
0000
,  // measure 13
0000
0000
0000
3000
0100
0000
0010
0001
0000
0000
1000
0000
0100
0000
0000
0010
0000
0000
0000
0020
0000
0000
0000
0000
,  // measure 14
0000
0000
0000
0000
0000
0000
0000
0000
0000
0000
0030
1000
0100
0000
0010
0001
0000
0000
0000
1000
0000
0100
0000
0000
,  // measure 15
0000
0010
0000
0100
0000
0000
1000
0000
0100
0000
0000
0010
0001
0000
0000
1000
0000
0000
0100
0000
0000
0010
0000
0000
,  // measure 16
0010
0000
0000
1000
0000
0000
0100
0000
0000
0010
0000
0000
0000
0000
0000
0002
0000
0000
0000
0000
0000
1003
2000
0000
,  // measure 17
0000
0000
0000
0000
0200
3000
0000
0000
0000
0320
0000
0000
0001
0030
2000
0000
0000
0000
0000
0000
0000
0200
3000
0000
,  // measure 18
0000
0000
0000
0020
0300
0000
0000
0000
0130
0000
0000
0010
0100
0000
0010
0002
0000
0000
0000
0000
0000
2003
0000
0000
,  // measure 19
0000
0000
0000
3200
0000
0000
0000
0000
0020
0300
0000
0000
0000
0000
0030
0001
0000
1000
0000
0100
0000
0010
0100
0000
,  // measure 20
0000
1000
0000
0100
0000
0000
0010
0000
0100
0000
0000
0000
0100
0000
0000
0001
0000
0001
0001
0000
0001
0000
0000
0000
,  // measure 21
0100
0000
0000
1000
0000
0000
0000
0200
0000
0000
0000
0000
0000
0300
0000
0010
0000
0010
0000
0010
0000
0010
0000
0000
,  // measure 22
0100
0000
0000
2000
0000
0000
0000
3200
0000
0000
0000
0000
0000
0000
0000
0310
0000
0010
0010
0000
0001
0000
1000
0000
,  // measure 23
0000
0100
0000
0000
0010
0000
0000
0000
0002
0000
0000
0000
0000
0000
0003
1000
0000
0000
0000
0100
0010
0000
0100
0010
,  // measure 24
0000
0000
0000
0000
0000
0000
0001
0000
0000
0001
0000
0000
0000
0000
0000
0100
0000
0000
0000
1000
0000
0000
0000
0010
,  // measure 25
0000
0000
0100
0000
1000
0000
0000
0000
0100
0000
0000
0000
0010
0000
0000
0100
0000
0000
1000
0000
0000
0000
0100
0000
,  // measure 26
0000
0010
0000
0000
0001
0000
1000
0000
0000
0000
0100
0000
0000
0010
0000
0000
0100
0000
0000
0000
0100
0000
0000
0000
,  // measure 27
0001
0000
0000
1000
0000
0000
0100
0000
0000
0010
0000
0000
0000
0001
0000
1000
0000
0000
0100
0000
0000
0010
0000
0000
,  // measure 28
0001
0000
0000
1000
0000
0000
0101
0000
0000
0010
0000
0000
0010
0000
0000
1000
0000
0000
0000
1000
0000
0000
0000
0100
,  // measure 29
0000
0000
0000
0010
0000
0000
0000
0010
0000
0000
0000
0000
0100
0000
0000
0010
0000
0000
0100
0000
0000
0000
0010
0000
,  // measure 30
0000
0100
0000
0010
0000
0000
0100
0000
0000
0001
0000
0000
1000
0000
0000
0100
0000
0000
0000
0010
0000
0010
0000
0000
,  // measure 31
0000
0010
0000
0100
0000
0000
0000
0000
0001
0000
0000
0000
0100
0000
0000
0200
0000
0000
0000
0000
0000
0000
0000
0000
,  // measure 32
0000
0000
0300
0000
0000
1000
0000
0000
1000
0000
0000
1000
1000
0000
0000
0200
0000
0000
0000
0000
0000
0020
0300
0000
,  // measure 33
0000
0000
0000
0000
0032
0000
0000
0000
2000
0003
0000
0000
0000
3000
0000
0101
0000
0000
0101
0000
0000
0010
1000
0000
,  // measure 34
0000
0000
0000
1010
0000
0000
0000
0010
1000
0000
0000
0000
0000
0000
0000
0000
0110
0000
0000
0000
0000
0110
0000
0000
,  // measure 35
0000
0000
0000
0110
0000
0000
0000
0110
0000
0000
0000
0000
0000
0000
0000
0101
0000
0000
0101
0000
0000
0101
0000
0000
,  // measure 36
0000
0000
0000
0110
0000
0000
0000
0000
0000
0110
0000
0000
0000
0000
0000
0100
1000
0000
0000
0000
0000
0100
1000
0000
,  // measure 37
0000
0000
0000
1100
0000
0000
0000
0100
1000
0000
0000
0000
0000
0000
0000
0110
0000
0000
0110
0000
0000
0110
0000
0000
,  // measure 38
0000
0000
0000
0101
0000
0000
0000
0101
0000
0000
0000
0000
0000
0000
0000
0110
0000
0000
0000
0000
0000
0110
0000
0000
,  // measure 39
0000
0000
0000
0110
0000
0000
0000
0000
0000
0110
0000
0000
0000
0000
0000
0000
0110
0000
0110
0000
0000
0110
0000
0000
,  // measure 40
0000
0000
0000
0101
0000
0000
0000
0000
0100
1001
0000
0000
0000
0000
0000
0000
0001
0000
0000
1000
0000
0000
0001
0000
,  // measure 41
0000
1000
0000
0000
0001
0000
1000
0000
0001
0000
0000
0001
1000
0000
0000
0000
0001
0000
1000
0000
0000
0000
0001
0000
,  // measure 42
0000
1000
0000
0001
0000
0000
1000
0000
0001
0000
0000
0001
1000
0000
0000
0000
0001
0000
1000
0000
0000
0000
0001
0000
,  // measure 43
1000
0000
0000
0001
0000
0000
1000
0000
0001
0000
0000
0001
1000
0000
0000
0001
0000
0000
0000
1000
0000
0001
0000
0000
,  // measure 44
1000
0000
0000
0000
0100
0000
0000
0010
0000
0001
0000
0000
1000
0000
0000
0200
0000
0000
0000
0300
0010
0000
0000
0000
,  // measure 45
0001
0000
0000
2000
0000
0000
0000
3000
0100
0000
0000
0000
0010
0000
0000
0002
0000
0000
0000
0003
2000
0000
0000
0000
,  // measure 46
3100
0000
0000
0020
0000
0000
0000
0030
0002
0000
0000
0003
1000
0000
0000
0200
0000
0000
0000
0000
0320
0000
0000
0000
,  // measure 47
0031
0000
0000
2000
0000
0000
0000
0000
3200
0000
0000
0000
0310
0000
0000
0002
0000
0000
0000
2003
0000
0000
0000
0000
,  // measure 48
3100
0000
0000
0020
0000
0000
0000
0032
0000
0000
0000
0003
1000
0000
0000
0020
0000
0000
0000
0230
0000
0000
0000
1300
,  // measure 49
0000
0000
0000
0200
0000
0000
0000
0000
0320
0000
0000
0030
0001
0000
0000
2000
0000
0000
0000
0000
3200
0000
0000
0000
,  // measure 50
0310
0000
0000
0002
0000
0000
0000
0000
2003
0000
0000
0000
3100
0000
0000
0020
0000
0000
0000
0000
0032
0000
0000
0003
,  // measure 51
1000
0000
0000
0200
0000
0000
0000
0000
0320
0000
0000
0030
0001
0000
2000
0000
0000
0000
0000
0200
3000
0000
0000
0000
,  // measure 52
0010
0300
0000
0001
0000
0000
0000
0001
0000
0001
0000
0000
0000
1000
0000
0100
0000
0000
0000
0000
0100
0000
0000
0000
,  // measure 53
0010
0000
0000
0100
0000
0000
0000
0010
0000
0000
0000
0000
0100
0000
0000
0020
0000
0000
0000
0000
0000
0000
0000
0000
,  // measure 54
0000
0000
0000
0030
0000
0000
0001
0000
0000
0001
0000
0000
1000
0000
0000
0200
0000
0000
0000
0000
0310
0000
0000
0000
,  // measure 55
0001
0000
0000
1000
0000
0000
0000
0200
0000
0000
0000
0320
0000
0000
0000
0032
0000
0000
0000
0000
0000
0000
0000
0000
,  // measure 56
0000
0000
0000
0003
0101
0000
0000
0000
0000
0000
0110
0000
0100
0000
0000
0000
0200
0000
0000
0000
0000
0000
0000
0000
,  // measure 57
0000
0000
2300
0000
0000
0000
0000
0000
0200
3000
0000
0000
0310
0000
0000
0100
0000
0000
1000
0000
0000
0100
0000
0000
,  // measure 58
0010
0000
0000
0100
0000
0000
1000
0000
0000
0100
0000
0000
0010
0000
0000
0001
0000
0000
0000
0000
0001
0000
0000
2000
,  // measure 59
0000
0000
0000
0000
0000
0000
0000
3200
0000
0000
0000
0000
0000
0000
0320
0000
0000
0000
0000
0000
0000
0000
0000
0030
,  // measure 60
0000
0000
0000
0000
0000
0001
0000
0000
0001
0000
0000
0001
2000
0000
0000
0000
0000
0000
0000
0000
0000
0000
0000
0000
,  // measure 61
0000
0000
0000
0000
0000
0000
0000
0000
3000
0000
0000
0000
;
