#TITLE:We Are Never Ever Getting Bad Blood;
#SUBTITLE:;
#ARTIST:Taylor Swift;
#TITLETRANSLIT:;
#SUBTITLETRANSLIT:;
#ARTISTTRANSLIT:;
#GENRE:;
#CREDIT:;
#BANNER:banner.png;
#BACKGROUND:wanbb-bg.png;
#LYRICSPATH:;
#CDTITLE:;
#MUSIC:Never Ever Bad Blood.mp3;
#OFFSET:-0.160000;
#SAMPLESTART:101.840088;
#SAMPLELENGTH:12.000000;
#SELECTABLE:YES;
#DISPLAYBPM:172.000000;
#BPMS:0.000000=172.500000
,68.000000=172.000000
;
#STOPS:
;
#BGCHANGES:;
#KEYSOUNDS:;
#ATTACKS:;

//---------------dance-single - ----------------
#NOTES:
     dance-single:
     :
     Hard:
     8:
     0.577688,0.712988,0.510798,0.879707,0.000000,376.000000,72.000000,124.000000,0.000000,0.000000,2.000000,0.577688,0.712988,0.510798,0.879707,0.000000,376.000000,72.000000,124.000000,0.000000,0.000000,2.000000:
// measure 0
0000
0000
0000
0000
,  // measure 1
0000
0000
0000
0000
,  // measure 2
0000
0000
0000
0000
0000
1000
0100
1000
,  // measure 3
0100
0010
0001
0000
0022
0000
0000
0033
,  // measure 4
0220
0000
0000
0330
0000
1000
0001
1000
,  // measure 5
0010
1000
0100
0000
2002
0000
0000
3003
,  // measure 6
0220
0000
0000
0330
0000
0001
1000
0001
,  // measure 7
0100
0001
0010
0000
2002
0000
0000
3003
,  // measure 8
0220
0000
0000
0330
1001
0000
0000
0000
,  // measure 9
1000
0001
0100
0001
1000
0100
0010
0100
,  // measure 10
1000
0000
0000
0000
0020
0200
0330
0000
,  // measure 11
0001
1000
0010
1000
0001
0010
0100
0010
,  // measure 12
0002
0000
0003
0000
0200
0020
0330
1000
,  // measure 13
0100
1000
0100
1000
0001
0010
0100
1000
,  // measure 14
0001
0000
0000
0000
1000
0001
0000
0000
,  // measure 15
0001
0010
0000
0000
0010
0100
0000
0000
,  // measure 16
0001
0000
1001
0000
,  // measure 17
0011
0000
1100
0000
,  // measure 18
0100
0010
0001
0000
0001
0000
0000
0000
,  // measure 19
2000
3000
0200
0300
2000
3000
0010
0010
,  // measure 20
0100
0001
0010
0000
0100
0000
1000
0000
,  // measure 21
1100
0000
0011
0000
,  // measure 22
1010
0110
0101
0000
,  // measure 23
1000
0000
0001
0100
0001
0000
0010
0100
,  // measure 24
0010
1000
0020
0030
0002
0003
0020
0030
,  // measure 25
2000
0000
0000
0000
0000
0000
3001
0020
,  // measure 26
0000
0230
0000
2300
0000
3000
0000
0001
,  // measure 27
1000
0000
0100
0000
1000
0000
0001
0020
,  // measure 28
0000
0230
0000
0320
0000
0030
2000
0000
,  // measure 29
3002
0000
0000
0000
0000
0000
1003
0200
,  // measure 30
0000
0320
0000
0032
0000
0003
0000
0000
,  // measure 31
0110
0000
2002
0000
0000
3003
0000
1000
,  // measure 32
0001
0010
1000
0010
0001
0010
1000
0000
,  // measure 33
0110
0000
1000
0000
2002
0000
0000
3003
,  // measure 34
0220
0000
0000
0330
0000
0001
0010
0100
,  // measure 35
0010
0100
0020
0030
0202
0000
0000
0303
,  // measure 36
2020
0000
0000
3030
0000
1000
0001
1000
,  // measure 37
0001
0100
0001
0000
0022
0000
0000
0033
,  // measure 38
2002
0000
0000
0000
3003
0001
1000
0100
,  // measure 39
1000
0100
0010
0000
0002
0000
0003
1000
,  // measure 40
0001
0000
1001
0000
,  // measure 41
1001
0000
1100
0000
1010
0000
0100
0020
,  // measure 42
0000
0032
0000
0003
0110
0000
0001
2000
,  // measure 43
0000
3200
0000
0300
0110
0000
0001
0020
,  // measure 44
0000
0030
0110
1000
,  // measure 45
0002
0003
1001
0001
,  // measure 46
0100
0020
0030
1000
0002
0003
0100
0020
,  // measure 47
0030
1000
0002
0003
2002
0000
0000
3003
,  // measure 48
0220
0000
0000
0330
1001
0000
0000
0010
,  // measure 49
0100
1000
0000
0000
1001
0000
0000
0000
,  // measure 50
0000
0000
0110
0000
,  // measure 51
0000
0000
1001
0000
,  // measure 52
0000
0000
0000
0000
0110
0000
0000
0010
,  // measure 53
0001
0010
0100
1000
0100
0010
0001
0010
,  // measure 54
0100
0000
0000
0000
1000
0001
0000
0000
,  // measure 55
0100
1000
0100
0010
0001
0010
0100
1000
,  // measure 56
0100
0000
0000
0000
1000
0001
0000
0100
,  // measure 57
1000
0100
0010
0001
0010
0001
0010
0100
,  // measure 58
0010
0000
0000
0000
1000
0001
0000
0000
,  // measure 59
1000
0100
0010
0100
1000
0001
1000
0000
,  // measure 60
0100
1000
0010
0000
0001
0000
0000
0000
,  // measure 61
0011
0000
1100
0000
,  // measure 62
0001
0100
0001
0000
1001
0000
0000
0000
,  // measure 63
0011
0101
1001
0110
,  // measure 64
0010
0001
0010
0000
0100
0000
0010
0000
,  // measure 65
1001
0000
0110
0000
,  // measure 66
1100
0000
1010
0000
1001
0000
0000
0001
,  // measure 67
1000
0001
1000
0000
0020
0000
0230
0000
,  // measure 68
0300
0001
0010
0000
,  // measure 69
1000
0002
0000
0000
,  // measure 70
2003
0000
0000
3200
0000
0000
0320
0000
,  // measure 71
0000
0030
0200
0000
0000
0000
0300
0000
,  // measure 72
0010
0000
0100
0002
0003
0100
0020
0000
,  // measure 73
0030
0000
2000
0000
0000
3000
0000
0000
,  // measure 74
0022
0000
0033
0220
0000
0330
4400
0000
,  // measure 75
0000
0000
0000
0000
0000
3300
0000
1000
,  // measure 76
0001
1000
0001
0001
1000
0001
1000
0000
,  // measure 77
0110
0000
1001
0000
,  // measure 78
1000
0200
0300
0100
0020
0030
0010
0002
,  // measure 79
0000
0000
0000
0000
1003
0000
0001
0010
,  // measure 80
0200
0000
0300
1000
0100
0020
0000
0030
,  // measure 81
2002
0000
0000
3003
0220
0000
0000
0330
,  // measure 82
0001
0020
0030
0010
0200
0300
0100
2000
,  // measure 83
0000
0000
0000
0000
3001
0000
1000
0100
,  // measure 84
0020
0000
0030
0001
0010
0200
0000
0300
,  // measure 85
1000
0100
1000
0000
0022
0000
0000
0033
,  // measure 86
0220
0000
0000
0330
0000
0001
1000
0100
,  // measure 87
0001
0100
1000
0000
0220
0000
0000
0330
,  // measure 88
2002
0000
0000
3003
0000
1000
0001
0100
,  // measure 89
1000
0100
0001
0000
2002
0000
0000
3003
,  // measure 90
0220
0000
0000
0330
0000
1000
0001
0010
,  // measure 91
1000
0010
0001
0000
0220
0000
0000
0330
,  // measure 92
2002
3003
0100
0000
0010
0000
0000
0001
,  // measure 93
2000
0000
0000
0000
0000
0000
3001
0020
,  // measure 94
0000
0130
0000
2000
0000
3000
0000
0000
,  // measure 95
0100
0010
0100
0000
0022
0000
0000
0033
,  // measure 96
0220
0000
0330
1000
,  // measure 97
2200
0000
0000
0000
3300
0000
0001
2000
,  // measure 98
0000
3001
0000
0200
0300
0001
1000
0001
,  // measure 99
1000
0010
0100
0000
0220
0000
0000
0330
,  // measure 100
2002
0000
0000
3003
0110
0000
0000
0000
;

//---------------dance-single - ----------------
#NOTES:
     dance-single:
     :
     Medium:
     6:
     0.411476,0.570391,0.241210,0.383098,0.000000,318.000000,34.000000,54.000000,0.000000,0.000000,0.000000,0.411476,0.570391,0.241210,0.383098,0.000000,318.000000,34.000000,54.000000,0.000000,0.000000,0.000000:
// measure 0
0000
0000
0000
0000
,  // measure 1
0000
0000
0000
0000
,  // measure 2
0000
0000
0000
0000
0000
0001
1000
0001
,  // measure 3
1000
0001
1000
0000
0002
0000
0003
0000
,  // measure 4
0020
0000
0030
0000
0000
0100
0010
0100
,  // measure 5
0010
0100
0010
0000
2000
0000
3000
0000
,  // measure 6
0002
0000
0003
0000
0000
1000
0100
1000
,  // measure 7
0100
1000
0100
0000
0020
0000
0030
0000
,  // measure 8
0002
0003
1001
0000
,  // measure 9
0001
1000
0001
0000
1000
0001
1000
0000
,  // measure 10
0010
0000
0000
0000
0010
1000
0000
0000
,  // measure 11
0010
0100
0010
0000
0100
0010
0100
0000
,  // measure 12
0001
0000
0000
0000
1000
0001
0000
0000
,  // measure 13
0001
0100
0001
0000
0100
0001
0100
0000
,  // measure 14
0010
0000
0000
0000
0010
0100
0000
0000
,  // measure 15
0001
1000
0000
0000
1000
0001
0000
0000
,  // measure 16
1001
0000
0110
0000
,  // measure 17
0001
0000
0010
0000
,  // measure 18
1000
0100
0010
0000
0010
0000
0000
0000
,  // measure 19
0010
0000
0100
0000
0010
0000
1000
0001
,  // measure 20
1000
0001
0100
0000
0100
0000
0000
0000
,  // measure 21
1000
0000
0100
0000
,  // measure 22
0010
0001
1001
0000
,  // measure 23
0010
0000
0001
0010
0001
0000
1000
0100
,  // measure 24
1000
0100
0100
1000
,  // measure 25
0002
0000
0000
0000
0000
0000
0000
0010
,  // measure 26
0003
0100
0000
1000
0000
0000
0000
0000
,  // measure 27
1000
0000
0100
0000
0010
0000
0001
0010
,  // measure 28
0000
0100
0000
1000
0000
0000
0001
0000
,  // measure 29
0200
0000
0000
0000
0300
0000
0001
0010
,  // measure 30
0000
0100
0000
1000
0000
0000
0000
0000
,  // measure 31
1001
0000
1001
0000
0000
0000
0000
0010
,  // measure 32
0001
0010
0001
1000
0100
1000
0100
0000
,  // measure 33
0010
0100
0020
0030
,  // measure 34
0200
0000
0300
0000
0000
0001
0010
0001
,  // measure 35
0010
0001
0010
0000
2000
0000
3000
0000
,  // measure 36
0200
0000
0300
0000
0000
1000
0100
1000
,  // measure 37
0100
1000
0100
0000
0020
0000
0030
0000
,  // measure 38
0002
0000
0003
0000
0000
1000
0001
1000
,  // measure 39
0001
1000
0001
0000
0220
0000
0330
0000
,  // measure 40
2002
3003
0000
0000
,  // measure 41
0100
1000
0110
0000
,  // measure 42
1000
0001
1100
0000
,  // measure 43
0001
1000
0011
0000
,  // measure 44
0010
0001
0110
0000
,  // measure 45
0010
0100
0110
0000
,  // measure 46
0001
0010
0000
0001
0010
0000
0100
1000
,  // measure 47
0000
0100
1000
0000
2002
0000
3003
0000
,  // measure 48
0220
0330
0020
0030
,  // measure 49
0001
2000
0000
0000
3000
0000
0000
0000
,  // measure 50
0000
0000
1001
0000
,  // measure 51
0000
0000
1001
0000
,  // measure 52
0000
0000
1001
0000
,  // measure 53
0001
0010
0001
0000
0001
1000
0001
0000
,  // measure 54
0100
0000
0000
0000
0010
0100
0000
0000
,  // measure 55
1000
0100
1000
0000
1000
0001
1000
0000
,  // measure 56
0010
0000
0000
0000
0010
0100
0000
0000
,  // measure 57
0001
0100
0001
0000
0100
0001
0100
0000
,  // measure 58
0010
0000
0000
0000
0010
1000
0000
0000
,  // measure 59
1000
0100
0010
0001
,  // measure 60
0000
1000
0001
0000
,  // measure 61
1001
0000
0110
0000
,  // measure 62
0010
0010
0001
0000
,  // measure 63
0100
0010
0100
0100
,  // measure 64
0001
1000
0001
0000
,  // measure 65
1001
0000
0110
0000
,  // measure 66
0100
0010
0010
0000
,  // measure 67
0001
1000
0100
0010
,  // measure 68
0000
0010
0100
0000
,  // measure 69
0000
0002
0000
0003
,  // measure 70
2000
0000
3000
0200
0000
0300
0020
0000
,  // measure 71
0030
0200
0300
0000
,  // measure 72
0020
0000
0030
0200
0000
0300
0002
0000
,  // measure 73
0003
2000
3000
0000
,  // measure 74
0002
0000
0003
2000
0000
3000
0002
0000
,  // measure 75
0000
0000
0000
0003
,  // measure 76
0100
1000
0100
0000
0001
0010
0001
0000
,  // measure 77
1001
0000
0010
0000
,  // measure 78
1000
0001
0000
0001
1000
0000
1000
0001
,  // measure 79
0000
0000
0110
0000
,  // measure 80
1000
0000
0000
0100
0010
0100
0000
0000
,  // measure 81
1001
0000
0110
0000
,  // measure 82
0001
1000
0000
1000
0001
0000
0001
1000
,  // measure 83
0000
0000
0110
0000
,  // measure 84
0001
0000
0000
0010
0100
0010
0000
0000
,  // measure 85
0001
0010
0100
1000
,  // measure 86
1000
0100
0010
0001
,  // measure 87
0001
0010
0002
0003
,  // measure 88
0020
0030
0100
1000
,  // measure 89
0100
0010
0002
0003
,  // measure 90
2000
3000
0000
0001
,  // measure 91
0100
0001
0220
0330
,  // measure 92
2002
3003
0000
0000
,  // measure 93
2000
0000
0000
0000
0000
0000
3100
0010
,  // measure 94
0000
0010
0000
0001
0000
0000
0000
0000
,  // measure 95
0010
0100
2002
3003
,  // measure 96
0220
0330
0000
1000
,  // measure 97
0002
0000
0000
0000
0000
0000
0013
0100
,  // measure 98
0000
0100
0000
1000
0000
0000
0000
0000
,  // measure 99
0001
1000
0001
0000
0220
0000
0330
0000
,  // measure 100
2002
3003
0110
0000
;

//---------------dance-single - ----------------
#NOTES:
     dance-single:
     :
     Easy:
     4:
     0.245264,0.320845,0.106416,0.191549,0.000000,200.000000,15.000000,27.000000,0.000000,0.000000,0.000000,0.245264,0.320845,0.106416,0.191549,0.000000,200.000000,15.000000,27.000000,0.000000,0.000000,0.000000:
// measure 0
0000
0000
0000
0000
,  // measure 1
0000
0000
0000
0000
,  // measure 2
0000
0000
0000
0000
,  // measure 3
1000
0000
0010
0000
,  // measure 4
0100
0000
0000
0000
,  // measure 5
0001
0000
0010
0000
,  // measure 6
0100
0000
0000
0000
,  // measure 7
1000
0100
0020
0030
,  // measure 8
0002
0003
0000
0000
,  // measure 9
1000
0100
1000
0000
,  // measure 10
0001
0000
0010
0000
,  // measure 11
0100
0010
0100
0000
,  // measure 12
0001
0000
1000
0000
,  // measure 13
1000
0001
1000
0000
,  // measure 14
0100
0000
0010
0000
,  // measure 15
0010
0000
0100
0000
,  // measure 16
1000
0000
0001
0000
,  // measure 17
0001
0000
1000
0000
,  // measure 18
0100
0010
0010
0000
,  // measure 19
0100
0000
0100
0000
,  // measure 20
1000
1000
0010
0000
,  // measure 21
0100
0000
0001
0000
,  // measure 22
0010
0010
0100
0000
,  // measure 23
0001
1000
0001
1000
,  // measure 24
0001
0000
0100
0000
,  // measure 25
2000
0000
3001
0000
,  // measure 26
0001
0000
1000
0000
,  // measure 27
1000
0000
0100
0000
,  // measure 28
0100
0000
0010
0000
,  // measure 29
0002
0000
1003
0000
,  // measure 30
1000
0000
0001
0000
,  // measure 31
0100
0100
0000
0000
,  // measure 32
1000
0010
1000
0010
,  // measure 33
1000
0000
0002
0003
,  // measure 34
0002
0003
0000
0000
,  // measure 35
0001
0000
0020
0030
,  // measure 36
0020
0030
0000
0000
,  // measure 37
0010
0000
0200
0300
,  // measure 38
0200
0300
0000
0000
,  // measure 39
1000
0000
0020
0030
,  // measure 40
0020
0030
0000
0000
,  // measure 41
1000
0000
1001
0000
,  // measure 42
0001
0000
1001
0000
,  // measure 43
0100
0000
1001
0000
,  // measure 44
0010
0000
1001
0000
,  // measure 45
1000
0000
0100
0000
,  // measure 46
0001
0000
0001
0000
,  // measure 47
0001
0000
1000
0000
,  // measure 48
1000
0000
0010
0000
,  // measure 49
0110
0000
0000
0000
,  // measure 50
0000
0000
1000
0000
,  // measure 51
0000
0000
0001
0000
,  // measure 52
0000
0000
1000
0000
,  // measure 53
0001
0001
0001
0000
,  // measure 54
1000
1000
1000
0000
,  // measure 55
0010
0010
0010
0000
,  // measure 56
0100
0000
0001
0000
,  // measure 57
1000
1000
1000
0000
,  // measure 58
0001
0001
0001
0000
,  // measure 59
0010
0100
0010
0000
,  // measure 60
0100
0100
1000
0000
,  // measure 61
0001
0000
0010
0000
,  // measure 62
0001
0001
0100
0000
,  // measure 63
0100
0010
0100
0000
,  // measure 64
0010
0100
0010
0000
,  // measure 65
1000
0000
0100
0000
,  // measure 66
1000
1000
0010
0000
,  // measure 67
0010
0100
0010
0010
,  // measure 68
0000
0000
1001
0000
,  // measure 69
0000
0000
1001
0000
,  // measure 70
0000
0000
0110
0000
,  // measure 71
0000
0000
0110
0000
,  // measure 72
0000
0000
1001
0000
,  // measure 73
0000
0000
1001
0000
,  // measure 74
0000
0000
0110
0000
,  // measure 75
0000
0000
0110
0000
,  // measure 76
0000
0000
1001
0000
,  // measure 77
2000
0000
3001
0000
,  // measure 78
0002
0000
1003
0000
,  // measure 79
2000
0000
3001
0000
,  // measure 80
0002
0000
1003
0000
,  // measure 81
0020
0000
0130
0000
,  // measure 82
0200
0000
0310
0000
,  // measure 83
0020
0000
0130
0000
,  // measure 84
0200
0000
0310
0000
,  // measure 85
1000
0100
1000
0000
,  // measure 86
0001
0000
0000
0000
,  // measure 87
0001
0010
0001
0000
,  // measure 88
1000
0000
0000
0000
,  // measure 89
0010
0100
0010
0000
,  // measure 90
1000
0000
0000
0000
,  // measure 91
0100
0010
0100
0000
,  // measure 92
0001
0000
0000
0000
,  // measure 93
2000
0000
3100
0000
,  // measure 94
0002
0000
0013
0000
,  // measure 95
2000
0000
3100
0000
,  // measure 96
0002
0000
0013
0000
,  // measure 97
0200
0000
0310
0000
,  // measure 98
0020
0000
0130
0000
,  // measure 99
0200
0000
0310
0000
,  // measure 100
0010
0000
1001
0000
;

//---------------dance-single - ----------------
#NOTES:
     dance-single:
     :
     Beginner:
     1:
     0.101349,0.177360,0.021283,0.000000,0.000000,96.000000,3.000000,0.000000,0.000000,1.000000,0.000000,0.101349,0.177360,0.021283,0.000000,0.000000,96.000000,3.000000,0.000000,0.000000,1.000000,0.000000:
0000
0000
0000
0000
,
0000
0000
0000
0000
,
0000
0000
0000
0000
,
1000
0000
0000
0000
,
1000
0000
0000
0000
,
0001
0000
0000
0000
,
0001
0000
0000
0000
,
1000
0000
0000
0000
,
1000
0000
0000
0000
,
0001
0000
0000
0000
,
0001
0000
0000
0000
,
0010
0000
0000
0000
,
1110
0000
0000
0000
,
0001
0000
0000
0000
,
0001
0000
0000
0000
,
0100
0000
0000
0000
,
0100
0000
0000
0000
,
0001
0000
0000
0000
,
1000
0000
0000
0000
,
0100
0000
0000
0000
,
0000
0000
0000
0000
,
0010
0000
0000
0000
,
0100
0000
0000
0000
,
0010
0000
0000
0000
,
0000
0000
0000
0000
,
0001
0000
0000
0000
,
1000
0000
0000
0000
,
0001
0000
0000
0000
,
0000
0000
0000
0000
,
1000
0000
0000
0000
,
0001
0000
0000
0000
,
1000
0000
0000
0000
,
0000
0000
0000
0000
,
1001
0000
0000
0000
,
0000
0000
0000
0000
,
0100
0000
0000
0000
,
0100
0000
0000
0000
,
0010
0000
0000
0000
,
0010
0000
0000
0000
,
1000
0000
0000
0000
,
1000
0000
0000
0000
,
0001
0000
0000
0000
,
1000
0000
0000
0000
,
0001
0000
0000
0000
,
0000
0000
0000
0000
,
1000
0000
0000
0000
,
0100
0000
0000
0000
,
1000
0000
0000
0000
,
0000
0000
0000
0000
,
0001
0000
0010
0000
,
0000
0000
0010
0000
,
0000
0000
0010
0000
,
0000
0000
0010
0000
,
1000
0000
0010
0000
,
1000
0000
0000
0000
,
0001
0000
0100
0000
,
0001
0000
0000
0000
,
1000
0000
0001
0000
,
1000
0000
0000
0000
,
0001
0000
1000
0000
,
0001
0000
0000
0000
,
0001
0000
0000
0000
,
1000
0000
0000
0000
,
0010
0000
0000
0000
,
0100
0000
0000
0000
,
0001
0000
0000
0000
,
1000
0000
0000
0000
,
0010
0000
0000
0000
,
0100
0000
0000
0000
,
0000
0000
0001
0000
,
0000
0000
0001
0000
,
0000
0000
1000
0000
,
0000
0000
1000
0000
,
0000
0000
0001
0000
,
0000
0000
0001
0000
,
0000
0000
1000
0000
,
0000
0000
1000
0000
,
0001
0000
0000
0000
,
0010
0000
0000
0000
,
0001
0000
0000
0000
,
0010
0000
0000
0000
,
1000
0000
0000
0000
,
0100
0000
0000
0000
,
1000
0000
0000
0000
,
0100
0000
0000
0000
,
1000
0000
0000
0000
,
0010
0000
0000
0000
,
1000
0000
0000
0000
,
0001
0000
0000
0000
,
0001
0000
0000
0000
,
0100
0000
0000
0000
,
0001
0000
0000
0000
,
1000
0000
0000
0000
,
1001
0000
0000
0000
,
0010
0000
0000
0000
,
0100
0000
0000
0000
,
0010
0000
0000
0000
,
0001
0000
0000
0000
,
1000
0000
0000
0000
,
0001
0000
0000
0000
,
1000
0000
0000
0000
;

//---------------dance-single - ----------------
#NOTES:
     dance-single:
     :
     Challenge:
     10:
     0.695252,0.819937,0.830046,0.979029,0.000000,431.000000,117.000000,138.000000,28.000000,9.000000,0.000000,0.695252,0.819937,0.830046,0.979029,0.000000,431.000000,117.000000,138.000000,28.000000,9.000000,0.000000:
// measure 0
0000
0000
0000
0000
,  // measure 1
0000
0000
0000
0000
,  // measure 2
0000
0000
0000
0000
0000
1000
0001
1000
,  // measure 3
0010
1000
0100
0000
0022
0000
0033
0100
,  // measure 4
2020
0000
0000
3030
0000
0001
1000
0001
,  // measure 5
0100
0001
0010
0000
2200
0000
3300
0010
,  // measure 6
0202
0000
0000
0303
0000
1000
0010
1000
,  // measure 7
0001
0010
0100
0000
2200
0000
3300
0100
,  // measure 8
0022
0033
MMMM
MMMM
,  // measure 9
0001
0010
0100
0010
0001
0010
0100
1000
,  // measure 10
0001
0000
0000
0000
1010
0101
0000
0000
,  // measure 11
1000
0100
0010
0100
1000
0100
0010
0001
,  // measure 12
0010
0000
0000
0000
0101
1010
0000
0010
,  // measure 13
1000
0100
0001
0100
1000
0100
0001
0100
,  // measure 14
1000
0000
0000
0000
1100
1010
0000
0000
,  // measure 15
0011
0101
0000
0000
1010
0110
0000
0000
,  // measure 16
1001
0000
MMMM
MMMM
,  // measure 17
2020
0000
0000
3030
2200
0000
0000
3300
,  // measure 18
1000
0100
0010
0000
0011
0000
0000
0000
,  // measure 19
1001
0000
0100
0000
0110
0000
0010
0001
,  // measure 20
0010
0100
0010
0000
1001
0000
0100
0000
,  // measure 21
0202
0000
0000
0303
0022
0000
0000
0033
,  // measure 22
1100
0000
0110
0000
0022
0033
0000
0000
,  // measure 23
0002
0000
1003
0100
2000
0000
3010
0100
,  // measure 24
0100
0010
0010
0000
0011
0000
0110
0000
,  // measure 25
2000
0000
0000
0000
0100
0000
3001
0011
,  // measure 26
0000
0110
0000
2200
0000
3300
0000
0001
,  // measure 27
1000
0000
0100
0000
1000
0000
0001
0022
,  // measure 28
0033
0202
0303
2002
3003
0000
1000
0000
,  // measure 29
0002
0000
0000
0000
0010
0000
1003
1100
,  // measure 30
0000
0110
0000
0022
0000
0033
0000
0000
,  // measure 31
0110
0000
2002
0000
0000
3003
0000
1000
,  // measure 32
0001
0010
1000
0010
0001
0010
1000
0001
,  // measure 33
1000
0100
0010
0000
0022
0000
0033
0001
,  // measure 34
2200
0000
3300
0000
1001
1000
0100
0010
,  // measure 35
0001
0010
0100
0000
2200
0000
3300
1000
,  // measure 36
0022
0000
0033
0000
1001
0001
0010
0100
,  // measure 37
1000
0100
0010
0000
0022
0000
0033
1000
,  // measure 38
2200
0000
3300
0000
0110
0001
1000
0001
,  // measure 39
0100
0010
1000
0100
0220
0000
0330
0001
,  // measure 40
2002
3003
0110
0000
,  // measure 41
0011
0000
1010
0000
0011
0000
0100
0020
,  // measure 42
0030
2200
0000
3300
0110
0000
1000
0022
,  // measure 43
0000
2233
0000
3300
1001
0000
2000
0002
,  // measure 44
0000
3003
0000
0000
0110
0000
0001
0000
,  // measure 45
0020
0000
1030
0000
0220
0330
0001
0000
,  // measure 46
0001
0020
0030
0010
0200
0300
1000
0001
,  // measure 47
0100
0010
1000
0000
0022
0000
0033
1000
,  // measure 48
0202
0303
0010
1000
0002
0000
0003
0100
,  // measure 49
0010
0200
0000
0300
1001
0000
0001
0100
,  // measure 50
0010
1000
0001
0000
1001
0000
0000
0000
,  // measure 51
1000
0000
0000
0000
0110
0000
1000
0010
,  // measure 52
0100
0001
0010
0000
0110
0000
0000
0001
,  // measure 53
1000
0100
1000
0010
0100
0001
0010
0100
,  // measure 54
2000
0000
3000
0000
0101
0220
0000
0330
,  // measure 55
1000
0001
0010
0001
0100
0010
1000
0100
,  // measure 56
0020
0000
0030
0000
1010
0220
0330
0001
,  // measure 57
0100
1000
0100
0001
0001
0100
1000
0100
,  // measure 58
0002
0000
0003
0000
0110
2002
0000
3003
,  // measure 59
1000
0010
0001
0010
1000
0000
0001
0000
,  // measure 60
0100
1000
0100
0000
0001
0000
0000
0000
,  // measure 61
2020
0000
3030
M0M0
0202
0000
0303
0M0M
,  // measure 62
0001
0010
0001
0000
2200
0000
3300
0000
,  // measure 63
0011
1010
0110
0101
,  // measure 64
1000
0100
1000
0000
0011
0000
0001
0000
,  // measure 65
2020
0000
3030
M0M0
2200
0000
3300
MM01
,  // measure 66
0011
0000
0110
0000
1100
0000
0000
0001
,  // measure 67
0010
0001
1000
0100
0020
0000
0002
0000
,  // measure 68
0033
0110
1001
0001
,  // measure 69
1000
1002
0100
0000
,  // measure 70
0023
0000
0000
0200
0000
0000
2000
0000
,  // measure 71
3330
0001
1001
0000
,  // measure 72
2000
0000
0000
0200
0000
0000
0020
0000
,  // measure 73
3330
0001
1001
0001
,  // measure 74
2000
0000
0000
0002
0000
0000
0200
0000
,  // measure 75
0000
3303
0010
0001
,  // measure 76
0001
0010
1000
0010
0001
0010
1000
0000
,  // measure 77
1100
1000
0110
0001
,  // measure 78
0001
0020
0030
0010
0200
0300
0100
2000
,  // measure 79
0000
3000
0001
0000
1001
0000
1000
0100
,  // measure 80
0020
0000
0030
0001
0010
0200
0300
0000
,  // measure 81
1100
1000
0011
0001
,  // measure 82
1000
0200
0300
0100
0020
0030
0010
0002
,  // measure 83
0000
0003
1000
0000
1001
0000
0001
0010
,  // measure 84
0200
0000
0300
1000
0100
0020
0000
0030
,  // measure 85
0001
1000
0001
0000
2100
0000
3100
0100
,  // measure 86
0012
0000
0013
0000
1001
0100
0010
0100
,  // measure 87
0001
0010
0100
0000
2010
0000
3010
0010
,  // measure 88
0102
0000
0103
0000
1001
1000
0001
1000
,  // measure 89
0001
0010
0100
0000
1002
0000
1003
1000
,  // measure 90
0210
0000
0310
0000
1001
0001
0010
0001
,  // measure 91
1000
0100
1000
0000
0202
0000
0303
0100
,  // measure 92
2020
3030
1001
0000
,  // measure 93
2000
0000
0000
0000
3000
0000
0200
0020
,  // measure 94
0000
0002
0000
2000
3333
0000
0000
0000
,  // measure 95
0001
0100
0001
0000
1010
0000
0100
0100
,  // measure 96
1001
0010
0011
0100
,  // measure 97
0002
0000
0000
0000
1003
0000
0020
0200
,  // measure 98
0000
2000
0000
3331
0000
1000
0100
1000
,  // measure 99
0100
0010
0001
0000
0220
0000
0330
0110
,  // measure 100
2002
0000
0000
3003
MMMM
0000
0000
0000
;
