#TITLE:Walking on a Dream;
#SUBTITLE:;
#ARTIST:Empire of the Sun;
#TITLETRANSLIT:;
#SUBTITLETRANSLIT:;
#ARTISTTRANSLIT:;
#CREDIT:;
#BANNER:Walking on a Dream.png;
#BACKGROUND:Walking on a Dream bg.png;
#LYRICSPATH:;
#CDTITLE:;
#MUSIC:Walking on a Dream.mp3;
#OFFSET:-0.075;
#SAMPLESTART:15.499;
#SAMPLELENGTH:12.000;
#SELECTABLE:YES;
#BPMS:0.000=126.998,1.000=127.004,2.000=126.998,4.000=127.004,5.000=126.998,7.000=127.004,8.000=126.998,9.000=127.004,10.000=126.998,12.000=127.004,13.000=126.998,15.000=127.004,16.000=126.998,18.000=127.004,19.000=126.998,21.000=127.004,22.000=126.998,24.000=127.004,25.000=126.998,27.000=127.004,28.000=126.998,29.000=127.004,30.000=126.998,32.000=127.004,33.000=126.998,35.000=127.004,36.000=126.998,37.000=127.004,38.000=126.998,40.000=127.004,41.000=126.998,43.000=127.004,44.000=126.998,45.000=127.004,46.000=126.998,48.000=127.004,49.000=126.998,51.000=127.004,52.000=126.998,53.000=127.004,54.000=126.998,56.000=127.004,57.000=126.998,59.000=127.004,60.000=126.998,61.000=127.004,62.000=126.998,64.000=127.004,65.000=126.998,67.000=127.004,68.000=126.998,69.000=127.004,70.000=126.998,72.000=127.004,73.000=126.998,75.000=127.004,76.000=126.998,77.000=127.004,78.000=126.998,80.000=127.004,81.000=126.998,83.000=127.004,84.000=126.998,85.000=127.004,86.000=126.998,88.000=127.004,89.000=126.998,91.000=127.004,92.000=126.998,93.000=127.004,94.000=126.998,96.000=127.004,97.000=126.998,99.000=127.004,100.000=126.998,102.000=127.004,103.000=126.998,106.000=127.004,107.000=126.998,110.000=127.004,111.000=126.998,114.000=127.004,115.000=126.998,118.000=127.004,119.000=126.998,122.000=127.004,123.000=126.998,126.000=127.004,127.000=126.998,130.000=127.004,131.000=126.998,134.000=127.004,135.000=126.998,138.000=127.004,139.000=126.998,142.000=127.004,143.000=126.998,146.000=127.004,147.000=126.998,150.000=127.004,151.000=126.998,154.000=127.004,155.000=126.998,158.000=127.004,159.000=126.998,162.000=127.004,163.000=126.998,166.000=127.004,167.000=126.998,170.000=127.004,171.000=126.998,174.000=127.004,175.000=126.998,178.000=127.004,179.000=126.998,182.000=127.004,183.000=126.998,186.000=127.004,187.000=126.998,190.000=127.004,191.000=126.998,194.000=127.004,195.000=126.998,198.000=127.004,199.000=126.998,202.000=127.004,203.000=126.998,204.000=127.004,205.000=126.998,206.000=127.004,207.000=126.998,208.000=127.004,209.000=126.998,210.000=127.004,211.000=126.998,212.000=127.004,213.000=126.998,214.000=127.004,215.000=126.998,216.000=127.004,217.000=126.998,218.000=127.004,219.000=126.998,220.000=127.004,221.000=126.998,222.000=127.004,223.000=126.998,224.000=127.004,225.000=126.998,226.000=127.004,227.000=126.998,228.000=127.004,229.000=126.998,230.000=127.004,231.000=126.998,232.000=127.004,233.000=126.998,234.000=127.004,235.000=126.998,236.000=127.004,237.000=126.998,238.000=127.004,239.000=126.998,240.000=127.004,241.000=126.998,242.000=127.004,243.000=126.998,244.000=127.004,245.000=126.998,246.000=127.004,247.000=126.998,248.000=127.004,249.000=126.998,250.000=127.004,251.000=126.998,252.000=127.004,253.000=126.998,254.000=127.004,255.000=126.998,256.000=127.004,257.000=126.998,258.000=127.004,259.000=126.998,260.000=127.004,261.000=126.998,262.000=127.004,263.000=126.998,264.000=127.004,265.000=126.998,266.000=127.004,267.000=126.998,268.000=127.004,269.000=126.998,270.000=127.004,271.000=126.998,272.000=127.004,273.000=126.998,274.000=127.004,275.000=126.998,276.000=127.004,277.000=126.998,278.000=127.004,279.000=126.998,280.000=127.004,281.000=126.998,282.000=127.004,283.000=126.998,284.000=127.004,285.000=126.998,286.000=127.004,287.000=126.998,288.000=127.004,289.000=126.998,290.000=127.004,291.000=126.998,292.000=127.004,293.000=126.998,294.000=127.004,295.000=126.998,296.000=127.004;
#STOPS:;
#BGCHANGES:28.000=Walking on a Dream.avi=1.000=1=0=1
,297.000=Walking on a Dream bg.png=1.000=0=0=1
;

//---------------dance-single - Copied from----------------
#NOTES:
     dance-single:
     Copied from:
     Hard:
     8:
     0.757,1.000,0.506,0.941,0.137: // measure 1
0000
0000
0000
0000
,  // measure 2
0000
0000
0000
0000
,  // measure 3
0000
0000
0000
0000
,  // measure 4
0000
0000
0000
0000
,  // measure 5
0000
0000
2000
0000
0000
3200
0000
0000
,  // measure 6
0000
0000
0320
0000
0000
0032
0000
0000
,  // measure 7
0000
0000
2003
0000
0000
3200
0000
0000
,  // measure 8
0000
0000
0000
0000
0000
0000
0000
0000
0000
0000
0000
0000
0000
0000
0000
0000
2300
0000
0000
0000
0000
0000
0000
0000
0000
0000
0000
0000
0000
0000
0000
0000
0000
0000
0000
0000
0000
0000
3000
0000
2000
0000
0000
0000
0000
0000
0000
0000
0000
0000
0000
0000
0000
0000
0000
0000
0000
0000
0000
0000
0000
0000
0000
3000
,  // measure 9
0101
0000
1001
1000
0010
1000
0100
1000
,  // measure 10
0001
1000
0100
1000
0001
1000
0100
1000
,  // measure 11
0001
0100
0010
0100
0001
0100
0010
0100
,  // measure 12
1000
0100
0010
0100
0001
0100
0010
0100
,  // measure 13
1000
0100
0001
0010
0100
0010
1000
0010
,  // measure 14
0100
0010
0001
0010
0100
0010
1000
0010
,  // measure 15
0100
0010
0001
1000
0100
1000
0010
1000
,  // measure 16
0001
0000
1000
0000
0100
0000
1000
0000
0010
0000
1000
0000
0001
1000
0001
0000
,  // measure 17
1001
0000
1000
0100
1100
1000
0100
1000
,  // measure 18
1100
1000
0100
0010
0011
0000
1000
0100
,  // measure 19
0011
0000
0001
0010
0001
0000
0010
0000
0110
0000
1000
0000
0100
0000
1000
0000
,  // measure 20
1100
0000
1000
0001
1000
0000
0001
0000
1001
0000
0001
1000
0001
0000
1000
0000
,  // measure 21
1001
1000
0100
0100
0001
0001
0100
1000
,  // measure 22
1000
0001
2000
3002
2003
3000
0002
2003
,  // measure 23
3002
0003
1000
0100
1100
1000
0100
0010
,  // measure 24
0011
0010
0100
1000
1100
1000
0100
0010
,  // measure 25
0011
0000
0000
0000
1000
0000
0100
0000
0001
0000
0100
0000
1000
0000
0200
0300
,  // measure 26
0002
0003
0200
0300
2000
3000
0200
0300
0002
0003
0200
0300
2000
3000
0200
0300
,  // measure 27
0002
0003
0100
0000
1000
0000
0010
0000
0001
0000
0010
0000
1000
0000
0020
0030
,  // measure 28
0002
0003
0020
0030
2000
3000
0020
0030
0002
0003
0020
0030
2000
3000
0020
0030
,  // measure 29
0002
0003
0020
0030
2000
3000
0001
0000
1001
0000
0010
0000
0100
0000
0010
0000
,  // measure 30
1001
0100
0010
0100
1001
1000
0100
0010
,  // measure 31
0011
0001
0100
0010
1010
1000
0100
0010
,  // measure 32
0011
0001
0100
0010
1010
1000
0100
0010
,  // measure 33
0011
0000
0000
0000
0000
0000
0000
0000
0001
0000
0000
0000
0000
0000
0000
0000
2000
0000
0000
0000
0000
0000
0000
0000
0000
0000
0000
0000
0000
0000
0000
3000
1000
0000
0000
0000
0000
0000
0000
0000
0000
0000
0000
0000
0000
0000
0000
0000
0002
0000
0000
0000
0000
0000
0000
0000
0000
0000
0000
0000
0000
0000
0000
0003
,  // measure 34
0001
0000
0000
0000
0000
0000
0000
0000
0000
0000
0000
0000
0000
0000
0000
0000
0200
0000
0000
0000
0000
0000
0000
0000
0000
0000
0000
0000
0000
0000
0000
0300
0100
0000
0000
0000
0000
0000
0000
0000
0000
0000
0000
0000
0000
0000
0000
0000
0020
0000
0000
0000
0000
0000
0000
0000
0000
0000
0000
0000
0000
0000
0000
0030
,  // measure 35
0010
0000
0000
0000
1000
0100
1000
0000
1100
0000
0000
0000
0001
0100
0001
0000
,  // measure 36
0101
0000
0000
0000
0010
1000
0010
0000
1010
0000
0000
0000
0001
0010
0001
0000
,  // measure 37
0011
0000
0000
0000
0000
0000
0000
0000
0000
0000
0000
0000
0000
0000
0000
0000
2000
0000
0000
0000
0000
0000
0000
3000
2000
0000
0000
0000
0000
0000
0000
3000
0200
0000
0000
0000
0000
0000
0000
0300
0200
0000
0000
0000
0000
0000
0000
0300
0020
0000
0000
0000
0000
0000
0000
0030
0020
0000
0000
0000
0000
0000
0000
0030
,  // measure 38
0002
0000
0000
0000
0000
0000
0000
0003
0002
0000
0000
0000
0000
0000
0000
0003
0020
0000
0000
0000
0000
0000
0000
0030
0020
0000
0000
0000
0000
0000
0000
0000
0230
0000
0000
0000
0000
0000
0000
0300
0200
0000
0000
0000
0000
0000
0000
0300
2000
0000
0000
0000
0000
0000
0000
3000
2000
0000
0000
0000
0000
0000
0000
3000
,  // measure 39
0020
0000
0000
0000
0000
0000
0000
0030
0020
0000
0000
0000
0000
0000
0000
0030
0200
0000
0000
0000
0000
0000
0000
0300
0200
0000
0000
0000
0000
0000
0000
0000
0302
0000
0000
0000
0000
0000
0000
0003
0002
0000
0000
0000
0000
0000
0000
0003
0200
0000
0000
0000
0000
0000
0000
0300
0200
0000
0000
0000
0000
0000
0000
0300
,  // measure 40
0020
0000
0000
0000
0000
0000
0000
0030
0020
0000
0000
0000
0000
0000
0000
0030
2000
0000
0000
0000
0000
0000
0000
3000
2000
0000
0000
0000
0000
0000
0000
3000
0002
0000
0000
0000
0000
0000
0000
0003
0002
0000
0000
0000
0000
0000
0000
0003
2000
0000
0000
0000
0000
0000
0000
3000
2000
0000
0000
0000
0000
0000
0000
3000
,  // measure 41
1001
0000
2000
3200
0302
0203
2300
3100
,  // measure 42
1100
0100
1000
0100
1100
1000
0100
1000
,  // measure 43
1100
1000
2000
3020
0032
0023
2030
3001
,  // measure 44
0101
0001
0100
0001
0101
0001
0100
0001
,  // measure 45
0101
0001
2000
3200
0320
0032
0203
0300
,  // measure 46
0110
0010
1000
0001
1001
0001
0010
0100
,  // measure 47
1100
0000
0000
0000
2000
3200
0310
0000
0002
0023
0130
0000
2000
3200
0310
0000
,  // measure 48
0002
0023
0130
0000
2000
3200
0310
0000
0002
0023
0130
0000
2000
3200
0310
0000
,  // measure 49
0011
0000
1000
1000
0010
0010
0100
0100
,  // measure 50
0001
0001
0010
0010
0100
0100
1000
1000
,  // measure 51
0010
0010
1001
0001
0001
0010
0010
0100
,  // measure 52
0100
1000
1001
0010
1001
0100
1001
0010
,  // measure 53
1001
0000
2000
3002
2003
3002
2003
3002
,  // measure 54
2003
3000
1001
0010
1001
0000
1001
0100
,  // measure 55
1001
0000
1000
0100
0010
0001
0010
0100
,  // measure 56
2000
3000
0000
0200
0300
0000
0002
0003
0000
0200
0300
0000
2000
3000
0000
0200
0300
0000
0002
0003
0000
0200
0300
0000
,  // measure 57
2000
0000
3000
0000
0000
0000
0000
0000
0000
0000
0000
0000
1001
0000
0000
0000
0000
0000
1000
0000
0000
0100
0000
0000
1000
0000
0000
0000
0000
0000
0001
0000
0000
0100
0000
0000
0001
0000
0000
0000
0000
0000
1000
0000
0000
0010
0000
0000
,  // measure 58
1000
0000
0001
0010
0001
0000
1000
0100
0010
0000
0001
0010
0100
0000
1000
0100
,  // measure 59
0010
0000
0001
0010
0100
0000
1000
0001
1000
0000
0010
0100
0010
0000
1000
0001
,  // measure 60
1000
0000
0010
0100
0010
0000
1000
0100
0010
0000
0001
0100
0010
0000
1000
0100
,  // measure 61
0010
0000
0000
0000
0000
0000
0000
0000
0001
0000
0000
0000
0100
0000
0000
0000
0010
0000
0000
0000
0000
0000
0000
0000
1000
0000
0000
0000
0000
0000
0000
0000
1001
0000
0000
0000
0000
0000
0000
0000
2000
0000
0000
0000
0000
0000
0000
0000
3200
0000
0000
0000
0000
0000
0000
0000
2300
0000
0000
0000
0000
0000
0000
3000
,  // measure 62
1100
0000
0000
0000
0000
0000
0000
0000
0020
0000
0000
0000
0000
0000
0000
0000
0032
0000
0000
0000
0000
0000
0000
0000
0023
0000
0000
0000
0000
0000
0000
0030
0011
0000
0000
0000
0000
0000
0000
0000
2000
0000
0000
0000
0000
0000
0000
0000
3002
0000
0000
0000
0000
0000
0000
0000
2003
0000
0000
0000
0000
0000
0000
3000
,  // measure 63
1001
0000
0000
0000
1000
0100
0001
0000
0100
1000
0100
0000
0010
0001
0010
0000
,  // measure 64
0001
0010
1000
0000
0010
0001
0010
0000
0001
1000
0001
0000
1000
0000
1001
0000
,  // measure 65
0001
1001
1001
1000
0100
1100
1000
0100
,  // measure 66
0010
0011
0001
0010
0100
1100
1000
0100
,  // measure 67
0010
0011
0001
1000
0001
1001
0001
1000
,  // measure 68
0001
0000
2002
0000
0000
0000
3003
0000
1001
0000
1000
0100
1000
0000
0001
0100
,  // measure 69
0001
1001
1001
1000
1010
1000
0100
1000
,  // measure 70
1001
1000
0100
1000
0101
1000
0100
1000
,  // measure 71
0011
0100
0010
0100
0101
0100
0010
0100
,  // measure 72
1100
0100
0010
0100
1001
0100
0010
0100
,  // measure 73
1001
0100
0001
0010
0100
0010
1000
0010
,  // measure 74
0100
0010
0002
0023
0230
0320
2030
3020
,  // measure 75
0230
0320
0031
0000
0000
0000
0000
0000
;

//---------------dance-single - Copied from Copied f----------------
#NOTES:
     dance-single:
     Copied from Copied f:
     Medium:
     6:
     0.462,0.443,0.000,0.000,0.000:
0000
0000
0000
0000
,
0000
0000
0000
0000
,
0000
0000
0000
0000
,
0000
0000
0000
0000
,
0000
0000
0000
0000
,
0000
0000
0000
0000
,
0000
0000
0000
0000
,
0000
0000
0000
0000
,
0000
0000
1000
0100
0010
0001
1000
0010
,
0100
0001
0010
0100
1000
0010
0100
0001
,
0010
0100
1000
0010
0100
0001
0010
0100
,
1000
0010
0100
0001
0010
0100
1000
0010
,
0100
0001
0010
0100
0010
0100
0010
0001
,
0010
0001
1000
0100
1000
0100
1000
0010
,
1000
0010
0100
0001
0100
0010
0100
0001
,
0100
0010
1000
0100
0010
0100
1000
0001
,
1000
0000
0001
0100
0010
0000
1000
0100
,
0010
0000
0001
0100
0010
1000
0010
0100
,
0001
0000
1000
0100
0010
0000
0001
0010
,
0100
0000
1000
0100
0010
0001
0010
0100
,
1000
0000
0100
1000
0010
1000
0100
1000
,
0010
1000
0001
0100
0001
0010
0001
0100
,
0001
0010
0001
1000
0010
1000
0001
1000
,
0010
1000
0001
0010
0001
1000
0001
0010
,
0001
0000
0001
0100
1000
0100
0001
0100
,
1000
0100
0001
0100
1000
0100
0001
0100
,
1000
0000
1000
0100
0001
0100
1000
0100
,
0001
0100
1000
0100
0001
0100
1000
0100
,
0001
0000
0010
0100
0001
0100
0010
0100
,
0001
0100
0010
0100
0001
0100
0010
0100
,
0001
0000
1000
0100
0010
0100
1000
0100
,
0010
0100
1000
0100
0010
0100
1000
0100
,
0010
0001
1000
0001
,
1000
0001
1000
0001
,
1000
0010
0100
0010
,
0100
0010
0100
0010
,
0100
0001
1000
0001
,
1000
0001
1000
0001
,
1000
0000
0010
0100
0001
0000
0010
0100
,
1000
0000
0010
0100
0001
0010
0100
1000
,
0001
0000
0001
0010
0100
1000
0100
0000
,
1000
1000
1000
1000
,
1000
0000
0001
0010
0100
1000
0100
0000
,
1000
1000
1000
1000
,
1000
0000
0001
0010
0100
1000
0100
0000
,
1000
1000
1000
1000
,
1000
0000
0001
0010
0100
1000
0100
1000
,
0100
1000
0001
0010
0001
0010
0100
1000
,
0100
0000
0010
1000
0100
1000
0010
1000
,
0100
1000
0001
0100
0001
0010
0001
0100
,
0001
0010
0100
1000
0010
1000
0100
1000
,
0010
1000
0100
0010
0001
0100
0010
0100
,
0001
0000
0001
1000
0010
1000
0001
1000
,
0010
1000
0001
1000
0100
1000
0001
1000
,
0100
1000
0001
1000
0010
1000
0001
1000
,
0010
1000
0001
1000
0100
1000
0001
0100
,
0010
0000
0001
1000
0001
1000
0001
1000
,
0001
1000
0010
0100
0010
0100
0010
0100
,
0010
0100
0001
0100
0001
0100
0001
0100
,
0001
0100
0010
1000
0010
1000
0010
1000
,
0100
1000
0010
1000
0001
0010
0100
1000
,
0010
0100
0001
0010
0100
1000
0010
1000
,
0100
0010
0001
0100
0010
0100
0001
0010
,
1000
0010
0001
1000
0010
0100
1000
0000
,
0010
0100
0001
1000
0100
1000
0010
1000
,
0001
0010
0100
0010
1000
0010
0001
0010
,
1000
0010
0001
1000
0010
1000
0001
1000
,
0100
1000
0010
1000
0100
1000
0010
1000
,
0100
1000
0001
0100
0010
0100
0001
0100
,
0010
0100
0001
0010
0100
1000
0001
0010
,
0100
1000
0001
0010
1000
0010
0001
1000
,
0001
1000
0010
0100
0001
0100
0010
0100
,
0001
1000
0100
0000
1000
0000
0010
0000
,
1000
0001
1000
0100
,
0010
0001
0000
0000
;

//---------------dance-single - ----------------
#NOTES:
     dance-single:
     :
     Easy:
     3:
     0.257,0.261,0.148,0.000,0.000:
0000
0000
0000
0000
,
0000
0000
0000
0000
,
0000
0000
0000
0000
,
0000
0000
0000
0000
,
0000
0001
0000
1000
,
0000
0001
0000
1000
,
0000
0001
0000
1000
,
0000
0001
0000
1000
,
0000
0010
0000
0100
,
0000
0001
1000
0001
,
1000
0010
0000
1000
,
0000
0010
1000
0010
,
1000
0010
0000
0100
,
0000
0001
0100
0001
,
0100
0010
0000
0100
,
0000
0010
0100
0001
,
1000
1001
0000
0001
,
1000
0001
1000
0001
,
1000
1001
0000
0010
,
0100
0010
0100
0010
,
0100
0110
0000
0001
,
1000
0001
1000
0001
,
1000
1001
0000
0010
,
1000
0100
1000
0010
,
1000
0001
0010
1000
,
0010
0001
0010
1000
,
0010
0001
1000
0010
,
0001
0010
1000
0010
,
0001
0010
1000
0001
,
0010
1000
0010
0001
,
0010
1000
0010
0001
,
1000
0010
0001
0010
,
1000
0001
1000
0001
,
1000
0010
1000
0010
,
1000
0001
0100
0001
,
0100
0001
0010
0001
,
0010
0001
0010
0100
,
1000
0100
1000
0010
,
1000
0001
0100
0010
,
1000
0001
1000
0001
,
1001
0010
0000
1000
,
0000
0001
0000
0100
,
0000
0010
1000
0010
,
0000
0100
0000
0001
,
0000
0001
0100
0001
,
0000
1000
0000
0100
,
0000
1000
0100
1000
,
0100
0010
0001
0010
,
0001
1001
0000
1010
,
0000
0101
0000
0011
,
0000
1100
0000
1010
,
0000
0011
0000
0101
,
0000
1100
0000
0011
,
0000
1100
0000
0101
,
0000
1010
0000
0101
,
0000
0011
0000
1100
,
0000
0001
1000
0001
,
1000
0010
0100
0010
,
0100
0001
1000
0001
,
1000
0010
0100
0010
,
0100
0001
1000
0010
,
0100
0001
1000
0010
,
0100
0001
1000
0010
,
0100
0001
0010
0100
,
1000
0010
1000
0001
,
0100
0010
1000
0001
,
0100
0010
1000
0001
,
0100
0010
1000
0001
,
0100
0010
1000
0100
,
0010
0001
0010
1000
,
0010
0001
0100
0010
,
0100
0001
0010
1000
,
0010
0001
0100
0010
,
0010
1000
1000
0001
,
0001
0100
0000
0000
;

//---------------dance-single - Copied from Copied f----------------
#NOTES:
     dance-single:
     Copied from Copied f:
     Challenge:
     11:
     0.818,1.000,0.583,0.843,0.376:
0000
0000
0000
0000
,
0000
0000
0000
0000
,
0000
0000
0000
0000
,
0000
0000
0000
0000
,
0000
0000
2000
0000
0000
3200
0000
0000
,
0000
0000
0320
0000
0000
0032
0000
0000
,
0000
0000
2003
0000
0000
3200
0000
0000
,
0000
0000
0000
0000
0000
0000
0000
0000
0000
0000
0000
0000
0000
0000
0000
0000
2300
0000
0000
0000
0000
0000
0000
0000
0000
0000
0000
0000
0000
0000
0000
0000
0000
0000
0000
0000
0000
0000
3000
0000
2000
0000
0000
0000
0000
0000
0000
0000
0000
0000
0000
0000
0000
0000
0000
0000
0000
0000
0000
0000
0000
0000
0000
3000
,
0101
0000
0000
0000
1001
0000
1000
0001
1000
0000
0001
1000
0001
0000
0100
0001
,
0100
0000
0001
0100
0001
0000
0010
0100
0010
0000
0100
0010
0100
0000
1000
0010
,
1000
0000
0010
1000
0010
0000
1000
0100
1000
0000
0100
1000
0100
0000
1000
0010
,
1000
0000
0010
1000
0010
0000
0100
0001
0100
0000
0001
0100
0001
0000
1000
0001
,
1000
0000
0001
1000
0001
0000
0100
0001
0100
0000
0001
0100
0001
0000
1000
0010
,
1000
0000
0010
1000
0010
0000
0100
0010
0100
0000
0010
0100
0010
0000
1000
0100
,
1000
0000
0100
1000
0100
0000
1000
0001
0100
0000
0001
1000
0100
0000
1000
0010
,
0100
0000
0001
0010
0100
0000
1000
0001
1000
0000
0000
0000
0001
1000
0001
0000
,
1001
0000
1000
0100
1100
1000
0100
1000
,
1100
1000
0100
0010
0011
0000
1000
0100
,
0011
0000
0001
0010
0001
0000
0010
0000
0110
0000
1000
0000
0100
0000
1000
0000
,
1100
0000
1000
0001
1000
0000
0001
0000
1001
0000
0001
1000
0001
0000
1000
0000
,
1001
0000
0000
0000
0000
0000
0000
0000
1000
0000
0000
0000
0000
0000
0000
0000
0200
0000
0000
0000
0000
0000
0000
0300
0200
0000
0000
0000
0000
0000
0000
0000
0302
0000
0000
0000
0000
0000
0000
0003
0002
0000
0000
0000
0000
0000
0000
0003
0200
0000
0000
0000
0000
0000
0000
0300
2000
0000
0000
0000
0000
0000
0000
3000
,
2000
0000
0000
0000
0000
0000
0000
3000
0002
0000
0000
0000
0000
0000
0000
0003
2000
0000
0000
0000
0000
0000
0000
0000
3002
0000
0000
0000
0000
0000
0000
0000
2003
0000
0000
0000
0000
0000
0000
0000
3000
0000
0000
0000
0000
0000
0000
0000
0002
0000
0000
0000
0000
0000
0000
0000
2003
0000
0000
0000
0000
0000
0000
0000
,
3002
0003
1000
0100
1100
1000
0100
0010
,
0011
0010
0100
1000
1100
1000
0100
0010
,
0011
0000
1000
0001
0100
0000
0001
1000
0100
0000
1000
0010
0100
0000
0001
0010
,
0100
0000
1000
0001
0010
0000
0001
0100
0010
0000
1000
0010
0100
0000
0001
0100
,
0010
0000
0100
0010
1000
0000
0010
1000
0100
0000
1000
0001
0100
0000
0010
0100
,
0001
0000
0100
0001
1000
0010
1000
0001
0100
0000
0100
0010
1000
0000
0100
0010
,
0001
0000
0100
0001
1000
0000
0001
0010
0100
0000
0010
0100
1000
0000
0010
0100
,
0001
0000
0010
0001
1000
0000
0001
1000
0010
0000
0100
0010
1000
0000
0001
1000
,
0010
0000
1000
0001
0010
0000
0001
0100
0010
0000
1000
0100
0010
0000
0001
1000
,
0100
0010
0001
0010
0001
0000
0001
0100
0010
0000
1000
0010
0100
0000
0010
0100
,
0001
0000
0000
0000
0000
0000
0000
0000
0000
0000
0000
0000
0000
0000
0000
0000
2000
0000
0000
0000
0000
0000
0000
0000
0000
0000
0000
0000
0000
0000
0000
3000
1100
0000
0000
0000
0000
0000
0000
0000
0000
0000
0000
0000
0000
0000
0000
0000
0002
0000
0000
0000
0000
0000
0000
0000
0000
0000
0000
0000
0000
0000
0000
0003
,
0101
0000
0000
0000
0000
0000
0000
0000
0000
0000
0000
0000
0000
0000
0000
0000
0200
0000
0000
0000
0000
0000
0000
0000
0000
0000
0000
0000
0000
0000
0000
0300
0110
0000
0000
0000
0000
0000
0000
0000
0000
0000
0000
0000
0000
0000
0000
0000
0020
0000
0000
0000
0000
0000
0000
0000
0000
0000
0000
0000
0000
0000
0000
0030
,
0110
0000
0000
0000
1000
0100
1000
0000
1100
0000
0000
0000
0001
0100
0001
0000
,
0101
0000
0000
0000
0010
1000
0010
0000
1010
0000
0000
0000
0001
0010
0001
0000
,
0011
0000
0000
0000
0000
0000
0000
0000
0000
0000
0000
0000
0000
0000
0000
0000
2000
0000
0000
0000
0000
0000
0000
3000
2000
0000
0000
0000
0000
0000
0000
3000
0200
0000
0000
0000
0000
0000
0000
0300
0200
0000
0000
0000
0000
0000
0000
0300
0020
0000
0000
0000
0000
0000
0000
0030
0020
0000
0000
0000
0000
0000
0000
0030
,
0002
0000
0000
0000
0000
0000
0000
0003
0002
0000
0000
0000
0000
0000
0000
0003
0020
0000
0000
0000
0000
0000
0000
0030
0020
0000
0000
0000
0000
0000
0000
0000
0230
0000
0000
0000
0000
0000
0000
0300
0200
0000
0000
0000
0000
0000
0000
0300
2000
0000
0000
0000
0000
0000
0000
3000
2000
0000
0000
0000
0000
0000
0000
3000
,
0020
0000
0000
0000
0000
0000
0000
0030
0020
0000
0000
0000
0000
0000
0000
0030
0200
0000
0000
0000
0000
0000
0000
0300
0200
0000
0000
0000
0000
0000
0000
0000
0302
0000
0000
0000
0000
0000
0000
0003
0002
0000
0000
0000
0000
0000
0000
0003
0200
0000
0000
0000
0000
0000
0000
0300
0200
0000
0000
0000
0000
0000
0000
0300
,
0020
0000
0000
0000
0000
0000
0000
0030
0020
0000
0000
0000
0000
0000
0000
0030
2000
0000
0000
0000
0000
0000
0000
3000
2000
0000
0000
0000
0000
0000
0000
3000
0002
0000
0000
0000
0000
0000
0000
0003
0002
0000
0000
0000
0000
0000
0000
0003
2000
0000
0000
0000
0000
0000
0000
3000
2000
0000
0000
0000
0000
0000
0000
3000
,
1001
0000
2000
3200
0302
0203
2300
3100
,
1000
0100
1000
0000
0100
1000
0100
0000
0010
0001
0010
0000
0001
0010
0001
0000
,
1000
0001
1000
0000
2000
0000
3020
0000
0032
0000
0023
0000
2030
0000
3001
0000
,
0101
0001
0100
0001
0101
0001
0100
0001
,
0101
0001
2000
3200
0320
0032
0203
0300
,
0110
0010
1000
0001
1001
0001
0010
0100
,
1100
0000
0000
0000
2000
3200
0310
0000
0002
0023
0130
0000
2000
3200
0310
0000
,
0002
0023
0130
0000
2000
3200
0310
0000
0002
0023
0130
0000
2000
3200
0310
0000
,
0011
0000
1100
0100
0110
0010
0011
0001
,
0101
0100
0110
1010
0110
0000
0110
1010
,
0110
0000
1001
0001
0101
0100
0110
0010
,
1010
0000
1001
1010
1001
1100
1001
1010
,
1001
0000
2000
3020
2030
3020
2030
3002
,
2003
3000
1100
0011
1100
0000
0101
1010
,
0101
0000
1000
0100
0010
0001
0010
0100
,
2000
3000
0000
0200
0300
0000
0002
0003
0000
0200
0300
0000
2000
3000
0000
0200
0300
0000
0002
0003
0000
0200
0300
0000
,
2000
0000
3000
0000
0000
0000
0000
0000
0000
0000
0000
0000
1001
0000
0000
0000
0000
0000
1000
0000
0000
0100
0000
0000
1000
0000
0000
0000
0000
0000
0001
0000
0000
0100
0000
0000
0001
0000
0000
0000
0000
0000
1000
0000
0000
0010
0000
0000
,
1000
0000
0001
0010
0001
0000
1000
0100
0010
0000
0001
0010
0100
0000
1000
0100
,
0010
0000
0001
0010
0100
0000
1000
0001
1000
0000
0010
0100
0010
0000
1000
0001
,
1000
0000
0010
0100
0010
0000
1000
0100
0010
0000
0001
0100
0010
0000
1000
0100
,
0010
0000
0000
0000
0000
0000
0000
0000
0001
0000
0000
0000
0100
0000
0000
0000
0010
0000
0000
0000
0000
0000
0000
0000
1000
0000
0000
0000
0000
0000
0000
0000
1001
0000
0000
0000
0000
0000
0000
0000
2000
0000
0000
0000
0000
0000
0000
0000
3200
0000
0000
0000
0000
0000
0000
0000
2300
0000
0000
0000
0000
0000
0000
3000
,
1100
0000
0000
0000
0000
0000
0000
0000
0020
0000
0000
0000
0000
0000
0000
0000
0032
0000
0000
0000
0000
0000
0000
0000
0023
0000
0000
0000
0000
0000
0000
0030
0011
0000
0000
0000
0000
0000
0000
0000
2000
0000
0000
0000
0000
0000
0000
0000
3002
0000
0000
0000
0000
0000
0000
0000
2003
0000
0000
0000
0000
0000
0000
3000
,
1001
0000
0000
0000
1000
0100
0001
0000
0100
1000
0100
0000
0010
0001
0010
0000
,
0001
0010
1000
0000
0010
0001
0010
0000
0001
1000
0001
0000
1000
0000
1001
0000
,
0001
1001
1001
1000
0100
1100
1000
0100
,
0010
0011
0001
0010
0100
1100
1000
0100
,
0010
0011
0001
1000
0001
1001
0001
1000
,
0001
0000
2002
0000
0000
0000
3003
0000
1001
0000
1000
0100
1000
0000
0001
0100
,
0001
1001
1001
1000
1010
1000
0100
1000
,
1001
1000
0100
1000
0101
1000
0100
1000
,
0011
0100
0010
0100
0101
0100
0010
0100
,
1100
0100
0010
0100
1001
0100
0010
0100
,
1001
0100
0001
0010
0100
0010
1000
0010
,
0100
0010
0002
0023
0230
0320
2030
3020
,
0230
0320
0031
0000
0000
0000
0000
0000
;
