#TITLE:Venus;
#SUBTITLE:;
#ARTIST:신화;
#TITLETRANSLIT:;
#SUBTITLETRANSLIT:;
#ARTISTTRANSLIT:Shinhwa;
#GENRE:KPOP;
#CREDIT:DvF;
#BANNER:shinhwa-venus - banner.png;
#BACKGROUND:shinhwa-venus - BG.png;
#LYRICSPATH:;
#CDTITLE:;
#MUSIC:shinhwa-venus.mp3;
#OFFSET:0.000000;
#SAMPLESTART:107.000000;
#SAMPLELENGTH:13.000000;
#SELECTABLE:YES;
#BPMS:0.000000=125.999992
;
#STOPS:
;
#BGCHANGES:0.000=shinhwa-venus.mp4=1.000=0=0=0=StretchNoLoop====,
99999=-nosongbg-=1.000=0=0=0 // don't automatically add -songbackground-
;
#KEYSOUNDS:;
#ATTACKS:;

//---------------dance-single - ----------------
#NOTES:
     dance-single:
     :
     Beginner:
     4:
     0.224098,0.308921,0.087149,0.114670,0.000000,298.000000,19.000000,25.000000,0.000000,0.000000,0.000000,0.224098,0.308921,0.087149,0.114670,0.000000,298.000000,19.000000,25.000000,0.000000,0.000000,0.000000:
// measure 0
0000
0000
0000
0010
,  // measure 1
0010
0000
0100
0100
,  // measure 2
0000
0000
1001
0000
,  // measure 3
0000
0000
0010
0010
,  // measure 4
0100
0100
0001
0100
,  // measure 5
0000
0010
0100
0010
,  // measure 6
0100
0001
0001
1000
,  // measure 7
1000
0100
0100
0000
,  // measure 8
0010
0010
0000
0100
,  // measure 9
0100
0000
1000
1000
,  // measure 10
0000
0001
0001
1000
,  // measure 11
0000
0001
0000
1000
,  // measure 12
0000
0001
1000
1000
,  // measure 13
1000
1000
1000
1000
,  // measure 14
1000
1000
0001
0001
,  // measure 15
0001
0001
0001
0001
,  // measure 16
0001
1000
1000
1000
,  // measure 17
1000
0010
0010
0010
,  // measure 18
0010
0100
0100
0100
,  // measure 19
0010
0010
0100
0010
,  // measure 20
0100
0000
1001
0000
,  // measure 21
0000
1001
0000
0000
,  // measure 22
1001
0000
0010
0010
,  // measure 23
0010
0000
0100
0100
,  // measure 24
0100
0000
0110
0110
,  // measure 25
1001
0010
0000
0000
,  // measure 26
0010
0000
1001
1001
,  // measure 27
0110
0010
0000
1001
,  // measure 28
1001
0100
0100
0100
,  // measure 29
0010
0010
0010
0010
,  // measure 30
0001
1000
1000
1000
,  // measure 31
0001
0001
1000
1001
,  // measure 32
0001
0000
1000
1000
,  // measure 33
0010
0010
0100
0100
,  // measure 34
0100
0000
0010
0010
,  // measure 35
0010
0010
0001
0001
,  // measure 36
0001
0000
1000
0000
,  // measure 37
0001
0000
1000
1000
,  // measure 38
0001
0000
1000
0001
,  // measure 39
0001
0000
0001
0001
,  // measure 40
1000
0001
0010
0010
,  // measure 41
0100
0100
0010
0100
,  // measure 42
0010
0100
0000
0001
,  // measure 43
0001
1000
1000
0000
,  // measure 44
0100
0100
0100
0001
,  // measure 45
0001
1000
1000
0010
,  // measure 46
0100
0100
0001
0010
,  // measure 47
0100
1000
1000
0100
,  // measure 48
0100
0100
0001
0001
,  // measure 49
0000
1000
1000
0001
,  // measure 50
0001
0000
0000
0000
,  // measure 51
0000
1000
1000
0001
,  // measure 52
0001
0000
0000
0000
,  // measure 53
0000
0010
0010
0100
,  // measure 54
0100
0000
0010
0000
,  // measure 55
0010
0010
0000
0000
,  // measure 56
0000
0000
2000
0000
,  // measure 57
0000
0000
0000
0000
,  // measure 58
3000
0002
0000
0000
,  // measure 59
0000
0000
0000
0000
,  // measure 60
0003
0000
0010
0010
,  // measure 61
0001
0001
0000
1000
,  // measure 62
1000
0100
0100
0010
,  // measure 63
0010
0001
0001
1000
,  // measure 64
1000
0000
0002
0000
,  // measure 65
0000
0000
0000
0000
,  // measure 66
1003
2000
0000
0000
,  // measure 67
0000
0000
0000
0000
,  // measure 68
3000
0001
0002
0000
,  // measure 69
0000
0000
0000
1003
,  // measure 70
1000
0002
0000
0000
,  // measure 71
0000
0000
0003
1000
,  // measure 72
1000
0010
0020
0000
,  // measure 73
0000
0000
0000
0030
,  // measure 74
0200
0000
0000
0000
,  // measure 75
0000
0000
0000
0300
,  // measure 76
0000
2002
0000
3003
,  // measure 77
2002
0000
3003
2002
,  // measure 78
0000
3003
0000
0000
,  // measure 79
0000
0000
0001
0010
,  // measure 80
0100
1000
2000
0000
,  // measure 81
0000
3000
0002
0000
,  // measure 82
0000
0000
2003
0000
,  // measure 83
0000
0000
3002
0000
,  // measure 84
0000
0000
0013
0010
,  // measure 85
0010
0100
0100
0100
,  // measure 86
0010
0010
0010
0001
,  // measure 87
0001
0001
1000
1000
,  // measure 88
1001
0000
1000
1000
,  // measure 89
1000
1000
0001
0001
,  // measure 90
0001
1000
1000
1000
,  // measure 91
1000
0100
0010
0001
,  // measure 92
0010
0100
1000
1000
,  // measure 93
1000
0001
1000
0001
,  // measure 94
0001
0000
1000
1000
,  // measure 95
0001
1000
0000
1000
,  // measure 96
1000
0001
0001
1000
,  // measure 97
1000
0001
0001
1000
,  // measure 98
1000
0010
0010
0100
,  // measure 99
0100
0010
0010
0100
,  // measure 100
0100
0000
0010
0010
,  // measure 101
0100
0100
0001
1000
,  // measure 102
0001
1000
0001
1000
,  // measure 103
0001
1000
0010
0100
,  // measure 104
0010
0100
0200
0000
,  // measure 105
0000
0000
0320
0000
,  // measure 106
0000
2030
0000
0000
,  // measure 107
0000
3002
0000
0000
,  // measure 108
0003
1001
2000
0000
,  // measure 109
0000
3000
0002
0000
,  // measure 110
0000
0000
2003
0000
,  // measure 111
0000
0000
3000
0000
,  // measure 112
0000
1001
0000
0000
;

//---------------dance-single - ----------------
#NOTES:
     dance-single:
     :
     Easy:
     8:
     0.301418,0.411895,0.412812,0.105496,0.000000,347.000000,90.000000,23.000000,0.000000,2.000000,0.000000,0.301418,0.411895,0.412812,0.105496,0.000000,347.000000,90.000000,23.000000,0.000000,2.000000,0.000000:
0000
0000
0000
0000
,
1001
0010
0010
0010
,
1001
0100
0100
0000
,
1001
0100
0100
0100
,
0100
0000
0002
0000
,
0000
0000
0000
0000
,
0000
1000
1000
0000
,
0000
0000
1000
1000
,
0003
2000
0000
0000
,
0000
0000
0000
0000
,
0000
0000
0000
0100
,
0000
0010
0000
0001
,
3000
1000
0001
0001
,
0001
1000
1000
1000
,
1000
0001
0001
0001
,
0001
1000
1000
1000
,
1000
0010
0010
0010
,
0010
0100
0100
0100
,
0100
0000
2002
0000
,
3003
0220
0000
0000
,
0330
1001
1001
1001
,
1001
1001
1001
1001
,
0010
0010
1001
1001
,
1001
1001
1001
1001
,
0100
0000
0110
0110
,
1001
0110
1001
1001
,
1001
0000
0110
0110
,
1001
1001
0010
0100
,
1001
0000
2002
0000
,
0000
0000
0000
3003
,
0110
1001
1001
1001
,
1001
0010
0100
0010
,
0100
1001
2002
0000
,
0000
3013
0100
0010
,
0100
1001
0010
0010
,
0100
0100
1001
0010
,
0100
0000
0001
1000
,
0001
1000
0001
0001
,
0001
1000
1000
1000
,
1000
0001
0001
0001
,
0000
1001
1000
1000
,
1000
0010
0010
0100
,
0100
0100
0100
0001
,
0001
1000
1000
0010
,
0010
0100
0100
1001
,
0010
0010
0100
0010
,
0100
1001
0000
1010
,
0000
0011
0000
0001
,
0010
1000
0100
0010
,
0010
0100
0010
0100
,
0010
0001
0001
0001
,
0001
0010
0100
0010
,
0100
1000
1000
1000
,
1000
0010
0100
0010
,
0100
1000
0001
1000
,
0001
1000
1000
1000
,
1000
1001
0110
0110
,
0110
1001
0110
1001
,
0010
0100
0010
0100
,
0010
0100
0010
0100
,
0010
0002
0000
0000
,
1000
0100
0003
1000
,
1000
0200
0000
0000
,
0010
0001
0300
0010
,
0001
0100
1000
1000
,
1000
0001
0001
0001
,
1001
0010
0010
0100
,
0100
0010
0001
0100
,
1000
0000
0100
0100
,
0010
0100
0010
0010
,
0010
0000
0100
0100
,
0010
0100
0000
1001
,
0110
0000
0002
0000
,
0000
0000
0000
0000
,
0000
0000
2003
0000
,
0000
0000
0000
0000
,
0000
3020
0000
0000
,
0000
0000
0000
0000
,
0230
0000
0000
0000
,
0000
0000
0301
0010
,
0100
1000
1000
1000
,
1000
1000
0001
0001
,
0001
0001
1000
1000
,
1000
1000
0001
0001
,
0001
0001
0110
0001
,
0001
1000
1000
1000
,
1000
0110
0001
0001
,
0001
0001
1000
2002
,
0000
0000
3113
1001
,
0110
1001
0110
1001
,
1001
0110
1001
0110
,
1001
0110
1001
1000
,
0001
0110
0001
0001
,
1000
1000
0110
1000
,
1000
0001
0001
0110
,
1000
1000
0001
0001
,
0110
1001
0110
1001
,
0110
1001
0110
1001
,
0001
1000
1000
0010
,
0100
0010
0001
0001
,
1000
1000
0110
1001
,
0110
1001
0010
0010
,
0100
0100
1001
0110
,
1001
0010
0010
0100
,
0100
0002
0000
0000
,
0000
0000
1000
0100
,
1000
0003
0000
0010
,
0001
0000
0010
0100
,
0001
0001
2000
0000
,
0000
0000
3002
0000
,
0000
2003
0000
0000
,
3002
0000
0000
0000
,
0003
1001
0000
0000
;

//---------------dance-single - ----------------
#NOTES:
     dance-single:
     :
     Medium:
     6:
     0.408880,0.514868,0.307315,0.160538,0.252274,522.000000,67.000000,35.000000,0.000000,0.000000,0.000000,0.408880,0.514868,0.307315,0.160538,0.252274,522.000000,67.000000,35.000000,0.000000,0.000000,0.000000:
0000
0000
0000
0000
0000
2002
0000
0000
,
0000
0000
0000
0000
0000
0000
3003
0020
0000
0000
0000
0000
0000
0000
0000
0000
,
0000
0230
0000
0000
0000
0000
0300
0000
2200
0000
0000
0000
0000
0000
0000
0000
,
0000
0000
0000
0000
3300
0000
0000
0022
0000
0000
0000
0000
0000
0000
0000
0000
,
0000
0000
0000
0000
0000
0000
0000
0030
0003
0000
0000
0000
1001
0000
0000
0000
,
0110
0001
1000
0010
,
0100
0000
0000
0000
0010
0000
0001
0000
0000
0000
1000
0000
0000
0010
0000
0000
,
0100
0000
0000
0000
0010
0000
0000
0000
0001
0000
1000
0000
0000
0000
0000
0010
,
0000
0000
0000
0100
0010
0000
0000
0000
0001
0000
0000
0000
1000
0000
0000
0000
,
0010
0000
0000
0000
0100
0000
0000
0000
1000
0000
0000
1000
0000
0000
0100
0000
,
0010
0001
1000
0010
0100
0000
0100
0000
,
0000
0000
1000
0100
0000
0000
0010
0001
,
0000
0000
0000
0000
1000
0000
0100
0000
0001
0010
0000
0000
0011
0000
0000
0000
,
0011
1100
1100
0110
,
0001
0000
0000
0000
0001
0000
0000
0000
0011
0000
0000
0000
0011
0000
0000
0100
,
1000
0100
0100
1000
,
0010
0001
1100
1100
,
0011
0011
1100
1100
,
0011
0000
0000
0000
0011
0000
0000
0000
0110
0000
0000
0000
1001
0000
0000
0110
,
0000
0000
0000
2002
0000
0000
0000
0000
0000
0000
0000
0000
0000
0000
3003
0000
,
0000
0000
0000
0000
0011
0000
0000
0000
1000
0000
0000
0100
0000
0000
0010
0000
,
0000
0001
0000
0000
1000
0000
0000
0100
0000
0000
0010
0000
0000
0000
0001
2000
,
0000
0000
0000
3000
0010
0000
0000
0000
0100
0000
0000
0001
0000
0000
0010
0000
,
0000
0100
0000
0000
1000
0000
0000
0000
0010
0000
0000
0100
0000
0000
0010
0000
,
0100
0000
0000
0000
0000
0000
0000
0001
1000
0000
0001
1000
0000
0001
1000
0000
,
0010
0000
0100
0000
0000
1000
0010
0001
,
0100
0000
0000
0000
0000
0000
1000
0000
0100
0000
1000
0100
0000
1000
0010
0000
,
0001
0000
0100
0000
0000
0010
1000
0100
,
0001
0000
0000
0000
0010
0000
1000
0000
0010
0000
0000
0010
0000
0000
0010
0000
,
0000
0000
0010
0000
0010
0000
0000
0001
0000
0000
0001
0000
0000
0000
1000
0000
,
0000
0010
0000
0000
0100
0000
0000
0000
0010
0000
0000
0100
0000
0000
0010
0000
,
0000
0100
0000
0000
0010
0000
0000
0001
0000
0000
0000
1000
0000
0000
0100
0000
,
0010
0000
0000
0000
0000
0000
0001
0000
1000
0000
0001
1000
0000
0001
1000
0000
,
0010
0000
0100
0000
0000
0001
1000
0100
,
0010
0000
0000
0000
0000
0000
0001
0000
1000
0000
0010
1000
0000
0100
0000
0000
,
1000
0000
0000
0000
0010
0000
0000
0000
0000
0020
0000
0000
0000
0030
0001
0000
,
0100
0100
0100
0100
,
0100
0000
0010
0000
0010
0000
0010
0010
,
0000
0000
0001
0000
0100
0000
1000
0000
0100
0000
0000
0000
0000
0000
0000
0100
,
0000
0000
0100
0000
0000
0000
0000
0000
0010
0000
0000
0010
0000
0000
0001
0000
,
0000
1000
0100
0000
0101
0000
0101
0000
,
1010
1010
0110
0001
,
1000
0000
0100
0010
0000
0000
0001
1000
,
0001
0000
0000
0010
0100
0000
0000
0000
1000
0000
0010
0000
0000
0000
0100
0000
,
0000
0100
0100
0000
0010
0000
0001
0000
,
1000
0100
0010
0010
,
0100
0000
1000
0100
0000
0000
0110
0110
,
0000
0000
1001
1001
0000
0000
0001
0001
,
0000
0000
1000
1000
0100
0000
0010
0000
,
0001
2000
0010
0001
,
0100
3000
0000
0000
0010
0000
0000
0000
0002
0000
0000
0000
1000
0000
0000
0000
,
0100
0010
1000
0010
,
1000
0003
0000
0000
0010
0000
0000
0000
0200
0000
0000
0000
0000
0000
0000
0000
,
0000
0010
1000
0001
,
1000
0000
0300
0000
0020
0000
0000
0000
0032
0000
0000
0000
2003
0000
0200
3000
,
0000
0000
0310
0000
0002
0000
0000
0000
0000
0000
0000
0003
0000
0000
0000
0000
,
1001
0000
0000
0000
0110
0000
0000
0000
1001
0000
0000
1001
0000
0000
1001
0000
,
0000
1000
0001
0000
1001
0000
0000
0000
0110
0000
0110
0000
0000
0000
1001
0000
,
0110
0000
0000
0000
0001
0000
0001
0000
1000
0000
0000
0010
0000
0000
0100
0000
,
0000
0010
0000
0000
0001
0000
0000
0000
1000
0000
0000
1000
0000
0000
0100
0000
,
0010
0000
0000
0000
0000
0000
0001
0000
1000
0000
0001
1000
0000
0001
1000
0000
,
0010
0000
0100
0000
0000
0001
1000
0010
,
0100
0000
0000
0000
0000
0000
0001
0000
1000
0000
0001
1000
0000
0001
1000
0000
,
0010
0000
0100
0000
0000
0001
1000
0010
,
0100
0000
0000
0000
0001
0000
1000
0000
0001
0000
0000
0001
0000
0000
0001
0000
,
0000
0001
0000
0000
0001
0000
0000
1000
0000
0000
1000
0000
0000
0000
0010
0000
,
0100
0000
0000
0000
0010
0000
0100
0000
0010
0000
0000
0001
0000
0000
1000
0000
,
0000
0100
0000
0000
0010
0000
0000
0000
0010
0000
0000
0010
0000
0000
0100
0000
,
0010
0000
0000
0000
0000
0000
0001
0000
1000
0000
0001
1000
0000
0001
1000
0000
,
0010
0000
0100
0000
0000
1000
0100
0010
,
0001
0000
0000
0000
0000
0000
1000
0000
0100
0000
1000
0100
0000
1000
0100
0000
,
0010
0000
0001
0000
0000
0001
0010
0100
,
1000
0000
0100
0000
0020
0000
0000
1000
,
0000
0000
0030
0200
0000
0000
0000
0300
,
0000
0001
0000
2000
0000
0000
0000
3000
0200
0000
0000
0000
0000
0000
0320
0000
,
0000
0000
0000
0000
0030
0002
0000
0000
0000
0000
0000
0000
0000
0003
0000
0000
,
0000
0000
1001
0000
0010
0000
0000
0000
0200
0000
0000
0000
0000
0000
0000
0300
,
0020
0000
0000
0000
0000
0000
2030
0000
0000
0000
0000
0000
3000
0000
0000
0100
,
0000
0000
0001
0000
0000
0000
0000
0010
0000
0000
1000
0000
0000
0000
0000
0100
,
0000
0010
0001
0000
0000
0000
0000
0000
1000
0100
0000
0000
0001
0000
0000
0000
,
0010
0000
0000
0000
0220
0000
0000
0000
0330
0010
0000
0000
0010
0000
0000
0010
,
0000
0001
0001
0001
,
1000
1000
0100
0100
,
0010
0000
0000
0000
0010
0000
0000
0000
1000
0000
0000
0100
0000
0000
0010
0000
,
0001
1000
0010
0010
,
0010
0000
0000
0000
0010
0000
0000
0000
0100
0000
1000
0100
0000
1000
0000
0000
,
0010
0000
0001
1000
0001
0000
0010
0100
,
0000
0010
0001
0000
1000
0000
0010
0000
0100
0000
0000
1000
0100
0000
1000
0000
,
0100
0000
0000
0000
0011
0000
0000
0000
1100
0000
0000
1100
0000
0000
1100
0000
,
0000
1100
0000
0000
1100
0000
0000
0011
0000
0000
0011
0000
0000
0000
0000
0100
,
0000
0110
0000
0000
0000
0001
0000
0000
1000
0000
0000
0100
0000
0000
0010
0000
,
0000
0001
0000
0000
1000
0000
0000
0000
0110
0000
0000
0001
0000
0000
0010
0000
,
0100
0000
0000
0000
0000
0000
0001
0000
1000
0000
0001
1000
0000
0001
1000
0000
,
0010
0000
0000
0000
0100
0000
0000
0000
1000
0000
0000
0000
0100
1000
0000
0000
,
0100
0000
0000
0000
0000
0000
0001
0000
1000
0000
0001
1000
0000
0001
1000
0000
,
0010
0100
0001
0010
,
0100
0000
0000
0000
1000
0000
0100
0000
1000
0000
0000
1000
0000
0000
1000
0000
,
0000
1000
0000
0000
1000
0000
0000
1000
0000
0000
0000
1000
0000
0000
0110
0000
,
0001
0000
0000
0000
0010
0000
1000
0000
0100
0000
0000
0010
0000
0000
0010
0000
,
0000
0001
0000
0000
0010
0000
0000
0000
0100
0000
0000
1000
0000
0100
0000
0000
,
0100
0000
0000
0000
0000
0000
0001
0000
1000
0000
0001
1000
0000
0001
1000
0000
,
0010
0000
0100
0000
0000
1000
1000
1000
,
1000
0000
0000
0000
0000
0000
0110
0000
1000
0000
0001
1000
0000
0001
1000
0000
,
0010
0000
0100
0000
0000
1001
1001
0110
,
0001
0000
0000
0000
1000
0000
0110
0000
0002
0000
0000
0000
0000
0000
0000
1000
,
0000
1000
0000
0000
0000
0000
0000
0000
1000
0000
0000
1000
0000
0000
1000
0000
,
0000
0103
1000
0200
0000
0000
0000
0010
,
0000
0010
0000
0000
0000
0000
0000
0001
0000
0000
0000
0001
0000
0000
0001
0000
,
0300
0000
1000
0000
0100
0000
0000
0010
0020
0000
0000
0000
0000
0000
0000
1000
,
0000
0000
0000
0000
0000
0000
0000
0100
0000
0000
1000
0000
0000
0001
0000
0000
,
0000
1030
0100
0000
2000
0000
0000
0100
,
0000
0010
0000
0000
3000
0000
0000
0000
1001
0000
0000
1001
0000
0000
1001
0000
,
0000
0110
1001
0000
0000
0000
0000
0000
;
