#TITLE:Uraomote Lovers;
#SUBTITLE:;
#ARTIST:wowaka;
#TITLETRANSLIT:;
#SUBTITLETRANSLIT:;
#ARTISTTRANSLIT:;
#CREDIT:;
#BANNER:;
#BACKGROUND:;
#LYRICSPATH:;
#CDTITLE:;
#MUSIC:Uraomote Lovers.mp3;
#OFFSET:0.000;
#SAMPLESTART:100.000;
#SAMPLELENGTH:12.000;
#SELECTABLE:YES;
#BPMS:0.000=159.000,220.000=318.000,226.000=159.000,227.000=318.000,233.000=159.000,234.000=318.000,240.000=159.000,241.000=318.000,245.000=159.000,247.000=318.000,253.000=159.000,254.000=318.000,260.000=159.000,261.000=318.000,267.000=159.000,286.000=318.000,292.000=159.000,293.000=318.000,299.000=159.000,300.000=318.000,306.000=159.000,307.000=318.000,311.000=159.000,313.000=318.000,319.000=159.000,320.000=318.000,326.000=159.000,327.000=318.000,333.000=159.000;
#STOPS:284.000=0.195
,284.500=0.200
,285.000=0.200
,285.500=0.200
;
#BGCHANGES:;

//---------------dance-single - ----------------
#NOTES:
     dance-single:
     :
     Challenge:
     10:
     1.000,1.000,0.734,0.470,1.000: // measure 1
0000
0000
0000
0000
,  // measure 2
0000
0000
0000
0000
,  // measure 3
0000
0000
0000
0000
,  // measure 4
0000
0000
0000
0000
,  // measure 5
2020
0000
3232
0000
,  // measure 6
0323
0000
0000
0000
,  // measure 7
0000
0000
0000
0000
0100
0100
0100
0130
,  // measure 8
1000
0010
0100
1000
0001
0100
0010
0001
0100
0000
0010
0000
1001
0000
0000
0000
,  // measure 9
0100
0001
0010
1000
0010
0001
0100
0010
1000
0000
0100
0000
1001
0000
0000
0000
,  // measure 10
0010
1000
0100
0001
0100
0010
1000
0010
0100
0000
0010
0000
0110
0000
0000
0000
,  // measure 11
0100
1000
0010
0100
1000
0100
0001
0010
1000
0000
0100
0000
1001
0000
0000
0000
,  // measure 12
0100
0001
0010
1000
0100
0001
0010
1000
0100
0000
0010
0000
0110
0000
0000
0000
,  // measure 13
0001
1000
0010
0001
0100
1000
0001
0010
1000
0000
0010
0000
0110
0000
0000
0000
,  // measure 14
1000
0100
0010
1000
0001
0100
1000
0010
0001
0000
0010
0000
1001
0000
0000
0000
,  // measure 15
1000
0010
0001
0100
1000
0001
0010
0100
0001
0000
0010
0000
1001
0000
0000
0000
,  // measure 16
0010
0100
0001
0010
1000
0100
0010
1000
0001
0100
0010
0000
1000
0000
0001
0000
,  // measure 17
0000
0000
0010
1000
0001
0100
0010
1000
0001
0100
0010
0000
0100
0000
0010
0000
,  // measure 18
0000
0000
1000
0100
0001
0010
1000
0001
0100
0010
1000
0001
0100
1000
0001
0100
,  // measure 19
0010
1000
0001
0100
1000
0001
0010
0100
0001
0100
1000
0010
0100
0001
1000
0010
,  // measure 20
0100
0001
0100
0010
1000
0100
0001
1000
0010
0100
0001
0000
0010
0000
1000
0000
,  // measure 21
0000
0000
0100
0001
0010
1000
0100
0001
1000
0010
0001
0100
0020
0000
0030
0100
,  // measure 22
0010
0000
1000
0000
0010
1000
0100
0001
0010
1000
0001
0010
1000
0001
1000
0010
,  // measure 23
0100
0001
1000
0100
0001
1000
0010
0001
0100
1000
0001
0010
1000
0100
0001
0010
,  // measure 24
1000
0001
0100
0010
1000
0100
0001
0010
1000
0000
0000
0000
0010
1000
0100
0001
,  // measure 25
0010
1000
0100
0001
1000
0100
0010
0100
1000
0001
0010
0100
0010
0001
2000
0000
,  // measure 26
0000
0000
0000
0000
0000
0100
0100
3100
,  // measure 27
1100
0110
0011
0110
,  // measure 28
1000
0000
0100
1000
0100
0000
0010
0001
0010
0100
1000
0100
0010
0001
0010
0100
,  // measure 29
1000
0000
1000
0100
0001
1000
0010
0100
0001
1000
0001
0100
0010
1000
0010
0100
,  // measure 30
1001
1100
0011
1001
,  // measure 31
0220
0000
1331
1001
,  // measure 32
0010
0100
1000
0010
0001
1000
0100
0001
1000
0000
0100
0000
0011
0000
0000
0000
,  // measure 33
1000
0001
0100
0010
0100
0001
1000
0100
0010
0000
1000
0000
0011
0000
0000
0000
,  // measure 34
0100
0010
1000
0001
1000
0100
0010
0100
1000
0000
0100
0000
1100
0000
0000
0000
,  // measure 35
1000
0010
0100
1000
0010
1000
0001
0100
0010
0000
1000
0000
0011
0000
0000
0000
,  // measure 36
0001
1000
0100
0001
0010
1000
0010
0001
0010
0000
0001
0000
0011
0000
0000
0000
,  // measure 37
0001
0010
1000
0100
0001
1000
0001
0100
0010
0000
1000
0000
0101
0000
0000
0000
,  // measure 38
0001
1000
0010
0100
0001
0010
1000
0100
0001
0000
1000
0000
0011
0000
0000
0000
,  // measure 39
0100
0001
0100
0010
0100
1000
0001
1000
0100
0000
0001
0000
1010
0000
0000
0000
,  // measure 40
0001
0000
0100
0001
0010
1000
0001
0010
0100
0001
1000
0010
0001
0000
0100
0010
,  // measure 41
1000
0000
0001
0010
0100
0000
1000
0010
0100
1000
0001
0010
1000
0000
0001
0000
,  // measure 42
0100
0001
0010
1000
0100
0001
1000
0010
0100
0001
0100
0010
1000
0010
0100
1000
,  // measure 43
0001
0010
0100
1000
0010
0100
0001
1000
0100
1000
0010
0001
0100
0000
0000
0000
,  // measure 44
1000
0100
1000
0001
0010
0000
0100
0010
0001
1000
0100
0010
0000
0000
0010
1000
,  // measure 45
0100
0001
0010
1000
0001
0100
0010
1000
0100
0001
1000
0010
0100
0000
0000
0000
,  // measure 46
1000
0100
0000
0100
0010
0000
0010
0001
0000
0001
0010
0000
0010
0100
0000
0100
,  // measure 47
1000
0000
1000
0100
1000
0100
0010
0001
0200
0000
0000
0000
0000
0000
0000
0000
,  // measure 48
0310
1000
0001
0100
1000
0010
1000
0001
0100
0001
0000
1000
0000
0000
1000
0100
,  // measure 49
0001
0010
1000
0100
0001
1000
0001
0010
1000
0100
0001
0010
1000
0000
0000
1000
,  // measure 50
0100
0001
0000
0000
0000
0010
1000
0001
0000
0000
0000
0100
0001
1000
0000
0000
,  // measure 51
0001
0100
0010
1000
0001
0100
0010
1000
0001
0100
1000
0000
0010
0000
0000
0000
,  // measure 52
1000
0000
1000
0100
0010
0000
1000
0100
0010
0000
1000
0100
0010
0000
1000
0100
,  // measure 53
0010
0000
1000
0100
0010
0000
0001
0010
0100
0000
1000
0100
0010
0000
0001
0010
,  // measure 54
0200
2300
3202
2323
,  // measure 55
3130
0000
0001
0000
0100
0000
0001
0000
0100
0001
0100
0001
0200
0000
0000
0000
,  // measure 56
1300
0001
0010
1000
0100
0001
0010
1000
,  // measure 57
0101
0000
0110
0000
1100
0000
0100
0001
,  // measure 58
0010
1000
0100
0001
0010
1000
0110
0000
,  // measure 59
0101
0000
1001
0000
0001
1000
0100
0001
,  // measure 60
0010
1000
0100
0001
1010
0000
0101
0000
,  // measure 61
1001
0000
0010
1000
0001
0010
1000
0001
,  // measure 62
0010
1000
0220
2332
3223
2332
3103
0001
,  // measure 63
1000
0010
0100
0001
1000
0010
1100
0000
,  // measure 64
0110
0000
0011
0000
0001
0100
1000
0001
,  // measure 65
1000
0010
0100
0001
1010
0000
0110
0000
,  // measure 66
0101
0000
0010
1000
0001
0010
1000
0100
,  // measure 67
0001
1000
0101
0000
0110
0000
1010
0000
,  // measure 68
2200
3020
2300
0230
,  // measure 69
3311
0000
1000
0100
0010
0001
0010
0100
1000
0100
0010
0001
0010
0100
1000
0100
,  // measure 70
0010
0001
0010
0100
1000
0100
0010
0001
0010
0100
1000
0100
0020
0000
0000
0000
,  // measure 71
0031
0010
0100
1000
0100
0010
0001
0010
0100
1000
0100
0010
0001
0010
0100
1000
,  // measure 72
0220
0330
0220
0330
0220
0330
0220
0330
1000
0000
0010
0000
0001
0000
1000
0000
,  // measure 73
0010
0100
0001
1000
0011
0000
1100
0000
,  // measure 74
1001
0000
0010
0100
0001
1000
0100
0001
,  // measure 75
0010
0100
1001
0000
1010
0000
0101
0000
,  // measure 76
0001
1000
0010
0001
0100
1000
0010
0001
,  // measure 77
1010
0000
0110
0000
0011
0000
0100
0001
,  // measure 78
0010
1000
0001
0100
0010
1000
0202
2323
,  // measure 79
3232
2323
3130
0001
1000
0010
0100
0001
,  // measure 80
1000
0100
0011
0000
0110
0000
1100
0000
,  // measure 81
1000
0010
0001
0100
1000
0001
0010
1000
,  // measure 82
0101
0000
0110
0000
1100
0000
0001
0100
,  // measure 83
0001
0010
1000
0001
0100
1000
0110
0000
,  // measure 84
1001
0000
0110
0000
2002
3003
2002
3003
,  // measure 85
2002
3003
2002
3003
1001
0000
0000
0000
;
