#TITLE:Under the Sky;
#SUBTITLE:;
#ARTIST:南さやか (BeForU) with platoniX;
#TITLETRANSLIT:;
#SUBTITLETRANSLIT:;
#ARTISTTRANSLIT:SayakaMinami(BeForU) with platoniX;
#CREDIT:;
#BANNER:Under the Sky.png;
#BACKGROUND:Under the Sky-bg.png;
#LYRICSPATH:;
#CDTITLE:./CDTitles/BeatmaniaIIDX.png;
#MUSIC:Under the Sky.ogg;
#OFFSET:0.000;
#SAMPLESTART:57.900;
#SAMPLELENGTH:15.000;
#SELECTABLE:YES;
#DISPLAYBPM:170.000;
#BPMS:0.000=170.616,4.000=170.012;
#STOPS:;
#BGCHANGES:;

//---------------dance-single - ----------------
#NOTES:
     dance-single:
     :
     Beginner:
     2:
     0.097,0.161,0.000,0.000,0.000:
0000
0000
0000
0000
,
0000
0000
0000
0000
,
0000
0000
0000
0000
,
0001
0000
0000
0000
,
0100
0000
0000
0000
,
1000
0000
0000
0000
,
0100
0000
0000
0000
,
0001
0000
0000
0000
,
0000
0000
0000
0000
,
1000
0000
0000
0000
,
0010
0000
0000
0000
,
0001
0000
0000
0000
,
0010
0000
0000
0000
,
1000
0000
0000
0000
,
0001
0000
0000
0000
,
0100
0000
0000
0000
,
0000
0000
0000
0000
,
1000
0000
0100
0000
,
0010
0000
0000
0000
,
0001
0000
0100
0000
,
0010
0000
0000
0000
,
1000
0000
0000
0000
,
0001
0000
0000
0000
,
1000
0000
0000
0000
,
1000
0000
0000
0000
,
0010
0000
0100
0000
,
0010
0000
0000
0000
,
0100
0000
0100
0000
,
0000
0000
0000
0000
,
1000
0000
0000
0000
,
0000
0000
0000
0000
,
0001
0000
0000
0000
,
0000
0000
0000
0000
,
1000
0000
0100
0000
,
0010
0000
0000
0000
,
0001
0000
1000
0000
,
0001
0000
0000
0000
,
0010
0000
0000
0000
,
0100
0000
0000
0000
,
0010
0000
0000
0000
,
0010
0000
0000
0000
,
0001
0000
0000
0000
,
1000
0000
0000
0000
,
0001
0000
0000
0000
,
1000
0000
0000
0000
,
0010
0000
0000
0000
,
0100
0000
0000
0000
,
0010
0000
0000
0000
,
0100
0000
0100
0000
,
0001
0000
0010
0000
,
0100
0000
0000
0000
,
1000
0000
0010
0000
,
0100
0000
0000
0000
,
0001
0000
1000
0000
,
0100
0000
0000
0000
,
0010
0000
0100
0000
,
0000
0000
0000
0000
,
0001
0000
0000
0000
,
1000
0000
0000
0000
,
0001
0000
0000
0000
,
0000
0000
0100
0000
,
0010
0000
0000
0000
,
0000
0000
0000
0000
;

//---------------dance-single - ----------------
#NOTES:
     dance-single:
     :
     Easy:
     2:
     0.100,0.165,0.000,0.021,0.000:
0000
0000
0000
0000
,
0000
0000
0000
0000
,
0000
0000
0000
0000
,
0001
0000
0000
0000
,
0100
0000
0000
0000
,
1000
0000
0000
0000
,
0100
0000
0000
0000
,
0001
0000
0000
0000
,
0000
0000
0000
0000
,
1000
0000
0000
0000
,
0010
0000
0000
0000
,
0001
0000
0000
0000
,
0010
0000
0000
0000
,
1000
0000
0000
0000
,
0001
0000
0000
0000
,
0100
0000
0000
0000
,
0000
0000
0000
0000
,
1000
0000
0100
0000
,
0010
0000
0000
0000
,
0001
0000
0100
0000
,
0010
0000
0000
0000
,
1000
0000
0000
0000
,
0001
0000
0000
0000
,
1000
0000
0000
0000
,
1000
0000
0000
0000
,
0010
0000
0100
0000
,
0010
0000
0000
0000
,
0100
0000
0100
0000
,
0000
0000
0000
0000
,
1000
0000
0000
0000
,
0000
0000
0000
0000
,
0001
0000
0000
0000
,
0000
0000
0000
0000
,
1000
0000
0100
0000
,
0010
0000
0000
0000
,
0001
0000
1000
0000
,
0001
0000
0000
0000
,
0010
0000
0000
0000
,
0100
0000
0000
0000
,
0010
0000
0000
0000
,
0020
0000
0000
0030
,
0001
0000
0000
0000
,
1000
0000
0000
0000
,
0001
0000
0000
0000
,
1000
0000
0000
0000
,
0010
0000
0000
0000
,
0100
0000
0000
0000
,
0010
0000
0000
0000
,
0100
0000
0100
0000
,
0001
0000
0010
0000
,
0100
0000
0000
0000
,
1000
0000
0010
0000
,
0100
0000
0000
0000
,
0001
0000
1000
0000
,
0100
0000
0000
0000
,
0010
0000
0100
0000
,
0000
0000
0000
0000
,
0001
0000
0000
0000
,
1000
0000
0000
0000
,
0001
0000
0000
0000
,
0000
0000
0100
0000
,
0020
0000
0000
0000
,
0000
0000
0030
0000
,
0000
0000
0000
0000
;

//---------------dance-single - ----------------
#NOTES:
     dance-single:
     :
     Medium:
     5:
     0.190,0.297,0.000,0.095,0.000:
0000
0000
0000
0000
,
0000
0000
0000
0000
,
0000
0000
0000
0000
,
0002
0000
0000
0003
,
2000
0000
0000
3000
,
0020
0030
0000
0000
,
0200
0300
0000
0000
,
0020
0000
0000
0030
,
0000
0000
0000
0000
,
1000
0000
0001
0000
,
0010
0000
0000
0000
,
0001
0000
1000
0000
,
0010
0000
0000
0000
,
0100
0000
0000
0000
,
0001
0000
0000
0000
,
1000
0000
0000
0000
,
0000
0000
0000
0000
,
1000
0100
0010
0000
,
0001
0100
0010
0000
,
1000
0100
0001
0000
,
1000
0010
0001
0000
,
1000
0000
0100
0000
,
0001
0000
0010
0000
,
1000
0000
0100
0000
,
0001
0000
0010
0000
,
1000
0010
0100
0000
,
0001
0010
0100
0000
,
1000
0000
1000
0000
,
1000
0000
0001
0000
,
0100
0010
1000
0000
,
0100
0010
0001
0000
,
0100
0010
0100
0010
,
0000
0000
0000
0000
,
1000
0001
0100
0000
,
0001
1000
0100
0000
,
0001
0000
0010
0000
,
0100
0000
0000
0000
,
1000
0001
0100
0000
,
0001
1000
0100
0000
,
0001
0000
1000
0000
,
0020
0000
0000
0030
,
0100
0000
0000
0000
,
0100
0000
0000
0000
,
0010
0000
0000
0000
,
0010
0000
0000
0000
,
1000
0000
0000
0000
,
0001
0000
0000
0000
,
1000
0000
0000
0000
,
0010
0000
0100
0000
,
0001
1000
0100
0010
,
0001
0100
0010
1000
,
0001
0100
1000
0100
,
0001
0010
1000
0010
,
0100
0001
0010
0100
,
1000
0010
0100
0001
,
1000
0100
0001
0100
,
1000
0000
0001
0000
,
0020
0000
0000
0030
,
0100
0000
1000
0000
,
0002
0000
0000
0003
,
0000
0000
0100
0000
,
0020
0000
0000
0000
,
0000
0000
0030
0000
,
0000
0000
0000
0000
;

//---------------dance-single - ----------------
#NOTES:
     dance-single:
     :
     Hard:
     11:
     0.329,0.562,0.000,0.222,0.005:
0000
0000
0000
0000
,
0000
0000
0000
0000
,
0000
0000
0000
0000
,
0001
0000
1000
0000
,
0200
0000
0000
0000
,
2000
0000
0000
0300
,
0020
0000
0000
3000
,
0200
0000
0000
0030
,
0000
0000
0000
0300
,
0001
0000
1000
0000
,
0200
0000
0000
0300
,
1000
0000
0001
0000
,
0200
0000
0000
0300
,
0020
0000
0000
0000
,
2000
0000
0000
0030
,
0002
0000
0000
3000
,
0000
0000
0000
0003
,
1000
0000
0001
0000
0100
0000
0010
1000
,
0100
0000
0010
0000
0001
0000
0100
0010
,
1000
0000
0001
0000
0010
0000
0100
1000
,
0001
0000
0100
0000
0010
0000
1000
0100
,
0001
0000
1000
0000
,
0001
0000
0100
0010
,
1000
0000
0001
0000
,
1000
0000
0100
0010
,
0001
0000
1000
0000
0010
0000
0100
0001
,
0010
0000
0100
0000
1000
0000
0001
0100
,
0010
0000
1000
0000
0001
0000
0010
0100
,
1000
0000
0001
0000
0100
0000
0010
1000
,
0100
0000
0010
0001
0100
0000
0010
1000
,
0001
0000
0010
0100
1000
0000
0001
0100
,
1000
0100
0001
0010
1000
0010
0001
1000
,
0200
0000
0000
0300
,
0020
0000
0030
0001
,
0200
0000
0300
1000
,
0001
0000
0000
0010
0000
0000
0100
0000
,
2000
0000
0000
3000
,
0002
0000
0003
0100
,
2000
0000
3000
0100
,
0020
0000
0000
0000
,
0200
0000
0000
0330
,
1000
0000
0001
0010
,
0100
0000
1000
0010
,
0100
0000
0001
0010
,
0100
0000
1000
0010
,
0100
0000
0001
1000
,
0100
0000
1000
0001
,
0100
0000
0020
0000
,
0000
0000
0000
0030
,
1000
0100
0001
0100
1000
0100
0001
0100
,
1000
0010
0001
0010
1000
0010
0001
0010
,
1000
0100
0010
0001
0100
0001
0010
0100
,
1000
0010
0100
0001
0010
0001
0100
0010
,
1000
0100
0001
0100
1000
0010
0001
0010
,
1000
0100
0010
0001
0100
0001
0010
0100
,
1000
0001
0100
0010
1000
0100
0010
0001
,
1000
0010
0100
0001
0010
0100
1000
0001
,
0200
0000
0000
0300
,
0010
0000
1000
0000
,
0002
0000
0000
0003
,
0000
0000
0000
0000
0010
0000
0000
0000
0100
0000
0000
1000
0000
0000
0010
0000
,
0100
0000
0001
0020
0000
0000
0000
0000
,
1000
0000
0031
0000
,
0000
0000
0000
0000
;

//---------------dance-double - ----------------
#NOTES:
     dance-double:
     :
     Easy:
     3:
     0.140,0.231,0.000,0.000,0.000: // measure 1
00000000
00000000
00000000
00000000
,  // measure 2
00000000
00000000
00000000
00000000
,  // measure 3
00000000
00000000
00000000
00000000
,  // measure 4
00001000
00000000
00000000
00000000
,  // measure 5
00010000
00000000
00000000
00000000
,  // measure 6
00100000
00000000
00000000
00000000
,  // measure 7
10000000
00000000
00000000
00000000
,  // measure 8
01000000
00000000
00000000
00000000
,  // measure 9
00000000
00000000
00000000
00000000
,  // measure 10
00010000
00000000
00000000
00000000
,  // measure 11
00001000
00000000
00000000
00000000
,  // measure 12
00010000
00000000
00000000
00000000
,  // measure 13
00000010
00000000
00000000
00000000
,  // measure 14
00001000
00000000
00000000
00000000
,  // measure 15
00000100
00000000
00000000
00000000
,  // measure 16
00000010
00000000
00000000
00000000
,  // measure 17
00000000
00000000
00000000
00000000
,  // measure 18
00000001
00000000
00001000
00000100
,  // measure 19
00000010
00000000
00000001
00000100
,  // measure 20
00000010
00000000
00001000
00000100
,  // measure 21
00010000
00000000
00001000
00100000
,  // measure 22
00010000
00000000
10000000
00000000
,  // measure 23
01000000
00000000
00010000
00000000
,  // measure 24
01000000
00000000
10000000
00000000
,  // measure 25
01000000
00000000
00100000
00000000
,  // measure 26
00001000
00010000
00000100
00000000
,  // measure 27
00010000
00001000
00100000
00000000
,  // measure 28
00001000
00000000
00010000
00000000
,  // measure 29
00000000
00000000
00000000
00000000
,  // measure 30
00000010
00000000
00000000
00000000
,  // measure 31
00000000
00000000
00000000
00000000
,  // measure 32
00000100
00000000
00000000
00000000
,  // measure 33
00000000
00000000
00000000
00000000
,  // measure 34
00000001
00000000
00001000
00000000
,  // measure 35
00000100
00000000
00000000
00000000
,  // measure 36
00000001
00000000
00000100
00001000
,  // measure 37
00010000
00000000
00000000
00000000
,  // measure 38
00100000
00000000
10000000
00000000
,  // measure 39
01000000
00000000
00100000
00000000
,  // measure 40
00010000
00000000
00000000
00000000
,  // measure 41
10000000
00000000
00000000
00000000
,  // measure 42
01000000
00000000
00000000
00000000
,  // measure 43
00010000
00000000
00000000
00000000
,  // measure 44
00001000
00000000
00000000
00000000
,  // measure 45
00000010
00000000
00000000
00000000
,  // measure 46
00000000
00000001
00000000
00001000
,  // measure 47
00000000
00000100
00000000
00000010
,  // measure 48
00000000
00000001
00000000
00001000
,  // measure 49
00000000
00000010
00000000
00000100
,  // measure 50
00001000
00010000
00000000
01000000
,  // measure 51
00000000
00010000
00000000
00001000
,  // measure 52
00010000
00001000
00000000
00000100
,  // measure 53
00000000
00001000
00000000
00010000
,  // measure 54
00100000
10000000
00000000
01000000
,  // measure 55
00000000
00010000
00000000
00001000
,  // measure 56
00000100
00000000
00000001
00000000
,  // measure 57
00001000
00000000
00000000
00000000
,  // measure 58
00000100
00000000
00000000
00000000
,  // measure 59
00000010
00000000
00000001
00000000
,  // measure 60
00000100
00000000
00000000
00000000
,  // measure 61
00000000
00000000
00001000
00000000
,  // measure 62
00010000
00000000
00000000
00000000
,  // measure 63
00100000
00000000
01000000
00000000
;

//---------------dance-double - ----------------
#NOTES:
     dance-double:
     :
     Medium:
     6:
     0.279,0.297,0.000,0.085,0.005: // measure 1
00000000
00000000
00000000
00000000
,  // measure 2
00000000
00000000
00000000
00000000
,  // measure 3
00000000
00000000
00000000
00000000
,  // measure 4
00020000
00000000
00000000
00030000
,  // measure 5
00002000
00000000
00000000
00003000
,  // measure 6
00000002
00000003
00000000
00000000
,  // measure 7
00002000
00003000
00000000
00000000
,  // measure 8
00000200
00000000
00000000
00000300
,  // measure 9
00000000
00000000
00000000
00000000
,  // measure 10
00000010
00000000
00000000
00000000
,  // measure 11
00000001
00000000
00000000
00000000
,  // measure 12
00001000
00000000
00000000
00000000
,  // measure 13
00000100
00000000
00000000
00000000
,  // measure 14
00010000
00000000
00000000
00000000
,  // measure 15
00001000
00000000
00000000
00000000
,  // measure 16
00100000
00000000
00000000
00000000
,  // measure 17
00000000
00000000
00000000
00000000
,  // measure 18
00010000
10000000
01000000
00010000
,  // measure 19
10000000
00010000
01000000
10000000
,  // measure 20
00010000
00100000
01000000
00010000
,  // measure 21
00001000
00000100
00000001
00000010
,  // measure 22
00001000
00000001
00000100
00001000
,  // measure 23
00000001
00001000
00000100
00000001
,  // measure 24
00001000
00000010
00000100
00001000
,  // measure 25
00010000
01000000
10000000
00100000
,  // measure 26
10000000
01000000
10000000
00100000
,  // measure 27
10000000
01000000
00100000
00010000
,  // measure 28
01000000
00010000
00100000
01000000
,  // measure 29
10000000
00010000
01000000
00010000
,  // measure 30
10000000
01000000
00100000
00010000
,  // measure 31
01000000
00001000
00010000
00000010
,  // measure 32
00000100
00001000
00010000
01000000
,  // measure 33
00000000
00000000
00000000
00000000
,  // measure 34
00000000
10000000
00000000
00100000
00000000
00010000
00000000
00100000
,  // measure 35
00000000
10000000
00000000
00100000
00000000
00010000
00000000
00100000
,  // measure 36
00000000
10000000
00000000
01000000
00000000
00010000
00000000
01000000
,  // measure 37
00000000
10000000
00000000
01000000
00000000
00010000
00000000
00001000
,  // measure 38
00000000
00000100
00000000
00000001
00000000
00001000
00000000
00000100
,  // measure 39
00000000
00000001
00000000
00000010
00000000
00001000
00000000
00000010
,  // measure 40
00000000
00000100
00000000
00000001
00000000
00000010
00000000
00000100
,  // measure 41
00000000
00000000
00000000
00000000
,  // measure 42
00010000
00001000
00010000
00000010
,  // measure 43
00001000
00000100
00010000
00001000
,  // measure 44
00001000
00010000
00001000
00100000
,  // measure 45
00010000
01000000
00001000
00010000
,  // measure 46
00010000
00100000
10000000
01000000
,  // measure 47
00010000
00001000
00000100
00000001
,  // measure 48
00001000
00000100
00000001
00000100
,  // measure 49
00001000
00000010
00000001
00000010
,  // measure 50
00000100
00010000
00001000
00100000
,  // measure 51
00001000
00010000
00000100
00001000
,  // measure 52
00010000
00001000
00100000
00010000
,  // measure 53
00001000
00010000
00000100
00000010
,  // measure 54
00000001
00000100
00001000
00000100
,  // measure 55
00000010
00000001
00000100
00001000
,  // measure 56
00010000
00100000
10000000
01000000
,  // measure 57
00010000
00001000
00000100
00000001
,  // measure 58
00002000
00000000
00003000
00000100
,  // measure 59
00010000
00000000
00000000
00001000
00000000
00000000
00100000
00000000
,  // measure 60
02000000
00000000
00000000
03000000
,  // measure 61
00000000
00000000
00000000
00000000
10000000
00000000
00000000
00000000
00100000
00000000
00000000
00010000
00000000
00000000
00001000
00000000
,  // measure 62
00000010
00000000
00000001
00000200
00000000
00000000
00000000
00000000
,  // measure 63
00000000
00000000
00000300
00000000
;

//---------------dance-double - ----------------
#NOTES:
     dance-double:
     :
     Hard:
     8:
     0.356,0.396,0.190,0.053,0.005: // measure 1
00000000
00000000
00000000
00000000
,  // measure 2
00000000
00000000
00000000
00000000
,  // measure 3
00000000
00000000
00000000
00000000
,  // measure 4
01000000
00000000
00000000
00011000
00000000
00000000
00000000
00000000
,  // measure 5
00000010
00000000
00000000
00001001
00000000
00000000
00000000
00000000
,  // measure 6
00000100
00000000
00000000
00011000
00000000
00000000
00000000
00000000
,  // measure 7
00100000
00000000
00000000
10010000
00000000
00000000
00000000
00000000
,  // measure 8
01000000
00000000
00000000
00011000
00000000
00000000
00000000
00000000
,  // measure 9
00000010
00000100
00000001
00001000
,  // measure 10
00000100
00000000
00000000
00011000
00000000
00000000
00000000
00000000
,  // measure 11
00100000
00000000
00000000
00000000
,  // measure 12
01000000
00000000
00000000
10010000
00000000
00000000
00000000
00000000
,  // measure 13
00100000
00000000
00000000
00011000
00000000
00000000
00000100
00000000
,  // measure 14
00000000
00000010
00000000
00000010
,  // measure 15
00000000
00000001
00000000
00000001
,  // measure 16
00000000
00000100
00000000
00000100
,  // measure 17
00000000
00001000
00000000
00010000
,  // measure 18
00100000
10000000
01000000
00100000
,  // measure 19
00010000
00000000
01000000
00000000
10000000
00000000
01000000
00100000
,  // measure 20
01000000
00010000
00001000
00000100
,  // measure 21
00000001
00000010
00000000
00000100
00001000
00000000
00010000
00001000
,  // measure 22
00010000
00000100
00000010
00000001
,  // measure 23
00000100
00000000
00001000
00000000
00010000
00000000
01000000
00100000
,  // measure 24
01000000
00010000
00001000
00000100
,  // measure 25
00000001
00000010
00000000
00000100
00001000
00000000
00010000
00001000
,  // measure 26
00010000
01000000
10000000
00010000
,  // measure 27
01000000
00001000
00010000
00000010
,  // measure 28
00001000
00000000
00000100
00010000
00000100
00000000
00001000
00000010
,  // measure 29
00001000
00000000
00000100
00010000
00001000
00010000
00000010
00000000
,  // measure 30
00001000
00000000
00000100
00000010
00000000
00000001
00000100
00000000
,  // measure 31
00001000
00010000
00000000
01000000
10000000
00000000
00010000
00000000
,  // measure 32
01000000
00100000
10000000
00010000
,  // measure 33
00000000
00000000
00000000
00000000
,  // measure 34
10000000
00000000
01000000
00000000
00010000
00000000
01000000
10000000
,  // measure 35
01000000
00010000
10000000
01100000
,  // measure 36
00001000
00000000
00010000
00000000
00000010
00000000
00000100
00000001
,  // measure 37
00000100
00001000
00000001
00000110
,  // measure 38
00001000
00000000
00000001
00000000
00000100
00000000
00001000
00010000
,  // measure 39
00001000
00100000
01000000
10010000
,  // measure 40
01000000
00010000
00001000
00000100
,  // measure 41
00001001
00000000
00000000
00000000
,  // measure 42
00000000
00000010
00000000
00000100
00000000
00001000
00000000
00000010
,  // measure 43
00000000
00010000
00000000
00001000
00000000
00000010
00000000
00000001
,  // measure 44
00000000
00000100
00000000
00001000
00000000
00010000
00000000
00000100
,  // measure 45
00000000
00000010
00000000
00000001
00000000
00001000
00000000
00000010
,  // measure 46
00000100
00000000
00000000
00001001
00000000
00000000
00010100
00000000
,  // measure 47
00000000
00101000
00000000
00000000
00010000
00000000
10000000
00000000
,  // measure 48
01000000
00000000
00000000
00110000
00000000
00000000
00011000
00000000
,  // measure 49
00000000
00001010
00000000
00000000
00000100
00000000
00000001
00000000
,  // measure 50
00001000
00000100
00000010
00000001
,  // measure 51
00000100
00000000
00001000
00000000
00010000
00000000
01000000
10000000
,  // measure 52
00100000
01000000
00001000
00010000
,  // measure 53
00000010
00000001
00000000
00001000
00000100
00000000
00000010
00000001
,  // measure 54
00000100
00000000
00001000
00000000
00010000
00000000
01000000
10000000
,  // measure 55
00100000
00000000
00010000
00001000
00000010
00000000
00000001
00000000
,  // measure 56
00001000
00000010
00000100
00000001
,  // measure 57
00001000
00000000
00000100
00010000
00000000
00001000
00100000
00000000
,  // measure 58
02000000
00000000
00000000
03000000
,  // measure 59
20000000
30000000
00020000
00030000
,  // measure 60
02000000
00000000
00000000
03000000
,  // measure 61
00000000
00000000
00000000
00000000
00001000
00000000
00000000
00000000
00010000
00000000
00000000
00000010
00000000
00000000
00001000
00000000
,  // measure 62
00000100
00000000
00010000
00002000
00000000
00000000
00000000
00000000
,  // measure 63
00100000
00000000
01003000
00000000
;

//---------------dance-single - ----------------
#NOTES:
     dance-single:
     :
     Challenge:
     12:
     0.566,0.566,0.074,0.317,0.005:
0000
0000
0000
0000
,
0000
0000
0000
0000
,
0000
0000
0000
0000
,
0001
1000
0010
0200
0000
0000
0000
0300
,
0010
1000
0100
0020
0000
0000
0000
0030
,
1000
0100
0010
0002
0000
0000
0000
0003
,
0100
0010
1000
0002
0000
0000
0000
0003
,
0010
0100
1000
0002
0000
0000
0000
0003
,
1000
0100
0010
0001
0100
0010
1000
0001
,
1000
0100
0010
0002
0000
0000
0000
0003
,
0100
0010
1000
0002
0000
0000
0000
0003
,
0010
0001
0100
2000
0000
0000
0000
3000
,
0100
0001
0010
0200
0000
0000
0000
1300
,
0001
0000
0100
0010
0000
0100
0001
0010
,
0100
0000
1000
0010
0000
0100
0001
1000
,
0010
0100
0001
0010
0001
0000
0100
0010
,
1000
0000
0001
0010
0100
0000
0001
0000
,
1000
0100
0010
0000
0001
0100
1000
0000
,
0100
0010
1000
0000
0100
0001
0100
0010
,
1000
0000
0010
0001
1000
0000
0010
0100
,
0001
0000
0100
1000
0100
0010
1000
0100
,
0010
0000
1000
0010
0001
0000
0001
0100
,
1000
0000
1000
0100
0010
1000
0100
0010
,
0001
0000
0001
0010
0100
0000
0001
0100
,
1000
0000
1000
0010
0100
0001
1000
0010
,
0100
0000
0001
0010
0001
0000
0010
0001
,
1000
0000
1000
0010
0100
0000
0001
0010
,
0100
0000
0001
0100
2000
0000
3010
0000
,
0001
0100
0010
0000
0100
0001
0010
0100
,
1000
0000
0010
0100
0001
0000
1000
0010
,
0001
0010
1000
0100
0001
0100
0010
1000
,
0010
0001
1000
0010
0100
0001
1000
0010
,
0200
0000
0000
0300
,
0001
0100
0010
0100
1000
0100
0010
0100
,
0001
0010
0100
0010
1000
0010
0100
0010
,
0001
1000
0100
1000
0010
1000
0001
1000
,
0100
0001
0100
0010
0100
1000
0100
0010
,
0001
0100
0001
0010
0001
1000
0001
0100
,
0010
1000
0100
0001
0100
1000
0010
0100
,
0001
0010
1000
0010
0001
0100
0010
1000
,
0200
0000
0000
0300
,
2000
3200
0320
0032
,
0000
0203
0000
0310
,
1002
0000
0203
0000
0320
0000
1030
0002
,
0000
0000
0010
0013
,
1001
0000
1000
0010
0000
1000
0100
0000
,
0010
0001
0000
0100
0001
0000
1001
0000
,
0101
0000
0001
1000
0000
0010
1000
0000
,
0100
1000
0000
0010
1000
0000
0001
0010
,
0100
1000
0010
0100
0001
0010
1000
0010
,
0001
1000
0100
0001
0100
1000
0010
0001
,
1000
0100
0001
0010
0100
0010
1000
0010
,
0001
1000
0010
0100
0010
0001
0010
0100
,
0010
1000
0100
0010
1000
0010
0001
1000
,
0100
0010
1000
0010
0001
1000
0010
0100
,
0001
0100
1000
0100
0010
1000
0100
0010
,
1000
0010
0001
1000
0010
0100
0001
1000
,
0020
0000
0000
0130
,
0002
0000
0000
2003
0000
0000
3010
0000
,
0202
0000
0000
0000
,
0303
0000
0000
0000
1100
0000
0000
0000
0001
0000
0000
0010
0000
0000
0100
0000
,
2000
0000
3010
0020
0000
0000
0000
0000
,
0100
0030
2002
0000
,
3003
0000
0000
0000
;

//---------------dance-double - ----------------
#NOTES:
     dance-double:
     :
     Challenge:
     13:
     0.581,0.595,0.243,0.275,0.005: // measure 1
00000000
00000000
00000000
00000000
,  // measure 2
00000000
00000000
00000000
00000000
,  // measure 3
00000000
00000000
00000000
00000000
,  // measure 4
10000000
01000000
00100000
00020000
00000000
00000000
00000000
00030000
,  // measure 5
00001000
00000100
00000010
00000002
00000000
00000000
00000000
00000003
,  // measure 6
00000100
00000010
00001000
00020000
00000000
00000000
00000000
00030000
,  // measure 7
01000000
00100000
10000000
00020000
00000000
00000000
00000000
00030000
,  // measure 8
00010000
00000010
00001000
00000002
00000000
00000000
00000000
00000003
,  // measure 9
00000010
00000001
00001000
00000010
00010000
00001000
01000000
00100000
,  // measure 10
10000000
00010000
00100000
00002000
00000000
00000000
00000000
00003000
,  // measure 11
00010000
00000100
00000010
00000002
00000000
00000000
00000000
00000003
,  // measure 12
00001000
00000010
00010000
00002000
00000000
00000000
00000000
00003000
,  // measure 13
01000000
00100000
10000000
00020000
00000000
00000000
00000000
00030000
,  // measure 14
00100000
00000000
00001000
00020000
00000000
00030010
00001000
00000001
,  // measure 15
00000020
00000000
00000130
00002000
00000000
00003010
00010000
00001000
,  // measure 16
00100000
00010000
01000000
00100000
10000000
00001000
00010000
00000100
,  // measure 17
00001000
00000010
00001000
00000001
00000100
00000000
00001000
00000000
,  // measure 18
00000010
00010000
00001000
00000000
10000000
01000000
00100000
00000000
,  // measure 19
10000000
00010000
00100000
00000000
00001000
00010000
00000010
00001000
,  // measure 20
00000001
00000010
00000100
00000000
00001000
01000000
00010000
00000000
,  // measure 21
00100000
01000000
10000000
00000000
01000000
00010000
00100000
00001000
,  // measure 22
00010000
00000010
00001000
00000000
00001000
00000100
00000001
00000000
,  // measure 23
00000010
00000100
00001000
00000000
00000010
00010000
00100000
10000000
,  // measure 24
00100000
01000000
00010000
00000000
00001000
00000100
00000010
00000000
,  // measure 25
00000001
00000100
00001000
00000000
00000010
00010000
00001000
00010000
,  // measure 26
00000010
00001000
00010000
00000000
00000100
00001000
00000010
00000000
,  // measure 27
00000001
00000010
00000100
00000000
00001000
00010000
00100000
10000000
,  // measure 28
01000000
10000000
01000000
00000000
00100000
01000000
00010000
00000000
,  // measure 29
10000000
00001000
00010000
00000000
00000010
00001000
00000001
00000001
,  // measure 30
00000010
00000001
00000100
00000000
00001000
00010000
00100000
00000000
,  // measure 31
10000000
01000000
00100000
00000000
00010000
00001000
00000100
00000100
,  // measure 32
00000010
00000001
00000100
00000000
00001000
00010000
01000000
10000000
,  // measure 33
02000000
00000000
00000000
03000000
,  // measure 34
10000000
01000000
10000000
00100000
10000000
00010000
10000000
01000000
,  // measure 35
01000000
00100000
01000000
00010000
01000000
10000000
01000000
00100000
,  // measure 36
00100000
00010000
00100000
00001000
00100000
01000000
00100000
00010000
,  // measure 37
00010000
00100000
00010000
01000000
00010000
00001000
00010000
00001000
,  // measure 38
00001000
00000100
00001000
00010000
00001000
00000001
00001000
00000100
,  // measure 39
00000100
00000010
00000100
00000001
00000100
00001000
00000100
00000010
,  // measure 40
00000010
00000001
00000010
00000100
00000010
00001000
00000010
00000001
,  // measure 41
00000001
00001000
00000001
00000100
00000001
00000010
00000001
00000100
,  // measure 42
00000110
00011000
00110000
22000000
,  // measure 43
33000000
02020000
03030000
00011000
,  // measure 44
00001100
00000000
00000011
00000000
00001001
00000000
00011000
00220000
,  // measure 45
00000000
00000000
00330000
10000000
,  // measure 46
10100000
00000000
00000000
01010000
00000000
00000000
00011000
00000000
,  // measure 47
00000000
00000110
00000000
00000000
00001010
00000000
00010100
00000000
,  // measure 48
00101000
00000000
00000000
00011000
00000000
00000000
11000000
00000000
,  // measure 49
00000000
00110000
00000000
00000000
10100000
00000000
00110000
00000000
,  // measure 50
10000000
01000000
00010000
00001000
00000010
00000001
00001000
00000010
,  // measure 51
00001000
00100000
00010000
10000000
01000000
00100000
10000000
00010000
,  // measure 52
00100000
00001000
00010000
00000100
00000010
00001000
00010000
00001000
,  // measure 53
01000000
00010000
01000000
00010000
10000000
00001000
00100000
00000010
,  // measure 54
00010000
00000001
00001000
00000010
00000100
00001000
00010000
00100000
,  // measure 55
01000000
10000000
01000000
00010000
00100000
00001000
00010000
00001000
,  // measure 56
00010000
00000100
00001000
00000001
00000010
00000001
00001000
00000010
,  // measure 57
00001000
00010000
01000000
10000000
01000000
00010000
00100000
00010000
,  // measure 58
00002000
00000000
00000000
00003010
,  // measure 59
00002000
00000000
00000000
00003002
00000000
00000000
00000023
00000000
,  // measure 60
00000200
00000000
00000030
00000000
,  // measure 61
00000000
00000000
00000000
00000000
00001300
00000000
00000000
00000000
00010000
00000000
00000000
10000000
00000000
00000000
00100000
00000000
,  // measure 62
02000000
00000000
03001000
00020000
00000000
00000000
00000000
00000000
,  // measure 63
00000010
00000000
00030001
00000000
;
