#TITLE:Try me out / Baby baby;
#SUBTITLE:(DvF StepMania Mix);
#ARTIST:Corona;
#TITLETRANSLIT:;
#SUBTITLETRANSLIT:;
#ARTISTTRANSLIT:;
#GENRE:Techno;
#CREDIT:DvF;
#BANNER:corona_trymebaby_dvf - banner.jpg;
#BACKGROUND:corona_trymebaby_dvf - BG.jpg;
#LYRICSPATH:;
#CDTITLE:;
#MUSIC:Try me out - Baby baby.mp3;
#OFFSET:0.000000;
#SAMPLESTART:100.045609;
#SAMPLELENGTH:12.000000;
#SELECTABLE:YES;
#BPMS:0.000000=130.990005
,168.000000=132.979996
;
#STOPS:
;
#BGCHANGES:;
#KEYSOUNDS:;
#ATTACKS:;

//---------------dance-single - ----------------
#NOTES:
     dance-single:
     :
     Beginner:
     4:
     0.327547,0.355165,0.273948,0.190573,0.000000,307.000000,46.000000,32.000000,0.000000,6.000000,0.000000,0.327547,0.355165,0.273948,0.190573,0.000000,307.000000,46.000000,32.000000,0.000000,6.000000,0.000000:
0000
0000
1001
0010
,
0010
1001
0100
0100
,
1001
0100
0010
1000
,
0100
0010
0010
0010
,
0100
1000
0000
0001
,
0000
1000
0010
1100
,
0000
0001
0010
0011
,
0011
1000
1000
1000
,
1001
0010
0100
0010
,
0100
0000
0001
0001
,
0001
0000
0000
1000
,
1000
1000
0000
0000
,
0100
0010
0100
0010
,
0000
0110
0000
0001
,
1000
0001
1000
0001
,
1000
0001
1000
0001
,
1000
0110
0001
1000
,
0001
1000
0001
1000
,
0001
0001
0010
0010
,
0010
0100
0100
0010
,
0100
1000
1000
0100
,
1000
0100
1000
0100
,
0010
1000
0010
1000
,
0100
0001
0100
0001
,
0100
0001
0010
1000
,
0100
0010
0000
0000
,
1001
0100
0010
0010
,
0100
1001
0100
0100
,
0010
0002
2003
0100
,
0010
3001
0002
0010
,
1000
0103
2000
0000
,
0010
0001
3100
0100
,
0010
0001
1000
0110
,
0001
2000
3000
0000
,
1001
0010
0100
0010
,
1001
0010
0100
0010
,
0000
1000
0100
0010
,
0001
1000
1000
1000
,
1001
1000
0010
0100
,
0010
0100
0001
1000
,
0010
0100
0001
1000
,
0110
0001
0001
0001
,
1001
0020
0000
0000
,
1130
0000
0011
1100
,
0010
0100
0100
0000
,
0000
0001
1000
0001
,
0010
0200
1000
1000
,
0300
0020
0001
0001
,
1030
0100
0010
1001
,
0010
0000
0220
0000
,
0330
2002
0000
3023
,
0000
0230
0000
2300
,
0000
3002
0000
0023
,
0000
0230
0000
2300
,
0000
3002
0000
2003
,
0000
3220
0000
2332
,
0000
3023
0000
0000
,
0000
0000
0000
1031
,
0010
0100
1001
0110
,
0110
0001
1000
0001
,
1100
0011
1100
0010
,
0010
0001
0100
0010
,
0011
1100
0011
0100
,
1000
0100
0110
0110
,
0001
1000
0001
1000
,
0000
0011
1100
0011
,
0000
0100
0100
0010
,
0010
1000
0001
1000
,
0010
0100
0100
0100
,
0010
0001
1000
0010
,
0010
0010
0001
1000
,
0001
0010
0010
0010
,
1000
0001
1000
0100
,
0100
0100
0010
0001
,
1000
0002
0000
0000
,
1000
0100
2003
0100
,
0010
0001
3002
0000
,
0000
1000
1000
0100
,
0100
0103
2000
0000
,
0010
0001
0100
3010
,
0000
0001
0010
0100
,
0001
0100
0000
0110
,
0000
1001
0110
0010
,
0010
0010
0001
1000
,
0100
0001
0010
0000
,
0000
1000
0001
1000
,
0010
0100
0110
0001
,
1000
0000
0100
0010
,
0100
0010
0010
0001
,
0001
1000
0001
1000
,
0001
1000
0110
2002
,
0000
0000
0000
3003
;

//---------------dance-single - ----------------
#NOTES:
     dance-single:
     :
     Easy:
     6:
     0.357324,0.409806,0.303725,0.273948,0.000000,323.000000,51.000000,46.000000,0.000000,4.000000,0.000000,0.357324,0.409806,0.303725,0.273948,0.000000,323.000000,51.000000,46.000000,0.000000,4.000000,0.000000:
0000
0000
0000
1001
0000
0000
0020
0000
,
0000
0030
1001
0000
0200
0000
0000
0000
,
0000
0300
1001
0000
0020
0000
0000
0000
,
0000
0030
1001
0000
0200
0000
0000
0000
,
0000
0300
1001
0000
0020
0000
0000
0000
,
0000
0030
1001
0000
0200
0000
0000
0000
,
0000
0310
0001
1000
,
1100
0011
0011
0011
,
0000
0000
0000
0110
0001
0000
0001
0000
,
1000
0110
0110
0110
,
0001
1000
0110
0001
,
1000
0100
0010
0001
,
0110
1000
1000
1000
,
0110
0001
0001
0001
,
0110
1000
1000
1000
,
0011
1100
1100
1100
,
0010
0100
0010
0001
,
0000
1000
1000
1000
,
0001
1001
0010
0100
,
0010
0100
0010
0100
,
0010
1000
0100
1000
,
0100
1000
0010
0001
,
0010
0001
1000
0100
,
0001
0010
0001
0010
,
1000
0100
1000
0100
,
0010
0001
1000
0100
,
0010
0002
1000
0010
,
0100
1000
0100
0010
,
1000
0100
0010
0010
,
0100
0010
0100
1000
,
2003
0010
0100
0010
,
0000
0100
0010
0000
0001
0000
0000
0100
,
0010
0001
0100
0010
,
0001
0000
0001
0000
0010
0100
0000
0000
,
3000
0000
0001
0000
1000
0000
0010
0100
,
0000
0011
0000
1000
0100
0000
0100
0000
,
0011
0000
1000
0000
0100
0010
0001
0000
,
0100
0010
1000
0001
,
1001
1000
0010
0100
0010
0000
0001
0000
,
0001
0000
1000
0000
1000
0000
0100
0010
,
0001
1000
0100
0000
0010
0000
0001
1000
,
0100
1001
1001
2002
,
0000
3003
0220
0000
0000
0000
0000
0000
,
0000
0330
1001
0000
1000
0001
0000
1001
,
0000
0110
0002
0000
0000
1000
0000
1000
,
0000
1000
0003
0020
0000
0100
0000
0100
,
0000
1000
0000
0001
0000
1000
0000
0230
,
0000
0000
0000
0010
0000
1000
0000
0001
,
0000
1000
0000
0010
0000
0001
0300
0100
,
0000
0100
0000
0010
0000
1000
0100
0000
,
0000
0011
0000
0020
0000
0000
0000
0100
,
0000
0230
0000
1000
,
0000
0000
2000
0300
0000
0000
0001
0000
,
0000
0010
0000
0020
3000
0000
0000
0001
,
0000
0000
0000
0100
0000
0000
0032
0000
,
0000
0000
0000
2003
0000
0000
0000
3002
,
0000
0000
2003
0000
0000
0000
0000
3220
,
0000
0000
0330
2002
3003
0000
0110
0000
,
0000
1001
0001
1000
0220
0000
0000
0000
,
0000
0330
0000
0001
0000
0010
0100
0000
,
0000
1000
0100
1000
0010
0000
0000
0000
,
0000
0011
1100
0011
,
0100
1000
0100
1000
0000
0010
0000
0001
,
0000
1000
0000
0000
0110
0000
0001
0000
,
1000
0100
0010
0001
,
0000
0000
0100
1000
0010
0001
0000
1100
,
0000
0010
0000
0001
1000
0000
0000
0100
,
0000
0010
0000
0001
1000
0001
0000
0000
,
0000
0000
0000
1000
0000
0100
0000
0010
,
0000
0001
0000
1000
0000
0100
0020
0000
,
0000
0000
0030
0000
0001
1000
0000
0010
,
0000
0100
0010
0001
0000
1000
0100
0000
,
0010
0000
0010
0000
0100
0000
0000
0001
,
1000
0020
0030
0100
,
0000
0000
0002
2000
0000
0000
0000
0000
,
0013
0000
0200
0000
0000
3000
0020
0000
,
0000
0332
0000
0203
,
0000
0300
0010
0000
0000
1000
0000
0001
,
0100
0010
0002
0000
,
2000
0003
0020
0000
,
3200
0030
0000
0000
0000
0000
0302
0000
,
0000
0000
0003
2000
0000
0000
0020
0000
,
3030
0011
1100
0011
,
0010
0010
0010
0100
,
0100
0100
0010
0100
,
0010
0000
0100
1000
0011
0000
1100
0000
,
0010
0100
0010
0010
,
0010
0000
0000
0001
0000
1000
0000
0100
,
0000
0010
1000
0010
0001
0000
0000
1000
,
0000
0100
0000
0010
0001
0000
1100
0000
,
0000
0010
0000
0010
0000
0001
2002
0000
,
0000
0000
0000
3003
;

//---------------dance-single - ----------------
#NOTES:
     dance-single:
     :
     Medium:
     4:
     0.386250,0.437126,0.351368,0.321591,0.571718,341.000000,59.000000,54.000000,0.000000,0.000000,0.000000,0.386250,0.437126,0.351368,0.321591,0.571718,341.000000,59.000000,54.000000,0.000000,0.000000,0.000000:
// measure 0
0000
0000
0000
2002
0000
0000
0000
0000
0000
0000
0000
0000
0000
0003
3000
0000
,  // measure 1
0022
0000
0000
0000
0000
0000
0000
0000
0000
0000
0000
0000
0033
2200
0000
0000
,  // measure 2
0000
0000
0000
0000
0000
0000
0000
0000
3300
0020
0002
0000
0000
0000
0000
0000
,  // measure 3
0000
0000
0000
0000
0000
0000
0000
0030
0003
0000
0000
0000
0000
1100
0000
0000
,  // measure 4
0000
0011
0000
0000
0200
2000
0000
0000
0000
0000
0000
0000
0000
0000
3300
0000
,  // measure 5
0020
0002
0000
0000
0000
0000
0000
0000
0000
0000
0000
0000
0000
0033
0000
0200
,  // measure 6
2000
0000
0000
0000
0000
0000
0000
0000
0000
0000
0000
3300
0000
0022
0000
0000
,  // measure 7
0000
0000
0000
0000
0000
0000
0000
0000
0030
0003
0000
0000
1000
0000
0000
0000
,  // measure 8
0000
0100
0000
0000
0010
0000
0000
0000
0100
0000
0000
0000
0010
0000
0000
0000
,  // measure 9
1000
0101
0010
1000
,  // measure 10
0100
0000
0000
0000
0000
1100
0000
0000
0010
0000
0000
0000
0001
0000
0000
0000
,  // measure 11
0001
0101
1010
0101
,  // measure 12
0010
1000
0100
0010
,  // measure 13
0011
0000
0000
0000
1100
0000
0000
0000
0000
0010
0000
0000
0000
0010
0000
0000
,  // measure 14
0000
0010
0000
0000
0001
0000
0000
0000
1000
0000
0000
0000
0100
0000
0000
0000
,  // measure 15
0010
0000
0000
0000
0000
1000
0000
0000
0000
0100
0000
0000
0010
0000
0000
0000
,  // measure 16
0001
0000
0000
0000
0000
1000
0000
0000
1000
0000
0000
0000
1000
0000
0000
0000
,  // measure 17
1000
1000
1000
1000
,  // measure 18
0100
1000
0000
0000
0000
0010
0000
0000
0000
0001
0000
0000
0001
0000
0000
0000
,  // measure 19
0000
0001
0000
0000
0000
0001
0000
0000
0000
0001
0000
0000
0010
0000
0000
0000
,  // measure 20
0100
0001
0010
0001
,  // measure 21
0000
1000
0000
0000
0000
0001
0000
0000
0000
1000
0000
0000
0010
0000
0000
0000
,  // measure 22
0000
0000
0010
0000
0000
0100
0000
0000
0000
0010
0000
0000
0000
0001
0000
0000
,  // measure 23
0000
1000
0000
0000
0100
0000
0000
0000
0010
0000
0000
0000
1000
0000
0000
0000
,  // measure 24
0100
0000
0000
0000
0010
0000
0000
0000
0100
0010
0000
0000
0000
0010
0000
0000
,  // measure 25
0001
0100
1000
0100
,  // measure 26
0010
0000
0000
0000
0002
1000
0000
0000
1000
0000
0000
0000
1000
0000
0000
0003
,  // measure 27
0020
0000
0000
0000
0100
0000
0000
0000
0100
0000
0000
0000
0100
0030
0000
0000
,  // measure 28
0200
0000
0000
0000
0001
0000
0000
0000
0000
0001
0000
0000
0000
0001
0000
0000
,  // measure 29
0000
0010
0000
0000
0001
0000
0000
0000
0310
0000
0000
0010
1000
0000
0000
0000
,  // measure 30
0000
0001
0000
0000
0000
1000
0000
0000
0000
0100
0000
0000
0000
0010
0000
0000
,  // measure 31
0001
1000
0100
0010
,  // measure 32
0001
0000
0000
0000
0000
1000
0000
0000
0000
0100
0000
0000
0010
0000
0000
0000
,  // measure 33
1001
0010
0010
0110
,  // measure 34
0010
0000
0000
0000
0022
0000
0000
0000
0000
0000
0000
0000
0000
0033
0000
2200
,  // measure 35
0000
0000
0000
0000
0000
0000
0000
0000
0000
0000
0000
3300
0020
0002
0000
0000
,  // measure 36
0000
0000
0000
0000
0000
0000
0003
0030
1000
0000
0000
0000
0100
0000
0000
0000
,  // measure 37
0010
0000
0000
0000
0000
0001
0000
0000
0001
1000
0000
0000
0010
0000
0000
0000
,  // measure 38
1100
0000
0000
0000
0010
0000
0000
0000
0000
0001
0000
0000
0100
0000
0000
0000
,  // measure 39
1000
0000
0000
0000
0020
2000
0000
0000
0000
0000
0000
0000
0000
3030
0000
0202
,  // measure 40
0000
0000
0000
0000
0000
0000
0000
0303
0000
2020
0000
0000
0000
0000
0000
0000
,  // measure 41
3030
0101
0101
0101
,  // measure 42
0010
1000
0000
0000
0000
0200
0000
0000
0000
0000
0000
0000
1000
0000
0000
0000
,  // measure 43
0000
1000
0000
0000
0000
1000
0000
0000
0000
1000
0000
0000
0000
1000
0000
0000
,  // measure 44
0000
1000
0000
0000
0300
0020
0000
0000
0000
0001
0000
0000
0000
0001
0000
0000
,  // measure 45
0000
0001
0000
0000
0000
0001
0000
0000
0000
0001
0000
0000
0000
0001
0000
0000
,  // measure 46
0000
2030
0000
0000
0000
0100
0000
0000
0000
0000
0100
0000
0000
0000
0100
0000
,  // measure 47
0000
0000
0100
0000
0000
0000
0010
0000
0000
0000
0001
3000
0000
0000
1000
0000
,  // measure 48
0000
0000
0001
0000
0000
1000
0010
0000
0000
0000
0100
0000
0000
0000
0001
0000
,  // measure 49
0000
1000
0000
0001
1000
0001
1000
0010
,  // measure 50
0000
0100
0000
0000
0000
0002
0000
0000
0000
1000
0000
0000
0000
1000
0000
0000
,  // measure 51
0000
1000
0000
0000
0000
0000
1000
0000
0000
1000
0000
0000
0000
1000
0000
0000
,  // measure 52
0000
0000
0000
0000
0000
1000
0000
0000
0000
1000
0000
0000
0000
1000
0000
0000
,  // measure 53
0000
0000
0000
0000
0000
1000
0000
0000
0000
1000
0000
0000
0000
1000
0000
0000
,  // measure 54
0000
0000
0000
0000
0203
0000
0000
0000
0000
1000
0000
0000
0000
1000
0000
0000
,  // measure 55
0000
1000
0000
0000
0000
0010
0000
0000
0000
0010
0000
0000
0000
0010
0000
0000
,  // measure 56
0000
0010
0000
0000
0000
0001
0000
0000
0000
0001
0000
0000
0000
0001
0000
0000
,  // measure 57
0000
0001
0000
0300
0000
2002
0000
0000
0000
0000
3003
0000
0220
0000
0000
0000
,  // measure 58
0000
0000
0000
0030
0300
1001
0000
0000
0000
0110
0000
0000
0000
0001
0000
0000
,  // measure 59
0000
0001
0000
0000
0000
1000
0000
0000
0000
1000
0000
0000
0000
0110
0000
0000
,  // measure 60
0000
1001
0000
0000
0000
0110
0000
0000
0000
0110
0000
0000
0000
0110
0000
0000
,  // measure 61
0000
0110
0000
0000
0000
1010
0000
0000
0000
0101
0000
0000
0000
1010
0000
0000
,  // measure 62
0100
0000
0000
0000
0000
0100
0000
0000
0000
0001
0000
0000
0000
1000
0000
0000
,  // measure 63
0000
0001
0000
0000
0000
1000
0000
0000
0000
0110
0000
0000
0000
0001
0000
0000
,  // measure 64
0000
1000
0000
0000
0110
0000
0000
0000
0001
0000
0000
0000
0000
1000
0000
0000
,  // measure 65
0100
0000
0000
0000
0000
1000
0010
0000
0000
0101
0000
0000
0000
1010
0000
0000
,  // measure 66
0000
0101
0000
0000
0000
2020
0000
0000
0000
0000
0000
0000
0030
0001
0000
0000
,  // measure 67
3000
0100
0000
0000
0000
0010
0000
0000
0000
0001
0000
1000
0000
0000
0000
0000
,  // measure 68
0000
0000
0100
0000
0000
0000
0010
0000
0000
1000
0000
0000
0000
0100
0000
0000
,  // measure 69
0000
1000
0000
0000
0000
0100
0000
0000
1000
0000
0100
0000
1000
0000
0010
0000
,  // measure 70
0000
0001
0000
0000
0000
0000
1000
0000
0000
0100
0000
0000
0000
0010
0000
0000
,  // measure 71
0000
1000
0000
0100
0000
0010
0000
0000
0010
0000
0000
0100
0000
0000
0000
0010
,  // measure 72
0000
0001
0100
0000
0000
1000
0000
0000
0100
0000
0000
0000
0000
0000
0000
0001
,  // measure 73
0000
1000
0000
0010
0000
0100
0000
0000
0000
0000
0000
0000
0010
1000
0000
0000
,  // measure 74
0000
0000
0000
0000
0000
0002
0000
0000
0000
1000
0000
0000
0000
1000
0000
0000
,  // measure 75
0000
0013
0000
0000
0000
0010
0000
0000
0000
0100
0000
0000
0200
0000
0000
0000
,  // measure 76
0000
0000
0000
0000
0000
1300
0000
0000
0000
0100
0000
0010
0001
0000
0000
0000
,  // measure 77
0000
0000
0000
0000
0000
1000
0000
0010
0000
0100
0000
0000
0001
0000
0000
0000
,  // measure 78
1000
0000
0000
0000
0000
0100
0000
0000
0000
0020
0000
0000
0000
0000
0000
0000
,  // measure 79
0000
1000
0000
0000
0000
0100
0000
0000
0000
0001
0000
1000
0000
0000
0000
0000
,  // measure 80
0000
1000
0000
0000
0030
0200
0000
0000
0000
0000
0000
0000
0000
1000
0000
0000
,  // measure 81
0000
0010
0000
0000
0300
0002
0000
0000
0000
0000
0003
2000
0000
0000
0000
0000
,  // measure 82
3000
0110
0000
0000
0000
1001
0000
0000
0000
0110
0000
0000
0000
1001
0000
0000
,  // measure 83
0000
0110
0000
0000
0000
0011
0000
0000
0000
0010
0000
0000
0000
0010
0000
0000
,  // measure 84
0000
0100
0000
0000
0100
0000
0000
0000
1000
0100
0000
0000
0010
0000
0000
0000
,  // measure 85
0000
0001
0000
0000
0000
1100
0000
0000
0011
0000
0000
0000
1100
0000
0000
0000
,  // measure 86
0010
0100
0010
1001
,  // measure 87
0000
0110
0000
0000
0000
1001
0000
0000
0000
0110
0000
0000
0000
0001
0000
0000
,  // measure 88
0000
1000
0000
0000
0220
0000
0000
0000
0000
0000
0000
0000
0000
0000
0000
0000
,  // measure 89
0000
0330
0000
0000
0000
1001
0000
0000
0000
0110
0000
0000
0001
1000
0000
0000
,  // measure 90
0000
2002
0000
0000
0000
0000
0000
0000
0000
0000
0000
0000
3003
0020
0000
0000
,  // measure 91
0000
0230
0000
0300
;
