#VERSION:0.81;
#TITLE:轟け!恋のビーンボール!!;
#SUBTITLE:;
#ARTIST:ダイナミック野球兄弟 v.s. クロスファイヤーPrim;
#TITLETRANSLIT:Todoroke! Koi no beanball!!;
#SUBTITLETRANSLIT:;
#ARTISTTRANSLIT:;
#GENRE:;
#ORIGIN:;
#CREDIT:;
#BANNER:Todoroke! Koi no beanball!!.png;
#BACKGROUND:Todoroke! Koi no beanball!!-bg.png;
#PREVIEWVID:;
#JACKET:Todoroke! Koi no beanball!!-jacket.png;
#CDIMAGE:;
#DISCIMAGE:;
#LYRICSPATH:;
#CDTITLE:./CDTITLES/DanceDanceRevolution 2013.png;
#MUSIC:Todoroke! Koi no beanball!!.ogg;
#OFFSET:-0.009;
#SAMPLESTART:70.667;
#SAMPLELENGTH:15.000;
#SELECTABLE:YES;
#DISPLAYBPM:180.000;
#BPMS:0.000=180.000;
#STOPS:;
#DELAYS:;
#WARPS:;
#TIMESIGNATURES:0.000=4=4;
#TICKCOUNTS:0.000=4;
#COMBOS:0.000=1;
#SPEEDS:0.000=1.000=0.000=0;
#SCROLLS:0.000=1.000;
#FAKES:;
#LABELS:0.000=Song Start;
#BGCHANGES:;
#KEYSOUNDS:;
#ATTACKS:
;

//---------------dance-single - ----------------
#NOTEDATA:;
#CHARTNAME:;
#STEPSTYPE:dance-single;
#DESCRIPTION:;
#CHARTSTYLE:;
#DIFFICULTY:Hard;
#METER:16;
#RADARVALUES:0.818,0.877,0.542,0.009,0.492,573.000,60.000,1.000,0.000,0.000,0.000,0.000,0.000,0.818,0.877,0.542,0.009,0.492,573.000,60.000,1.000,0.000,0.000,0.000,0.000,0.000;
#CREDIT:;
#DISPLAYBPM:180.000;
#NOTES:
// measure 0
0000
0000
0000
0000
,  // measure 1
0000
0000
0000
0000
,  // measure 2
0000
0000
0000
0000
,  // measure 3
0000
0000
0000
0000
,  // measure 4
0000
0000
0000
0000
,  // measure 5
0000
0000
0000
0000
,  // measure 6
0000
0000
0000
0000
,  // measure 7
0000
0000
0000
0000
,  // measure 8
0000
0000
0000
0000
,  // measure 9
0001
0100
1000
0001
0010
0001
1000
0100
,  // measure 10
0001
0010
1000
0001
0100
0001
1000
0010
,  // measure 11
0001
1000
0010
0001
1000
0100
1000
0001
,  // measure 12
0010
1000
0100
0001
1000
0010
1000
0001
,  // measure 13
0100
0000
1000
0001
1000
0000
0001
0000
0011
0000
0100
0000
0100
0000
0110
0000
,  // measure 14
0000
1000
1000
0010
1001
0100
0010
0000
,  // measure 15
0010
0000
0001
1000
0001
0000
0100
0000
0110
0000
0010
0000
1000
0000
1001
0000
,  // measure 16
0000
0100
1000
0001
1001
0000
1001
0000
,  // measure 17
0100
0010
1000
0100
0010
1000
0010
0100
,  // measure 18
1000
0010
1000
0100
0010
0100
1000
0010
,  // measure 19
1000
0000
0100
0010
0100
0000
1000
0000
0010
0000
0100
1000
0100
0000
0010
0000
,  // measure 20
1000
0000
0100
1000
0100
0000
0010
0100
0010
0000
0001
0010
0001
0000
1000
0000
,  // measure 21
1001
0000
0010
0001
0001
0000
1000
0000
,  // measure 22
0001
0000
0100
0010
0100
0000
0010
0000
0100
0000
0001
0000
1000
0000
0001
0000
,  // measure 23
0101
0000
0000
1100
1100
0000
0000
1001
,  // measure 24
0000
0000
0110
0000
1000
0000
0001
0000
0100
0000
0010
1000
0001
0000
1000
0001
,  // measure 25
0010
0100
0001
0100
0010
0001
0100
0010
,  // measure 26
0001
0010
0100
0001
0010
0100
0001
0100
,  // measure 27
0010
0000
0001
0010
0001
0000
0100
0000
0001
0000
0100
0010
0100
0000
0001
0000
,  // measure 28
0010
0000
0001
0010
0001
0000
0010
0100
0010
0000
0100
1000
0100
0000
1000
0000
,  // measure 29
1100
0101
0011
1010
,  // measure 30
0110
0000
0000
0010
0100
0000
0010
0000
0100
0000
0001
0000
1000
0000
0001
0000
,  // measure 31
1000
0100
0100
0010
0001
0100
0100
0010
,  // measure 32
1000
0100
1000
0001
0100
0001
1000
0100
1000
0000
0001
1000
0001
0000
1000
0000
,  // measure 33
0001
0100
1000
0010
,  // measure 34
0001
0000
0100
0101
0000
0100
1100
0001
0010
0001
1000
0010
,  // measure 35
1000
0100
0001
0010
,  // measure 36
1000
0000
0100
1100
0000
0100
0101
1000
0010
1000
0001
0010
,  // measure 37
0001
0100
0110
1001
,  // measure 38
0110
0000
1000
1100
0000
0001
0101
0010
1000
0010
0100
0001
,  // measure 39
0100
0001
1001
0110
,  // measure 40
1000
1000
0010
0100
0100
0001
0010
0010
0100
0100
1000
1000
,  // measure 41
0001
0000
0100
0000
0001
0010
0001
0000
,  // measure 42
1000
0000
0010
0000
1000
0000
0100
0000
1000
0000
0000
0000
0001
0000
1000
0100
,  // measure 43
0010
0000
0000
0000
0100
0000
1000
0100
0010
0000
0000
0000
0100
0000
1000
0100
,  // measure 44
0010
0000
0010
0001
0100
0000
0010
0000
,  // measure 45
0001
0010
1000
0100
0010
0000
0110
0000
,  // measure 46
1000
0010
0001
0100
0010
0000
0110
0000
,  // measure 47
1000
0100
0000
0001
0100
0000
0010
0000
,  // measure 48
0100
1000
0000
0100
0001
0000
0100
0000
,  // measure 49
0011
1001
0000
0000
1100
1001
0000
0000
,  // measure 50
0101
1001
0000
0000
1010
1001
0000
0000
,  // measure 51
0101
0101
0010
0100
1100
1100
0010
0100
,  // measure 52
1001
0000
1001
0000
0100
0000
0010
0000
1000
0001
1000
0001
1000
0000
0010
0000
,  // measure 53
1001
0100
0010
0100
0010
1000
0001
0010
,  // measure 54
0100
0000
0001
0100
0001
0000
0001
0100
0001
0000
0100
0000
1000
0000
0001
0000
,  // measure 55
0100
1000
0100
0001
0010
0001
1000
0100
,  // measure 56
0010
0000
0001
0100
0010
0000
0100
0010
1000
0000
0001
0000
1000
0000
0100
0000
,  // measure 57
1100
0000
1001
0100
0010
0001
0010
1000
,  // measure 58
0001
0010
1000
0010
0001
0100
0101
0000
,  // measure 59
1000
0001
0100
1000
0001
0010
0001
0010
,  // measure 60
1000
0000
0010
1000
0010
1000
0001
0100
0001
1000
0100
1000
0001
0000
0010
0100
,  // measure 61
1000
0001
1000
0001
1000
0010
0100
0001
,  // measure 62
0010
0000
1000
0010
1000
0000
1000
0010
1000
0000
0010
0000
0001
0000
0100
0000
,  // measure 63
1000
0100
0010
1000
0100
1000
0001
0010
,  // measure 64
0100
0000
0001
0100
0010
0000
0100
0010
1000
0000
0001
0100
0001
0100
1000
0100
,  // measure 65
1000
0000
0000
0000
1001
0000
0010
0000
0100
0000
1000
0100
1000
0100
0010
0000
,  // measure 66
0110
0000
0000
0000
0010
0000
0001
0000
0100
0000
0001
0100
0001
0100
0010
0000
,  // measure 67
1001
0100
0010
1000
0100
0010
0100
0010
,  // measure 68
0001
0100
0001
1000
0100
1000
0001
0010
0001
1000
0010
1000
0001
0100
0010
1000
,  // measure 69
0001
0000
0000
0010
0010
0100
0100
0000
0000
0001
0010
0100
,  // measure 70
1000
0000
0000
0010
0010
0100
0100
0000
0000
0001
0000
1000
,  // measure 71
0010
0000
0000
0100
0100
0010
0010
0000
0000
1000
0000
0000
,  // measure 72
0011
0000
0101
0000
1100
0000
1010
0001
,  // measure 73
0100
0000
0010
1000
0001
1000
0010
0000
,  // measure 74
0100
0000
0000
0000
0000
0000
0010
0000
0000
1000
0000
0000
0100
0000
0000
0000
0000
0000
0010
0000
0000
0000
0010
0000
,  // measure 75
0001
0000
0000
0000
0100
0000
0000
0000
0010
0000
0000
0000
0100
0000
0000
0000
0001
0000
0000
0000
0100
0000
0000
0000
0010
0000
0000
0000
0100
0000
0000
0000
0001
0000
0000
0000
0010
0000
0000
0100
0000
0000
0010
0000
0000
0100
0000
0000
,  // measure 76
0020
0001
0001
0100
,  // measure 77
0100
0000
0000
0000
1000
0000
0000
0000
1000
0000
0000
0000
0100
0030
0000
0000
,  // measure 78
0001
0001
0100
0010
1000
1000
0100
0010
,  // measure 79
0001
1000
0001
1000
0010
0100
0010
0100
0001
0100
0010
1000
0001
0010
0100
1000
,  // measure 80
0010
0000
0110
0000
0101
0000
1001
0000
1100
0000
1000
0100
0010
0001
1000
0000
;

//---------------dance-double - ----------------
#NOTEDATA:;
#CHARTNAME:;
#STEPSTYPE:dance-double;
#DESCRIPTION:;
#CHARTSTYLE:;
#DIFFICULTY:Hard;
#METER:16;
#RADARVALUES:0.793,0.840,0.316,0.054,0.447,573.000,35.000,6.000,0.000,0.000,0.000,0.000,0.000,0.793,0.840,0.316,0.054,0.447,573.000,35.000,6.000,0.000,0.000,0.000,0.000,0.000;
#CREDIT:;
#DISPLAYBPM:180.000;
#NOTES:
00000000
00000000
00000000
00000000
,
00000000
00000000
00000000
00000000
,
00000000
00000000
00000000
00000000
,
00000000
00000000
00000000
00000000
,
00000000
00000000
00000000
00000000
,
00000000
00000000
00000000
00000000
,
00000000
00000000
00000000
00000000
,
00000000
00000000
00000000
00000000
,
00000000
00000000
00000000
00000000
,
00001000
00000010
00000001
00001000
00000100
00001000
00010000
00001000
,
00010000
01000000
10000000
00010000
00100000
00010000
00001000
00010000
,
00001000
00000100
00000001
00001000
00000010
00001000
00010000
00001000
,
00010000
00100000
10000000
00010000
01000000
00010000
00001000
00010000
,
00011000
00000000
00001000
00010000
00000010
00000000
00000100
00000000
00000001
00000000
00000100
00000000
00000010
00000000
00001000
00000000
,
00000000
00000000
00010000
00000000
00100000
00000000
01000000
00000000
10000000
00000000
01000000
00000000
00100000
00000000
01000000
00100000
,
01000000
00000000
10000000
00010000
10000000
00000000
00100000
00000000
00010000
00000000
00001000
00000000
00000100
00000000
00000001
00000000
,
00000000
00000000
00000001
00000000
00000010
00000000
00001000
00000000
00010000
00001000
00010000
00000000
00011000
00000000
00000000
00000000
,
00001000
00010000
00100000
01000000
00001000
00100000
01000000
00010000
,
00001000
01000000
00010000
00001000
00010000
01000000
00001000
00100000
,
00010000
00000000
01000000
00100000
01000000
00000000
00100000
00000000
00010000
00000000
00001000
01000000
00001000
00000000
00010000
00000000
,
00001000
00000000
00100000
01000000
00100000
00000000
01000000
00010000
01000000
00000000
00010000
00001000
00010000
00000000
00001000
00000000
,
00000010
00000000
00000100
00001000
00000001
00000100
00000010
00000100
,
00000001
00000000
00001000
00000100
00001000
00000000
00000010
00000000
00001000
00000000
00010000
00000000
00100000
00000000
01000000
00000000
,
01100000
00000000
00000000
10010000
10010000
00000000
00000000
11000000
,
00000000
00000000
00100000
00000000
00001000
00000000
00010000
00000000
00000010
00000000
00001000
00000100
00000010
00000000
00000001
00000100
,
00000010
00001000
00000100
00010000
00000010
00001000
00000100
00000010
,
00001000
00010000
00001000
00000100
00001000
00010000
00000010
00000100
,
00001000
00000000
00010000
00001000
00010000
00000000
00000010
00000000
00001000
00000000
00000100
00000010
00000100
00000000
00001000
00000000
,
00000010
00000000
00000100
00000010
00000100
00000000
00000010
00010000
00000010
00000000
00010000
00001000
00010000
00000000
00001000
00000000
,
00011000
00000000
00100000
00000000
10100000
00000000
01000000
10000000
,
10010000
00000000
00000000
00100000
00010000
00000000
01000000
00000000
00010000
00000000
10000000
01000000
10000000
00000000
01000000
00000000
,
00100000
00010000
01000000
00001000
00010000
00000010
00001000
00000100
,
00000010
00000001
00000010
00000001
00001000
00000010
00001000
00000001
00000010
00000000
00000100
00000010
00000100
00000000
00001000
00000000
,
00002100
00010000
00000100
00010000
,
00003100
00000000
00000100
00000010
00000000
00000010
00000100
00010000
00001000
00100000
00010000
01000000
,
00020000
00001000
01000000
00001000
,
01030000
00000000
01000000
00100000
00000000
00100000
01000000
00010000
00100000
00001000
00010000
00000100
,
00002000
00000100
00000001
00000010
,
00013000
00000000
00010000
01000000
00000000
01000000
00100000
01000000
00010000
10000000
00100000
01000000
,
00020000
01000000
10000000
00100000
,
00031000
00000000
00001000
00001000
00000100
00000010
00000100
00001000
00000001
00000100
00000010
00001000
,
00000100
00000000
00000010
00000001
00000100
00000010
00001000
00000100
,
00010000
00000000
00010000
01000000
10000000
00000000
10000000
00100000
,
10000000
00000000
01000000
10000000
01000000
10000000
01000000
00000000
00100000
00000000
00010000
01000000
00010000
01000000
00010000
00000000
,
00100000
00000000
00001000
00010000
00001000
00010000
00001000
00000000
00010000
00000000
00001000
00000000
00010000
00000000
00000000
00000000
,
00011000
00000100
00001000
00010000
00100000
00010000
00001000
00000000
,
00011000
01000000
00010000
00001000
00000010
00001000
00010000
00000000
,
00001000
00010000
00001000
00000000
00000000
00000000
00010000
00000000
00000100
00000000
00000000
00000000
00001000
00000000
00000000
00000000
,
00000010
00000001
00001000
00000100
00000010
00000001
00000100
00000000
,
00001010
00010010
00000000
00000000
00011000
01001000
00000000
00000000
,
00110000
00101000
00000000
00000000
00011000
00010100
00000000
00000000
,
00001001
00000010
00000100
00001000
00010000
00100000
01000000
10000000
,
01000000
00000000
01000000
00000000
01000000
00000000
01000000
00000000
00100000
10000000
00100000
10000000
00010000
00000000
10000000
00000000
,
10010000
01000000
10000000
01000000
00010000
01000000
00010000
01000000
,
00100000
00000000
01000000
00010000
00001000
00000000
00010000
00001000
00000100
00000000
00000010
00000000
00000100
00000000
00000000
00000000
,
00000001
00001000
00000010
00001000
00000100
00010000
00001000
01000000
,
10000000
01000000
00010000
01000000
01100000
00000000
10000000
01000000
,
11000000
00000000
00110000
00100000
00001000
00010000
00000100
00000010
,
00001000
00010000
00100000
01000000
00010000
00100000
00010000
00000000
,
10010000
00000000
00001000
00010000
00100000
01000000
00010000
00100000
,
00001000
00000000
00010000
00001000
00010000
00000000
00000100
00001000
00000100
00001000
00000001
00000010
00000001
00000000
00001000
00000010
,
00000100
00000001
00000100
00000001
00000100
00001000
00000100
00001000
,
00010000
00000000
00001000
00010000
00100000
00000000
00100000
01000000
00100000
00000000
00000000
00000000
00100000
00000000
10000000
00000000
,
01000000
00100000
00001000
00100000
00010000
01000000
00010000
00100000
,
01000000
00000000
00010000
00000000
00001000
00000000
00010000
00000000
00000100
00000000
00000010
00000100
00000010
00000000
00000001
00001000
,
00000001
00000001
00000010
00000100
00001100
00000010
00010000
00001000
,
00011000
00001000
01000000
00010000
00110000
01000000
10000000
00100000
,
10000000
00000000
10000000
00100000
10000000
00000000
01000000
00000000
00100000
00000000
00100000
01000000
00100000
00000000
00010000
00000000
,
01000000
00010000
01000000
00010000
01000000
00001000
01000000
00001000
00010000
00001000
00010000
00000100
00001000
00000100
00000010
00000001
,
00000020
00000000
00000000
00000100
00000000
00000000
00000130
00000000
00000000
00001000
00000001
00001000
,
00000001
00000000
00000000
00000100
00000000
00000000
00000100
00000000
00000000
00001000
00000000
00010000
,
00001000
00000000
00000000
00001000
00010000
01000000
10000000
00000000
00000000
01000000
00000000
00000000
,
10000000
00010000
00001000
00000001
,
00001001
00000000
00000100
00000010
00000100
00000010
00000100
00000000
,
00001100
00000000
00000010
00001000
00000100
00000000
00000010
00000000
,
00000001
00000100
00000010
00001000
00000010
00000100
00001000
00010000
01000000
00100000
00010000
10000000
,
00020000
00100000
00100000
00001000
,
00001000
00100000
00100000
10000000
,
10030000
01000000
00100000
00010000
01000000
00001000
00010000
00000010
,
00000100
00000001
00001000
00000010
00001000
00000100
00010000
00001000
01000000
00010000
10000000
00100000
01000000
00010000
10000000
00000000
,
10010000
10010000
00100000
01000000
01100000
00010000
00001000
00000110
;

//---------------dance-single - ----------------
#NOTEDATA:;
#CHARTNAME:;
#STEPSTYPE:dance-single;
#DESCRIPTION:;
#CHARTSTYLE:;
#DIFFICULTY:Challenge;
#METER:17;
#RADARVALUES:1.000,1.000,1.000,0.108,0.782,683.000,122.000,12.000,0.000,0.000,0.000,0.000,0.000,1.000,1.000,1.000,0.108,0.782,683.000,122.000,12.000,0.000,0.000,0.000,0.000,0.000;
#CREDIT:;
#DISPLAYBPM:180.000;
#NOTES:
// measure 0
0000
0000
0000
0000
0000
0000
0000
0000
0000
1000
0000
1000
,  // measure 1
1200
0000
0000
0310
0001
0010
0001
0000
0000
0100
0010
0100
,  // measure 2
0002
0000
0000
1003
0100
1000
0100
0000
0000
0010
0000
0001
,  // measure 3
2001
0000
0000
3100
0000
0010
0011
0000
0000
0101
0000
0000
,  // measure 4
2001
0010
0100
3010
,  // measure 5
0101
1100
1010
0011
,  // measure 6
1100
0000
0000
0101
0010
1000
0010
0000
0000
0010
0000
1000
,  // measure 7
1100
0000
0000
0100
0000
0010
0011
0000
1000
1100
0000
0001
,  // measure 8
0101
0000
0000
0001
0100
0010
2000
0000
0000
3001
0000
0000
,  // measure 9
0110
0010
1000
1010
1000
0001
0010
0100
,  // measure 10
0110
0010
0001
0011
0001
1000
0010
0100
,  // measure 11
0110
0010
1000
1001
0001
0010
0100
1000
,  // measure 12
1001
0001
0100
0110
0010
1000
0001
0100
,  // measure 13
0110
0000
0010
0100
0010
0000
0110
0000
0101
0000
1001
0000
1010
0000
0110
0000
,  // measure 14
0000
0110
1010
1001
0011
0000
1001
0100
,  // measure 15
0110
0000
0010
0100
1000
0000
0101
0000
0011
0000
0110
0000
1100
0000
1001
0000
,  // measure 16
0000
1001
0100
0010
0011
0000
0011
0000
,  // measure 17
1100
0000
1000
0000
0010
0000
0100
0001
1000
0000
0010
0000
0100
0000
0001
0010
,  // measure 18
0100
0000
0010
0000
0001
0000
1000
0001
0010
0000
0100
0000
1000
0000
0010
0000
,  // measure 19
0100
0000
0001
0100
0010
0000
1000
0000
0001
0000
0010
0100
1000
0000
0010
0000
,  // measure 20
0110
0000
1000
0010
1000
0000
0001
1000
0001
0000
0100
0001
0010
0000
0100
0000
,  // measure 21
0011
0000
0010
0000
0100
0000
1000
0010
1000
0000
0100
0000
0010
0000
0001
0000
,  // measure 22
0100
0000
0010
1000
0001
0000
0010
0001
1000
0000
0001
1000
0100
0000
0010
0000
,  // measure 23
0110
0000
0000
1100
0101
0000
0000
1100
,  // measure 24
0001
0000
0101
0000
1000
0000
0010
0000
0100
0000
0001
0000
0010
0000
0001
0100
,  // measure 25
0010
0000
1000
0000
0001
0000
0010
0001
0100
0000
1000
0000
0100
0000
0010
1000
,  // measure 26
0100
0000
0010
0000
0100
0000
1000
0010
0100
0000
0010
0000
0100
0000
0001
0000
,  // measure 27
0011
0000
0100
1000
0001
0000
0100
0010
1000
0000
0100
0010
0001
0000
1000
0000
,  // measure 28
2001
0000
0000
0000
0100
0000
0000
3001
0000
0000
0000
0000
0100
0000
0010
0000
,  // measure 29
0110
0100
0001
0000
1001
0010
1000
0000
,  // measure 30
1100
0000
0000
1000
0100
0000
0010
0000
0011
0000
0100
1000
0100
0000
0010
0000
,  // measure 31
1010
1000
0010
0001
0101
0100
1000
0100
,  // measure 32
0010
1000
0100
0010
0001
0100
0010
1000
0100
0000
0010
0001
1000
0000
0100
0010
,  // measure 33
0001
0000
0010
0001
0100
1000
0100
0000
0000
1001
0000
0000
,  // measure 34
1010
0000
1000
0110
0000
0001
0110
1000
0001
0100
0010
1000
,  // measure 35
1001
0000
1000
0100
0001
0100
1100
0000
0000
1001
0000
1000
,  // measure 36
0101
0000
0001
0011
0000
0010
1100
0001
0100
0010
1000
0100
,  // measure 37
0110
0010
0001
0100
0010
0001
1000
0100
0010
1000
0100
0010
,  // measure 38
1000
0010
1000
0001
0100
0001
1000
0010
1000
0001
0100
0010
,  // measure 39
0001
0100
1000
0001
0010
1000
0100
0010
0001
0100
0010
1000
,  // measure 40
0100
0100
0010
0001
0001
0100
1000
1000
0010
0010
0001
0001
,  // measure 41
0100
0010
1000
0001
0010
1000
0001
0100
,  // measure 42
0010
0000
0001
0000
1000
0000
0010
0000
0100
0000
1000
0000
0001
0000
0010
0100
,  // measure 43
1000
0000
0100
0000
0001
0000
0100
0010
1000
0000
0010
0000
0001
0000
0010
0000
,  // measure 44
2000
0000
0000
3020
0200
0000
0000
0330
,  // measure 45
0001
0010
1000
0010
0001
1000
0110
0000
,  // measure 46
1000
0010
0001
0010
1000
0001
0110
0000
,  // measure 47
0001
0100
0010
0000
0100
0000
0010
1000
0100
0000
0010
0000
0100
0010
0001
0000
,  // measure 48
0100
1000
0001
0000
0010
0000
1000
0100
0010
0000
0001
0000
0100
0000
1000
0000
,  // measure 49
1100
1001
0000
0000
0101
1001
0000
0000
,  // measure 50
1010
1001
0000
0000
0101
1100
0000
0000
,  // measure 51
1100
1100
1001
1001
0101
0101
0110
0110
,  // measure 52
1010
0000
1010
0000
1001
0000
1001
0000
1000
0100
0001
0100
0000
1000
0010
0000
,  // measure 53
0101
0000
0010
0000
0001
0000
0100
0010
1000
0000
0100
0000
0010
0000
0001
0100
,  // measure 54
1000
0000
0100
0010
1000
0000
0100
0001
0100
0000
0001
0000
1000
0000
0010
0000
,  // measure 55
1100
0000
1000
0000
0010
0000
0100
0001
0010
0000
0100
0000
1000
0000
0010
0000
,  // measure 56
0100
0000
0010
1000
0001
0000
0010
0001
1000
0000
0000
0000
0001
0000
0100
0000
,  // measure 57
1010
0000
1000
0000
0001
0000
0010
0100
0001
0000
1000
0000
0010
0000
0001
0000
,  // measure 58
0100
0000
1000
0100
0010
0000
1000
0001
0010
0000
0100
0000
0110
0000
0000
0000
,  // measure 59
0110
0000
1000
0000
0010
0000
0100
0001
1000
0000
1000
0000
0010
0000
0100
0000
,  // measure 60
0101
0000
0100
0000
0010
0000
1000
0000
1000
0001
0100
1000
0100
0000
0001
0100
,  // measure 61
1000
0000
0100
0000
0010
0000
1000
0100
0010
0000
1000
0000
0010
0000
0001
0100
,  // measure 62
0010
0000
0010
1000
0001
0000
0010
0100
1000
0000
0001
0000
0100
0000
0010
1000
,  // measure 63
0100
0000
0010
0000
0001
0000
0100
0010
1000
0000
0001
0000
0100
0000
1000
0000
,  // measure 64
0200
0000
0000
0000
0000
0000
0310
2000
0002
0000
0000
0000
0000
0000
3003
0000
,  // measure 65
0110
1000
0001
0000
0110
0001
1000
0010
,  // measure 66
0110
0100
0001
0000
1100
0010
0001
0100
,  // measure 67
0110
0010
1000
1010
0001
0010
0110
1000
,  // measure 68
0001
0100
0010
1000
0100
0001
0100
0010
0001
0100
1000
0100
0010
1000
0100
1000
,  // measure 69
0001
0000
0000
1000
0010
0001
0110
0000
0000
0001
0010
0001
,  // measure 70
0001
0000
0000
0001
0010
1000
0110
0000
0000
0110
0000
1000
,  // measure 71
0110
0000
0000
1000
0100
0001
0110
0000
0000
1100
0000
0000
,  // measure 72
0101
0000
1100
0000
1010
0000
1001
0100
,  // measure 73
0010
0000
0001
0100
1000
0001
0010
1000
,  // measure 74
0100
0000
0000
0000
0000
0000
0001
0000
0000
0100
0000
0000
1000
0000
0000
0000
0000
0000
0010
0000
0000
0000
0010
0000
,  // measure 75
1000
0000
0100
0000
0100
0000
0010
0000
1000
0000
1000
0000
0100
0000
0001
0000
0001
0000
0010
0100
0010
0100
1000
0100
,  // measure 76
1000
0000
0001
0100
1000
0000
1000
0100
,  // measure 77
0010
0000
1000
0100
0001
0000
0001
0100
,  // measure 78
0010
0001
0010
0001
0100
0001
0100
0001
1000
0010
1000
0010
1000
0100
1000
0100
,  // measure 79
1000
0001
0010
1000
0010
0100
0001
0100
1000
0010
0100
1000
0100
0001
0010
0100
,  // measure 80
1000
1100
0101
1100
0011
0110
1100
0101
;
