#TITLE:The Whistle Song;
#SUBTITLE:(Blow My Whistle Bitch);
#ARTIST:DJ Aligator Project;
#TITLETRANSLIT:;
#SUBTITLETRANSLIT:;
#ARTISTTRANSLIT:;
#GENRE:;
#CREDIT:;
#BANNER:The Whistle Song (Blow My Whistle Bitch).png;
#BACKGROUND:The Whistle Song (Blow My Whistle Bitch)-bg.png;
#LYRICSPATH:;
#CDTITLE:;
#MUSIC:The Whistle Song (Blow My Whistle Bitch).mp3;
#OFFSET:-1.367;
#SAMPLESTART:0.000;
#SAMPLELENGTH:8.500;
#SELECTABLE:YES;
#DISPLAYBPM:140.000;
#BPMS:0.000=140.000;
#STOPS:32.000=0.857
,166.000=0.857
;
#BGCHANGES:;
#KEYSOUNDS:;

//---------------dance-single - 370K----------------
#NOTES:
     dance-single:
     370K:
     Challenge:
     12:
     0.860,1.000,0.538,0.022,1.000:
MMMM
0000
000M
0M00
00M0
00M0
0000
0000
,
0000
0000
M000
0M00
M000
0000
0M00
0000
00M0
0000
000M
0000
M00M
0000
0000
0000
,
1001
0000
0100
0010
0100
0000
0100
0000
1000
0000
0100
0000
0000
0000
0000
0000
,
0000
0000
0001
0100
0001
0000
0010
0000
0001
0000
0100
0000
1000
0000
0100
0000
,
0110
0000
0010
0001
0010
0000
1000
0000
0010
0000
0010
0000
0000
0000
0000
0000
,
0000
0000
0001
0100
0010
0000
1000
0000
0100
0000
0010
0000
1000
0000
0000
0000
,
0011
0000
0010
0001
0100
0000
1000
0000
0001
0000
0100
0000
0000
0000
0000
0000
,
1000
0000
0000
0100
0000
0000
0010
0000
0000
0001
0000
0000
1000
0000
0000
0100
0000
0000
0010
0000
0000
0001
0000
0000
1000
0000
0100
0000
0010
0000
0001
0000
1000
0000
0100
0000
0010
0000
0001
0000
1000
0000
0100
0000
0000
0000
0000
0000
,
2002
3003
0000
0000
0000
0000
0000
0000
0000
0000
0000
0000
0000
0000
0000
0000
0000
0000
0000
0000
0000
0000
0000
0000
0000
0000
0000
0000
0000
0000
0000
0000
0000
0000
0000
0000
0000
0000
0000
0000
0000
0000
0000
0000
0000
0000
0000
0000
0000
0000
0000
0000
0000
0000
0000
0000
0000
0000
0000
0000
0000
0000
0000
0000
0000
0000
0000
0000
0000
0000
0000
0000
0000
0000
0000
0000
0000
0000
0000
0000
0000
0000
0000
0000
0000
0000
0000
0000
0000
0000
0000
0000
0000
0000
0000
0000
1001
0000
0000
0000
0000
0000
0000
0000
0000
0000
0000
0000
0000
0000
0000
0000
0000
0000
0000
0000
0000
0000
0000
0000
0000
0000
0000
0000
0000
0000
0000
0000
0000
0000
0000
0000
0000
0000
0000
0000
0000
0000
0000
0000
0000
0000
0000
0000
1010
0000
0000
0000
0000
0000
0000
0000
0000
0000
0000
0000
0000
0000
0000
0000
0000
0000
0000
0000
0000
0000
0000
0000
0100
0000
0000
0000
0000
0000
0000
0000
0000
0000
0000
0000
0001
0000
0000
0000
0000
0000
0000
0000
0000
0000
0000
0000
,
0100
0001
0100
0000
0000
0000
0110
0000
0000
0000
0001
0100
0010
0000
0001
0000
,
1000
0000
0100
0010
0001
0000
0000
0000
0110
0000
0000
0000
1001
0000
0010
1000
,
0100
0000
0001
0000
0000
0000
0011
0000
0000
0000
0100
0010
0001
0000
0100
0000
,
0010
0100
1000
0100
0010
0000
0000
0000
1001
0000
0000
0000
1000
0100
0010
0001
,
1000
0000
0100
0000
0000
0000
1010
0000
0000
0000
0100
0010
1000
0000
0100
0000
,
0010
0001
0010
0000
0100
0000
0000
0000
0110
0000
0000
0000
1000
0001
1000
0001
,
1000
0000
0010
0000
0000
0000
1001
0000
0000
0000
0100
1000
0100
0010
0001
0000
,
1001
1001
0040
0000
,
0000
0000
0000
0000
0000
0000
0130
0000
0001
0000
0000
0001
0010
0001
0010
0001
,
0010
0000
0000
0010
0100
0010
0100
0010
0100
0000
0000
0010
0001
0000
0001
0000
,
1000
0000
0100
0000
0010
0000
0001
0000
1000
0000
0000
0100
0010
0100
0010
0100
,
0010
0000
0000
0001
1000
0001
1000
0001
1000
0000
0000
0001
0100
0001
0100
0000
,
0001
0000
0010
0000
0100
0000
1000
0000
0001
0000
0000
1000
0100
0010
0100
0000
,
1000
0000
0000
0001
0100
1000
0100
0000
0010
0000
0000
1000
0001
1000
0001
0000
,
0010
0000
0100
0000
0010
0000
0100
0000
0001
0000
0000
1000
0010
1000
0010
0000
,
1000
0000
0000
0000
0000
0000
0000
0000
0000
0001
0000
0000
1000
0000
0000
0001
0000
0000
1000
0000
0000
0000
0000
0000
0100
0000
0010
0000
0001
0000
0010
0000
0100
0000
1000
0000
0100
0000
0010
0000
0001
0000
0010
0000
0100
0000
1000
0000
,
0100
0010
0001
0010
0100
1000
0100
0010
0001
0100
0000
0000
0001
0000
0000
0010
0000
0000
0100
0000
0000
1000
0000
0000
,
0010
0100
0010
0000
1100
0000
0000
0000
0001
0010
0100
1000
1100
0000
0100
0010
,
0001
0010
0100
0000
0110
0000
0000
0000
1000
0000
0100
0000
0010
0000
0001
0000
,
1000
0010
1000
0000
0011
0000
0000
0000
0010
0001
0010
0001
0010
0100
0010
0000
,
0110
1001
0110
0000
1000
0010
0100
0001
,
1000
0001
0100
0000
0101
0000
0000
0000
0011
0000
0010
0100
0010
0000
1000
0001
,
0010
0000
1000
0100
0010
0000
0000
0000
0001
0000
0100
0000
0010
0000
1000
0000
,
1000
0100
0010
0001
1001
0000
1001
0000
1000
0100
0010
0001
0010
0100
1000
0100
,
0010
0000
0001
0000
0010
0000
0100
0000
1000
0000
0100
0000
0010
0000
0001
0000
0010
0000
0100
0000
0000
0000
0000
0000
0001
0000
0000
0010
0000
0000
0100
0000
0000
1000
0000
0000
0100
0000
0000
0010
0000
0000
0100
0000
0000
1000
0000
0000
,
0100
0010
0001
0010
0001
0100
0001
0100
0010
1000
0100
0010
0001
0010
0100
1000
,
0100
0010
0100
0001
0010
0100
1000
0100
1000
0100
0010
0001
0100
1000
0100
0010
,
0100
0010
0100
0010
0001
0010
0100
1000
0100
0010
0100
0001
0100
1000
0100
0010
,
0100
0001
1000
0100
1000
0010
1000
0001
1000
0010
1000
0100
1000
0100
0010
0001
,
0010
0100
0010
1000
0010
0100
0010
0001
0010
0100
1000
0100
0010
0100
1000
0100
,
0010
0001
0010
0100
0010
0001
0010
0001
0010
0100
0010
0100
1000
0100
1000
0100
,
0010
0000
0000
0100
0000
0000
1000
0000
0000
0100
0000
0000
0010
0000
0000
0000
0000
0000
0001
0000
0000
0010
0000
0000
0001
0000
0010
0000
0100
0000
1000
0000
0100
0000
0010
0000
0100
0000
1000
0000
0100
0000
0010
0000
0100
0000
1000
0000
,
0100
0000
0000
0000
0000
0000
0000
0000
0010
0000
0000
0000
0000
0000
0000
0000
0001
0000
0000
0000
0000
0000
0000
0000
0010
0000
0000
0000
0000
0000
0000
0000
0100
0000
0000
0000
0000
0000
0000
0000
0010
0000
0000
0000
0000
0000
0000
0000
0001
0000
0000
0000
0000
0000
0000
0000
0010
0000
0000
0000
0000
0000
0000
0000
0100
0000
0000
0000
0000
0000
0000
0000
0010
0000
0000
0000
0000
0000
0000
0000
0001
0000
0000
0000
0000
0000
0000
0000
0010
0000
0000
0000
0000
0000
0000
0000
0400
0300
0000
0000
0000
0000
0000
0000
0000
0000
0000
0000
0000
0000
0000
0000
0000
0000
0000
0000
0000
0000
0000
0000
1000
0000
0000
0000
0000
0000
0000
0000
0000
0000
0000
0000
0100
0000
0000
0000
0000
0000
0000
0000
0000
0000
0000
0000
1000
0000
0000
0000
0000
0000
0000
0000
0000
0000
0000
0000
0000
0000
0000
0000
0000
0000
0000
0000
0000
0000
0000
0000
0010
0000
0000
0000
0000
0000
0000
0000
0000
0000
0000
0000
0000
0000
0000
0000
0000
0000
0000
0000
0000
0000
0000
0000
,
0110
0000
0100
0010
1000
0000
1000
0000
1010
0000
0101
0000
0000
0000
1001
0000
,
0000
0000
0010
0100
1000
0000
0100
0000
0011
0000
0101
0000
1010
0000
0000
0000
,
0010
0000
1000
0100
1000
0000
0100
0000
0011
0000
1010
0000
0000
0000
1010
0000
,
0000
0000
0001
0010
0100
1000
0100
0000
0100
0000
0110
0000
0101
0000
0000
0000
,
0101
0000
0100
0001
0010
0000
1000
0000
0101
0000
0011
0000
0000
0000
1100
0000
,
0000
0000
0010
0100
0001
0000
0010
0000
0110
0000
1010
0000
0101
0000
0000
0000
,
0110
0000
0000
0000
0001
0010
0100
1000
0100
0010
0001
0000
0000
0000
0011
0000
,
1100
0000
0000
0000
0000
0000
0100
0000
0000
0010
0000
0000
0001
0000
0000
0010
0000
0000
0100
0000
0000
1000
0000
0000
0100
0000
0010
0000
0001
0000
0010
0000
0100
0000
1000
0000
0100
0000
0010
0000
0001
0000
0010
0000
0000
0000
0000
0000
,
4M04
00M0
0M00
0M00
00M0
00M0
0M00
00M0
,
0M00
00M0
0M00
00M0
0M00
00M0
3003
0000
;
