#TITLE:The Impossible Song 3;
#SUBTITLE:;
#ARTIST:Roxor;
#TITLETRANSLIT:;
#SUBTITLETRANSLIT:;
#ARTISTTRANSLIT:;
#GENRE:;
#CREDIT:;
#BANNER:;
#BACKGROUND:;
#LYRICSPATH:;
#CDTITLE:;
#MUSIC:The_Impossible_Song_3.ogg;
#OFFSET:0.000000;
#SAMPLESTART:100.000000;
#SAMPLELENGTH:12.000000;
#SELECTABLE:YES;
#DISPLAYBPM:*;
#BPMS:0.000000=700.000000
;
#STOPS:
;
#BGCHANGES:;
#KEYSOUNDS:;
#ATTACKS:;

//---------------dance-single - ----------------
#NOTES:
     dance-single:
     :
     Challenge:
     1033:
     201.928131,141.936447,471.165649,0.000000,270.920258,161280.000000,64512.000000,53760.000000,0.000000,0.000000,32256.000000,201.928131,141.936447,471.165649,0.000000,270.920258,161280.000000,64512.000000,53760.000000,0.000000,0.000000,32256.000000:
// measure 0
1000
0101
1110
1111
1101
1010
0010
1100
1110
1111
1011
1001
0100
1100
0111
1111
1101
1100
0010
1010
1110
1111
1101
0110
0010
1100
1101
1111
1110
1100
0100
1100
1011
1111
0111
1100
0100
1100
1110
1111
0111
1001
0001
1100
1110
1111
1110
0011
1000
1100
1110
1111
0111
0011
1000
1100
0111
1111
0111
1010
0001
1010
1110
1111
1110
1100
0010
0110
1110
1111
1110
1010
1000
1010
1110
1111
0111
0101
0100
1100
1011
1111
1011
1010
1000
1001
1101
1111
1101
1001
1000
1100
0111
1111
0111
0011
0001
0011
1101
1111
1101
1001
0100
1001
1101
1111
1110
1001
1000
0110
1110
1111
1011
1100
0100
1100
1110
1111
1101
1100
0001
1100
1110
1111
0111
1001
0010
0101
1110
1111
1101
1100
0010
1001
1011
1111
1110
1010
0010
0011
1110
1111
1011
1010
1000
1010
1110
1111
1011
1010
1000
1100
1110
1111
1110
1010
1000
1100
1110
1111
0111
0101
1000
0110
1110
1111
0111
0110
1000
1010
0111
1111
1110
1010
0001
1100
1101
1111
0111
1010
0100
1010
1011
1111
1110
1010
1000
0110
1011
1111
1011
1010
,  // measure 1
0100
1100
1101
1111
1101
1001
1000
1100
1011
1111
0111
1001
0010
1100
1110
1111
0111
1001
1000
0110
1101
1111
1101
1001
1000
0110
1101
1111
0111
1010
0010
1010
1110
1111
1110
1010
0010
1100
1101
1111
1101
0101
1000
0011
1110
1111
0111
1001
1000
0101
1011
1111
0111
0011
1000
1010
0111
1111
1011
0110
1000
1010
1101
1111
1101
0011
1000
1100
1110
1111
1110
1100
0100
0110
1110
1111
1011
0011
0010
1001
1011
1111
1011
0101
0100
1100
1011
1111
1110
1001
0001
0110
1110
1111
0111
1100
1000
1001
1101
1111
0111
1010
0100
0110
0111
1111
1110
1001
1000
1001
1101
1111
1011
1100
0100
1100
1110
1111
1110
1010
1000
1010
0111
1111
0111
0011
1000
1010
1101
1111
1011
1010
1000
0110
1101
1111
0111
1100
0010
0101
1110
1111
1110
1100
1000
1001
1011
1111
1101
1001
0010
1100
1011
1111
1011
1010
1000
1001
1011
1111
1101
0011
0001
1010
1110
1111
1110
0101
0100
0101
1110
1111
1110
0011
1000
1100
1101
1111
1101
1010
0010
1100
1101
1111
1110
0011
0100
1100
1110
1111
1110
1100
,  // measure 2
0001
1100
1110
1111
1101
1001
1000
0110
0111
1111
1101
0101
0001
0110
1110
1111
1011
1010
0100
1010
1101
1111
1101
0101
0100
0110
1011
1111
0111
0101
0001
0101
1110
1111
1101
0101
0010
1100
1101
1111
1011
1010
1000
0110
1011
1111
0111
0110
1000
1001
0111
1111
0111
0101
0001
1010
1101
1111
1101
1010
1000
1100
1110
1111
1110
0011
0010
0101
1011
1111
0111
1001
1000
1001
1011
1111
1011
0110
0010
1001
1110
1111
1110
0110
1000
1100
1101
1111
0111
1100
0001
1001
1110
1111
0111
0011
0001
1100
1110
1111
1011
1100
0010
1100
1101
1111
1110
1010
0001
1010
1011
1111
1101
1100
0010
0101
0111
1111
1011
1001
0010
1010
1101
1111
1011
0011
0001
1010
1110
1111
1011
0011
1000
1100
0111
1111
1101
1100
0010
1010
1011
1111
1110
1100
1000
1100
0111
1111
1110
1001
1000
1100
1101
1111
1011
0101
0010
1100
1011
1111
1101
1001
1000
1100
1011
1111
1110
0011
0001
0110
1110
1111
0111
1100
1000
1100
1110
1111
1110
0011
0010
1010
1110
1111
1101
0011
0010
1010
1110
1111
1011
0101
,  // measure 3
0001
1010
1110
1111
1110
1010
0001
1100
1101
1111
0111
0011
0100
1100
1110
1111
0111
1100
0001
1001
1101
1111
1110
0110
0100
1100
1110
1111
1101
0110
0010
1100
0111
1111
1110
1010
0100
1100
1011
1111
0111
1010
1000
1010
1110
1111
1110
0101
0100
0101
0111
1111
1110
0110
1000
0101
1110
1111
0111
1001
1000
1100
1110
1111
1011
0101
0100
1010
0111
1111
1011
1010
0001
1100
1110
1111
1011
1010
0100
1010
1110
1111
1011
1010
0100
1010
1101
1111
1110
1100
1000
0011
1101
1111
1110
0110
0010
1001
1101
1111
1110
1100
0010
0110
1011
1111
1011
0110
0100
1001
1110
1111
1101
1001
1000
0110
1101
1111
1101
1100
0100
0110
1110
1111
0111
1100
1000
0011
1110
1111
1110
1001
1000
0110
1110
1111
1101
0101
0100
0011
1011
1111
0111
0011
0100
1001
1110
1111
1101
1100
0100
1001
1011
1111
1110
0101
1000
0101
0111
1111
1011
0110
0100
0110
1101
1111
1101
0011
1000
0101
1110
1111
1101
0110
1000
0110
0111
1111
1101
0110
1000
0110
1101
1111
0111
1010
0100
1001
1110
1111
1110
1010
,  // measure 4
0010
1100
1101
1111
1101
1001
1000
1001
1011
1111
1101
1010
0001
1001
1101
1111
1011
1100
1000
0011
1110
1111
0111
1001
0010
1001
0111
1111
1011
1100
0100
1100
1011
1111
1011
1010
0010
1010
1110
1111
1110
1100
1000
1010
1110
1111
1101
0110
0100
1100
1110
1111
1110
1001
1000
1001
1110
1111
1110
0101
1000
1010
1110
1111
1110
1010
0100
0110
0111
1111
0111
0011
0100
0110
1011
1111
1110
0101
0100
0110
1011
1111
0111
1001
1000
0101
0111
1111
0111
0101
0100
1100
1110
1111
1110
0110
1000
1010
0111
1111
1101
1010
0100
1100
1110
1111
0111
1010
1000
1100
1110
1111
1110
0110
1000
0011
0111
1111
0111
1100
0010
0110
1110
1111
0111
1010
0010
0110
0111
1111
1101
1100
0001
0110
1011
1111
1101
1100
1000
1100
1110
1111
0111
0011
1000
1100
1011
1111
1011
0101
0010
0110
1110
1111
0111
0101
0010
0011
1101
1111
1101
0101
0010
1100
1110
1111
1101
0101
0010
0011
0111
1111
1011
1001
1000
1010
1110
1111
1101
1010
0001
1010
1101
1111
1110
0101
0010
1010
1110
1111
0111
1100
,  // measure 5
0100
1001
1101
1111
1110
1100
1000
1010
1110
1111
0111
1010
0100
1100
0111
1111
1110
1010
1000
1100
1110
1111
0111
0011
0001
1001
1011
1111
1101
1001
1000
1100
1101
1111
1110
1100
0010
0110
0111
1111
0111
0110
1000
1100
1110
1111
1110
1100
0100
1010
1101
1111
1110
1100
0100
1100
1110
1111
0111
0101
1000
0101
1101
1111
0111
1100
1000
1100
1110
1111
0111
0101
1000
1001
1110
1111
1011
1010
0010
1010
1110
1111
1110
1100
1000
0110
0111
1111
1110
0101
0010
1100
1011
1111
1011
1001
1000
0101
1011
1111
1101
1100
1000
0011
1110
1111
1110
1100
1000
0110
1110
1111
1110
1010
1000
0110
1110
1111
0111
1010
0100
1100
1101
1111
0111
0011
0010
0101
1110
1111
0111
1010
0100
1100
1101
1111
1101
1010
1000
0110
1101
1111
0111
0011
1000
0110
0111
1111
1011
1001
0010
0101
1011
1111
1101
1010
1000
0110
1110
1111
1011
0101
0010
1001
0111
1111
1011
1001
0010
1001
1011
1111
1011
0011
1000
0101
1011
1111
1101
1100
0100
1010
1101
1111
0111
1010
0100
1010
1110
1111
1011
0110
,  // measure 6
0100
1100
1101
1111
1101
0011
0010
1001
1011
1111
1110
1010
1000
1001
1101
1111
1011
1001
0010
0101
1110
1111
1101
1010
0100
1100
1110
1111
0111
1100
1000
1100
1110
1111
1011
0110
0010
0110
1101
1111
1011
1100
1000
1010
1101
1111
0111
0101
0010
1010
1110
1111
1110
1010
1000
0101
0111
1111
1101
1010
1000
1100
1011
1111
1101
0110
0100
1100
1110
1111
1101
1010
0100
1001
1101
1111
1011
1100
1000
0110
1101
1111
0111
1010
0100
1001
1110
1111
1110
0110
0100
0101
1101
1111
1110
0110
0100
0110
1101
1111
0111
0101
1000
0011
1110
1111
1101
0011
1000
1100
1110
1111
1011
1010
1000
1001
1110
1111
0111
1001
0010
0110
1110
1111
0111
1100
1000
1100
1110
1111
0111
0110
0001
1010
1101
1111
0111
0011
0010
1001
1011
1111
1101
0101
0100
1001
0111
1111
1101
1001
0001
0110
0111
1111
1110
1100
0010
1010
1110
1111
1101
1100
0001
1100
1011
1111
1011
1100
0001
1001
1101
1111
0111
1001
0010
1100
1011
1111
1011
1010
1000
1010
0111
1111
1110
0110
0010
0011
1110
1111
1011
1100
,  // measure 7
1000
1010
1011
1111
1110
1010
1000
0110
1101
1111
1110
1100
1000
1100
1011
1111
1101
0011
1000
1100
1110
1111
1110
0011
0010
1100
1101
1111
1110
1001
0001
1100
1011
1111
0111
0110
0010
1100
1011
1111
0111
0110
1000
1001
1110
1111
1110
1100
0100
1100
1101
1111
1110
0110
0001
0110
1101
1111
1011
1100
0100
1100
1011
1111
1110
0101
1000
0011
1110
1111
1101
0011
0010
1001
1110
1111
0111
0011
1000
1100
1110
1111
1110
0101
1000
1100
1011
1111
1101
0011
1000
1001
1011
1111
0111
0011
0010
1100
1011
1111
1110
0110
1000
0110
1101
1111
1110
1100
0010
0110
1101
1111
1011
1010
0100
1010
1011
1111
0111
0101
0100
0011
1101
1111
1011
0011
0010
1100
1110
1111
1011
1001
1000
1010
1110
1111
1101
0101
1000
1100
1101
1111
1110
0101
1000
0110
1110
1111
1110
1001
0010
0011
1011
1111
1011
1001
0100
1100
1011
1111
1101
1100
1000
1001
1110
1111
1101
0101
0100
1001
1110
1111
1011
0011
0010
1001
1101
1111
1101
1001
0100
1010
1101
1111
1110
0110
1000
1001
1101
1111
1101
1010
,  // measure 8
0100
1001
1110
1111
1101
1001
0100
0110
1011
1111
1011
0110
0100
1100
1011
1111
1110
1010
1000
0011
1110
1111
1110
1100
0001
1100
1110
1111
1011
0110
0100
1100
1011
1111
1011
1001
1000
1100
0111
1111
0111
1001
1000
0110
1101
1111
1011
1100
1000
0101
1101
1111
1101
1010
1000
1010
1110
1111
0111
1010
1000
1010
1110
1111
1011
0110
0010
1010
1110
1111
0111
1010
0010
0101
1101
1111
1110
0011
0001
1001
1110
1111
1110
0101
0010
1010
1101
1111
1110
1100
1000
1100
1110
1111
1011
1001
1000
1010
1110
1111
1110
0110
0100
1001
1110
1111
1101
0110
1000
1100
0111
1111
1101
1001
1000
1010
1011
1111
1101
0011
0100
0110
0111
1111
0111
1001
1000
0101
1011
1111
1101
1100
0010
0011
1101
1111
0111
0011
1000
1100
1101
1111
1110
1100
1000
1010
0111
1111
1101
1010
0100
0110
1101
1111
1110
1010
1000
0110
1011
1111
0111
1100
0100
0101
1110
1111
1101
1010
0100
1100
0111
1111
0111
1100
1000
1010
1101
1111
1101
1010
1000
1010
1110
1111
1101
1010
0010
1100
1110
1111
1110
0011
,  // measure 9
0010
0011
1110
1111
0111
1001
1000
1001
1110
1111
1011
0110
1000
1100
1101
1111
1110
1001
0010
1001
1011
1111
0111
1100
0010
1100
1110
1111
0111
1001
1000
0101
1011
1111
0111
1010
0100
0110
1110
1111
1011
1100
1000
1001
1011
1111
0111
1010
1000
0101
1011
1111
1101
0110
0100
1100
1110
1111
1101
0110
0010
1010
1011
1111
1011
1010
0100
1010
1110
1111
1110
0110
0100
0110
0111
1111
1011
1010
1000
1010
1110
1111
1110
1100
0010
1100
1011
1111
1101
1010
0010
1100
1110
1111
0111
1100
1000
1100
0111
1111
1011
1010
0100
1100
1110
1111
0111
1100
0100
0011
0111
1111
0111
0011
1000
1001
1110
1111
1101
1010
1000
0110
1101
1111
1110
1010
0010
1001
1011
1111
1101
1001
0100
1100
1011
1111
1101
1001
1000
1001
1101
1111
1011
0110
0001
1100
1101
1111
0111
1010
1000
0110
1110
1111
0111
1100
1000
1100
1011
1111
1101
1100
1000
1010
0111
1111
1011
1010
1000
1100
1110
1111
1011
1001
1000
1001
1110
1111
0111
0101
0100
1001
0111
1111
1011
1010
0010
0011
1110
1111
1110
1100
,  // measure 10
1000
1010
1101
1111
1011
1001
1000
0101
1011
1111
0111
1100
0001
0101
1011
1111
0111
1100
1000
1001
1110
1111
1110
1010
0001
1100
1101
1111
0111
1001
0100
1010
1011
1111
1101
1010
1000
0101
1110
1111
1110
1010
0010
1010
1011
1111
1011
0101
0001
1010
0111
1111
1110
1010
0001
1010
1110
1111
1101
1010
1000
0101
1110
1111
1101
0011
1000
0101
1101
1111
0111
1100
0001
0011
1110
1111
1101
1010
1000
0110
1011
1111
0111
1010
0100
1010
1110
1111
0111
1010
0100
1100
1011
1111
0111
1010
0010
1001
1101
1111
1110
1100
0001
0110
1011
1111
1011
1100
0010
1001
0111
1111
1101
1001
0001
1100
0111
1111
0111
1001
1000
1100
1110
1111
0111
0110
0100
0110
1011
1111
1011
1010
0100
0011
1110
1111
1101
1001
0100
0101
1110
1111
1110
0101
0010
1010
1011
1111
1110
1010
0010
1010
1110
1111
0111
1100
1000
1100
1110
1111
1110
0110
1000
0110
1011
1111
1110
1100
0010
0011
1110
1111
1011
1010
1000
0011
1011
1111
0111
1001
0010
1100
1110
1111
1110
1010
1000
1001
1011
1111
1101
1001
,  // measure 11
0100
1100
0111
1111
1110
1100
0010
1010
1101
1111
1011
1100
0100
0101
1011
1111
1101
1001
0010
1010
1110
1111
1101
0101
1000
1100
1110
1111
0111
1001
0100
1010
1110
1111
1110
1100
0100
0101
1110
1111
1011
0101
0100
1100
1011
1111
1101
1010
1000
1010
1110
1111
1101
1100
0010
1010
1011
1111
1011
0011
0100
0110
1110
1111
1110
0110
1000
0011
1110
1111
1101
1100
0010
1010
1011
1111
1101
0011
1000
0101
1101
1111
1110
1001
1000
1001
1110
1111
1101
1001
0100
0110
1011
1111
1101
1010
1000
0101
1101
1111
1110
1010
0010
1001
0111
1111
0111
1100
1000
0011
1101
1111
0111
0101
0100
1010
1110
1111
1101
1001
0010
0011
0111
1111
1101
1001
1000
1001
0111
1111
1011
1001
0010
1001
1110
1111
1101
0110
0010
1010
0111
1111
1110
1100
0100
1010
1011
1111
1011
0110
0001
1010
1101
1111
0111
1010
0010
0101
1110
1111
1110
1001
0100
1001
1011
1111
1011
0110
1000
1100
1110
1111
1011
0110
0010
1010
1011
1111
1101
1100
0100
1001
1011
1111
1011
1010
1000
1100
1110
1111
1110
1010
,  // measure 12
0100
0011
0111
1111
1101
1100
0100
1100
1110
1111
1101
1010
0100
1010
1101
1111
1011
1100
1000
1010
1110
1111
1110
1100
1000
1100
1110
1111
0111
1100
0001
1100
0111
1111
1110
1100
1000
0101
0111
1111
1011
1100
0100
1001
1110
1111
1101
0110
0100
1100
1011
1111
1110
0110
0100
1010
0111
1111
1101
1001
0100
1100
1011
1111
0111
0110
1000
1010
0111
1111
1101
1001
0100
0110
1110
1111
1011
1010
0001
1100
1011
1111
0111
1010
0100
0011
1101
1111
1110
1001
1000
1010
1110
1111
0111
0011
0100
1010
0111
1111
0111
0101
0100
1001
1110
1111
1110
1100
0100
1010
1110
1111
1101
0110
1000
0110
1110
1111
1101
0011
0100
1001
1011
1111
1011
1001
0010
1010
1011
1111
0111
1001
0100
1100
0111
1111
1110
1001
1000
1100
1110
1111
1011
1100
1000
1100
1110
1111
1110
0101
1000
1001
1011
1111
1011
1001
0100
1010
1101
1111
1011
0110
1000
0110
1101
1111
1011
1100
1000
1100
1011
1111
1011
0101
0010
1100
1101
1111
0111
1100
0010
1100
1101
1111
1110
0110
0010
1100
1110
1111
1011
0011
,  // measure 13
0001
1100
0111
1111
1011
0011
1000
0101
1101
1111
0111
1001
1000
1001
1011
1111
1101
1010
0010
1001
1011
1111
1011
0110
0100
0101
1101
1111
1011
0110
0001
1010
1011
1111
0111
1010
0010
0110
1110
1111
0111
1001
0010
1001
0111
1111
1101
1010
0100
1100
1101
1111
1011
1010
0100
1010
1110
1111
1101
1100
1000
1100
1101
1111
1110
0110
0010
1001
1110
1111
1011
0011
1000
1010
1110
1111
1110
0110
0001
1100
1011
1111
1101
0110
1000
1010
0111
1111
0111
0011
1000
0101
1101
1111
1101
1010
0100
1010
1011
1111
1011
1010
0100
1010
0111
1111
1011
1010
0010
1001
1110
1111
1110
1010
1000
1001
1110
1111
0111
1001
0010
1001
1011
1111
1110
1100
1000
1001
1110
1111
1110
1100
0100
1001
1110
1111
1011
0011
1000
0110
1110
1111
0111
0101
0100
0011
1011
1111
1110
1010
0100
0110
0111
1111
1011
1100
1000
0110
1011
1111
1110
1100
1000
0110
0111
1111
1101
0110
1000
1001
1110
1111
1101
1010
0010
1100
1110
1111
1101
0011
1000
1100
0111
1111
1011
1001
0100
0110
1110
1111
1110
1100
,  // measure 14
1000
0011
1011
1111
0111
1010
1000
1010
1101
1111
1101
0011
0100
1010
0111
1111
0111
1100
0100
1010
1110
1111
1110
1001
0100
0101
1110
1111
0111
1001
1000
1010
1110
1111
1110
1010
0100
0011
1110
1111
1101
1010
1000
0101
1110
1111
1011
0011
1000
1100
1101
1111
1011
0011
0100
1100
1110
1111
1011
0110
0100
1010
1011
1111
1110
1010
0001
0101
1110
1111
1011
0011
1000
1010
1011
1111
0111
0011
0001
1010
0111
1111
0111
1010
0010
1100
1110
1111
0111
0110
1000
0110
1110
1111
1110
1010
1000
1010
1011
1111
1011
1010
0100
1100
1110
1111
1101
1010
0100
0101
0111
1111
1110
0011
1000
1001
1101
1111
1011
1010
1000
0110
1110
1111
1110
0101
1000
1010
0111
1111
1011
0110
0010
0110
1110
1111
1011
0101
1000
1010
1101
1111
1110
1010
1000
1010
1101
1111
1011
1010
0010
1100
0111
1111
1110
0011
0100
1010
1110
1111
1101
1100
1000
1001
1110
1111
1110
0011
0010
1010
1110
1111
1110
0110
1000
1001
1110
1111
1110
0110
0001
1001
1011
1111
1011
1010
1000
0101
1101
1111
0111
1100
,  // measure 15
1000
1010
1110
1111
0111
1001
1000
1001
1101
1111
1101
1100
1000
0110
1110
1111
0111
0011
0010
1001
1101
1111
1101
0011
0001
1001
0111
1111
1011
1010
0001
1010
1011
1111
1101
0101
0100
1100
1110
1111
0111
1100
1000
1100
1101
1111
1110
0011
0100
1010
1110
1111
0111
1001
1000
1100
1011
1111
0111
1100
0010
1001
1110
1111
0111
1010
1000
0110
1101
1111
1011
0101
0100
0101
0111
1111
1110
1001
0100
1100
1011
1111
0111
1010
1000
1010
1110
1111
1011
1001
0100
1010
1110
1111
1101
0011
1000
1100
1101
1111
1110
0101
0010
1100
1011
1111
1110
1010
0100
0110
1110
1111
0111
0110
1000
0110
1101
1111
1110
1001
1000
0101
1110
1111
0111
0011
0010
1010
1110
1111
0111
1001
1000
1010
0111
1111
1011
1010
0100
1100
0111
1111
1101
0011
0010
0011
1101
1111
1110
1010
0100
0101
1110
1111
1101
1100
1000
0110
1101
1111
1110
1001
0100
0101
1110
1111
0111
1010
0100
0110
0111
1111
0111
1100
0010
0110
1011
1111
0111
0110
1000
1010
1110
1111
1110
0011
0001
1100
0111
1111
1011
0011
,  // measure 16
0100
1100
1011
1111
0111
0110
0100
0110
1110
1111
1110
1010
0100
1001
1110
1111
1011
0110
0100
1100
1101
1111
1110
1010
1000
1001
1101
1111
0111
1100
1000
0110
1011
1111
1101
1010
0100
1100
1110
1111
0111
0110
1000
0101
1110
1111
1011
1001
0100
0110
1110
1111
1110
1001
0100
1100
1110
1111
1110
1010
0100
0101
0111
1111
1101
0101
0010
1010
1110
1111
1110
0011
0100
0101
1101
1111
1011
0101
0001
1010
1110
1111
0111
1100
0001
0101
1011
1111
1011
1001
0100
1001
1110
1111
1110
1100
0100
0101
1011
1111
1011
1100
1000
1100
1110
1111
0111
0110
1000
1001
1110
1111
1110
0011
0001
1100
1110
1111
0111
0101
0001
1100
1011
1111
1110
1100
1000
1010
1101
1111
0111
1010
0001
0110
1101
1111
0111
1010
1000
1100
1110
1111
0111
0101
0001
1100
1011
1111
1011
0110
0001
1001
1101
1111
1101
1001
0010
0101
1110
1111
1011
0011
1000
1001
1110
1111
0111
1100
0100
0011
1011
1111
1110
1010
1000
0011
1101
1111
1110
0110
0100
1010
1110
1111
1110
1001
1000
1100
1101
1111
1101
0011
,  // measure 17
0010
0110
1101
1111
0111
0110
1000
1010
1101
1111
1110
1001
1000
0110
1101
1111
1101
1010
0010
1010
1011
1111
1011
0101
0100
1010
1110
1111
1101
1100
0100
1100
1101
1111
1011
0110
0100
1100
0111
1111
0111
0101
0100
1100
1110
1111
1101
1010
0001
0110
1101
1111
1110
1001
0010
1001
1110
1111
1011
1010
1000
1100
1110
1111
1101
0110
1000
1010
1110
1111
1110
1010
1000
1001
1110
1111
1110
0101
0100
1010
1110
1111
0111
1010
0100
1001
1101
1111
1101
0101
0001
0011
1110
1111
1110
1001
0001
1100
1011
1111
1110
0011
1000
1010
1011
1111
1101
1001
0001
1001
1101
1111
0111
1001
0100
1100
1110
1111
1011
1010
1000
1010
1011
1111
0111
1010
0010
1010
1110
1111
0111
1100
1000
1100
0111
1111
0111
1100
1000
0011
1110
1111
0111
1100
0001
1100
1011
1111
1110
0101
0010
1100
0111
1111
1011
1001
1000
1100
1101
1111
1110
1010
0001
1100
1110
1111
1011
1010
0010
1100
0111
1111
0111
0110
0010
1010
1110
1111
0111
0110
0100
1010
1110
1111
0111
1001
1000
1100
1110
1111
1011
1010
,  // measure 18
0010
1100
0111
1111
1101
1100
0100
1100
1110
1111
0111
0110
1000
1010
1110
1111
1101
1100
1000
0011
0111
1111
1110
0101
0001
1010
1101
1111
1110
0110
0100
1100
0111
1111
1011
1001
1000
0011
1110
1111
0111
1001
0010
1010
1101
1111
1110
1010
0100
1010
1110
1111
1110
0101
0100
1100
0111
1111
1110
1100
1000
0110
1101
1111
1011
1001
0100
1001
1101
1111
1110
1001
1000
1001
1101
1111
1011
0110
0010
1010
1011
1111
1110
0110
0010
1010
1110
1111
0111
1100
0010
1001
1101
1111
1101
1100
1000
1001
1101
1111
1011
0011
0100
0101
1110
1111
1110
1010
1000
1100
1011
1111
1101
0110
0100
1001
1011
1111
1110
1100
0010
0110
1110
1111
1101
1001
1000
1010
1011
1111
1110
0011
0010
0101
1011
1111
1110
1010
0100
1001
0111
1111
1110
1010
1000
1001
0111
1111
1110
1001
0100
0110
1110
1111
0111
0101
0100
1100
1110
1111
1011
1100
0001
1100
1110
1111
1110
0110
1000
0110
1110
1111
1110
0110
1000
1100
1110
1111
1110
0110
1000
0101
1110
1111
1101
0110
1000
0011
1110
1111
1011
1100
,  // measure 19
0001
1010
1011
1111
0111
1100
1000
1100
1101
1111
1101
1001
0001
1010
1101
1111
1011
0110
0010
0101
0111
1111
0111
1001
0100
0011
0111
1111
1101
1001
1000
0101
1011
1111
0111
1100
0100
1010
1101
1111
0111
0011
0010
1001
1101
1111
1101
1100
0100
1100
1101
1111
1011
1001
0010
1010
1110
1111
1110
1100
1000
1100
1011
1111
0111
1010
1000
1100
1110
1111
1110
0011
0001
0110
1110
1111
0111
0101
1000
1001
1110
1111
1110
1001
1000
1001
1101
1111
1011
0101
0010
0101
1101
1111
1101
1010
0100
1100
1110
1111
0111
0011
1000
1010
0111
1111
1101
0110
1000
1100
1011
1111
0111
1010
0010
1100
0111
1111
1110
1001
0001
1100
1110
1111
1101
0101
0100
1100
1110
1111
0111
1010
1000
1001
1101
1111
1101
0101
1000
0110
1110
1111
0111
0011
0100
1010
1101
1111
0111
1100
0100
0110
1101
1111
0111
1010
0100
1001
1011
1111
1101
0101
1000
1010
1101
1111
1011
1100
0100
0110
1110
1111
0111
1001
0010
1100
1011
1111
0111
0110
1000
0110
1110
1111
0111
1001
0001
0011
0111
1111
1101
0101
,  // measure 20
0010
1100
1011
1111
0111
1001
0100
1100
1101
1111
1110
1001
1000
0110
1101
1111
1110
1010
0010
0110
1011
1111
0111
0110
0001
0101
1101
1111
1101
1010
0010
1100
1110
1111
1110
0011
0100
1001
1101
1111
1101
1010
1000
1100
1011
1111
1110
1010
0100
1100
0111
1111
1011
0110
1000
0101
1011
1111
1011
0101
0100
1010
1011
1111
1110
0011
1000
1010
0111
1111
1011
0011
1000
1100
1011
1111
1110
0110
0100
0011
1101
1111
1101
0101
0010
1001
1101
1111
0111
1100
0010
1010
1110
1111
1101
1100
1000
1100
1101
1111
1110
1100
0010
1100
1101
1111
1101
1100
0010
0101
1011
1111
1101
1100
1000
0110
1101
1111
1101
0110
0100
1010
1110
1111
0111
0101
0010
1010
1110
1111
0111
0101
1000
0011
1101
1111
1011
1001
1000
1100
1110
1111
0111
1010
0100
1001
1011
1111
1110
1010
0001
1010
1101
1111
0111
1001
0100
0011
0111
1111
0111
1001
1000
1010
0111
1111
1110
1001
0100
0101
1101
1111
1101
0011
0100
1010
1110
1111
1110
1100
0001
0110
1101
1111
1110
0101
0010
1001
1011
1111
1011
1010
,  // measure 21
0010
1010
1110
1111
0111
1010
0100
1100
1110
1111
1101
0011
1000
1100
1011
1111
1110
1001
0001
1100
1110
1111
1110
1010
1000
1100
1110
1111
1101
0110
0010
1100
1101
1111
1110
1100
0001
0110
1110
1111
1101
0011
0100
1001
1110
1111
1011
1100
1000
0101
1110
1111
0111
1001
0001
1100
1110
1111
0111
1010
1000
0101
1110
1111
1101
0110
1000
0110
1110
1111
1101
1100
0100
1100
1110
1111
1101
1100
0001
0011
1011
1111
1110
0011
0100
1100
1011
1111
1011
1010
0100
1100
1101
1111
1110
0110
0100
0011
1011
1111
1110
0101
1000
0101
1101
1111
0111
0101
1000
0110
1011
1111
1011
1100
0001
1001
1110
1111
1110
1010
0010
1001
1101
1111
1110
0110
0010
0101
1101
1111
1101
0011
0001
1100
1110
1111
1101
1100
1000
0101
1101
1111
1110
1010
1000
1010
1110
1111
1110
1001
0010
1100
1011
1111
1011
0101
0010
1100
1101
1111
1011
0110
0100
1100
1110
1111
0111
1010
0010
1100
0111
1111
0111
0110
0100
1010
1110
1111
1101
1001
0001
1100
1101
1111
1110
0011
0010
1100
1011
1111
1110
1010
,  // measure 22
0010
0110
1101
1111
0111
1001
0001
1010
1101
1111
1101
0110
1000
1001
1011
1111
1110
1010
0100
0011
1101
1111
0111
1100
0010
1010
1101
1111
0111
1100
0100
0101
1101
1111
1110
1010
1000
1100
1011
1111
1110
1010
1000
1010
1101
1111
0111
1100
1000
1100
1110
1111
1101
0101
0010
1010
1101
1111
1110
1100
1000
1010
1110
1111
1101
1010
0010
0101
1101
1111
1110
0110
1000
1100
1011
1111
1110
0110
1000
1010
1110
1111
0111
0101
1000
0101
1101
1111
1110
1100
1000
0110
1101
1111
0111
1001
1000
0101
1011
1111
1110
1010
0100
0101
1110
1111
1011
1100
0100
0101
0111
1111
1101
1100
0100
0110
1101
1111
1110
0110
0010
0011
0111
1111
1101
1010
0100
1100
0111
1111
1110
0110
1000
1001
1110
1111
0111
1001
0010
1100
1101
1111
1101
1100
1000
0110
1011
1111
0111
1010
0100
0101
1110
1111
1110
0101
0100
1010
1101
1111
1011
1001
0100
1010
1110
1111
1011
0110
1000
0110
1011
1111
1101
0101
0010
1010
1101
1111
1101
0011
0100
0011
1101
1111
1011
0011
1000
1100
1011
1111
1011
1100
,  // measure 23
0010
0011
1011
1111
0111
0101
1000
0011
1110
1111
1110
0110
0100
1100
1110
1111
1011
0110
0001
1001
1110
1111
1011
1010
1000
0011
0111
1111
0111
0101
1000
1010
1011
1111
1011
1001
0001
0011
1101
1111
1011
1010
0100
1010
1110
1111
1110
1100
0010
1010
1101
1111
1101
1001
1000
0110
1011
1111
1110
1010
1000
0110
1110
1111
1110
1010
0001
0101
1110
1111
1101
1010
1000
1001
1011
1111
1101
1100
1000
1100
1110
1111
1101
0110
0100
0011
1110
1111
1110
1100
0001
0110
1110
1111
0111
1100
0100
1010
1110
1111
1011
0110
1000
1001
1110
1111
1101
1001
0100
0011
1110
1111
1011
0110
1000
1100
1101
1111
0111
1100
1000
0110
1110
1111
1011
0011
1000
1010
1011
1111
1101
1010
0010
1001
1110
1111
1110
1001
1000
0110
1011
1111
1110
0011
1000
0101
1011
1111
1110
0011
0100
1100
0111
1111
1110
1100
0010
1001
1101
1111
1011
0101
1000
0110
0111
1111
1011
1100
0100
0011
1110
1111
1011
0011
0100
1100
0111
1111
1110
0110
0010
0110
1110
1111
0111
1010
1000
1100
1110
1111
0111
1100
,  // measure 24
0001
1001
1101
1111
1101
1010
0001
0101
1110
1111
1101
0011
0010
1100
1110
1111
1011
0110
0001
0101
1110
1111
1101
0110
0100
1001
1110
1111
0111
0110
0010
0110
1011
1111
1101
1010
0010
1001
0111
1111
1101
1010
1000
1100
0111
1111
1101
1001
0001
1010
1110
1111
1101
1010
1000
1010
1101
1111
1110
1100
0100
1100
1110
1111
0111
1100
0010
0101
1101
1111
1101
1100
1000
0011
1110
1111
1011
1010
0100
1010
1101
1111
1101
1001
0100
0101
0111
1111
1110
1001
0010
0011
1101
1111
1101
0011
1000
1001
1110
1111
1011
1001
1000
0011
0111
1111
1110
1001
0100
1010
1110
1111
1011
1010
1000
1100
1110
1111
1011
0110
0100
1010
0111
1111
0111
1010
1000
1100
1110
1111
1110
1100
0100
0110
0111
1111
1110
1010
0100
1010
1110
1111
1011
1010
0010
1100
1110
1111
1011
1001
0100
1001
1011
1111
0111
1010
0001
1001
0111
1111
1110
0011
1000
1010
1101
1111
1110
1010
0100
1001
1110
1111
1110
1100
0100
0101
1101
1111
1011
1010
0001
1001
1011
1111
1011
1010
1000
1001
1101
1111
1101
1010
,  // measure 25
0010
0110
1110
1111
1110
0110
1000
0101
0111
1111
1110
0101
1000
1001
1101
1111
1110
0011
0010
1100
1110
1111
1011
0011
0100
1100
1110
1111
0111
1100
1000
0101
1110
1111
1110
1100
0100
0101
1101
1111
1101
1100
1000
1010
1110
1111
0111
1010
0100
1100
1110
1111
1011
1001
1000
0110
1110
1111
1110
0110
0010
1001
1101
1111
0111
1001
0010
0011
1011
1111
0111
1010
0010
0011
1011
1111
0111
1100
0100
1010
1110
1111
1101
1100
0100
1100
1011
1111
1101
1010
0100
0101
1011
1111
1011
1010
1000
1001
1110
1111
1110
1010
1000
0011
1101
1111
1110
0110
1000
1010
1011
1111
1011
0101
0010
1100
1011
1111
1101
0110
1000
1010
1101
1111
1110
0011
1000
1010
1110
1111
1101
1010
0010
0101
1110
1111
1101
0101
0100
1100
1011
1111
1011
0110
0100
1100
1110
1111
1101
1010
1000
1100
1110
1111
0111
1001
0010
0110
1110
1111
1101
1001
1000
0110
1110
1111
1101
1010
0001
1001
1011
1111
1110
1001
1000
0011
1011
1111
1110
1100
0010
1100
1011
1111
1101
0110
1000
0101
1110
1111
1101
0101
,  // measure 26
0100
1100
1110
1111
1110
1001
0010
1010
0111
1111
0111
0011
1000
1010
1110
1111
0111
1100
0010
1100
1101
1111
1101
1001
0010
1010
1101
1111
0111
1010
1000
1001
1011
1111
0111
1001
0010
1010
0111
1111
0111
1100
0010
1010
0111
1111
1110
1100
1000
1100
1011
1111
1101
1100
0100
1100
1110
1111
1011
1010
1000
1010
0111
1111
0111
1100
1000
1100
1110
1111
0111
1001
0010
1010
1011
1111
1101
0110
1000
1001
0111
1111
1110
1100
1000
0101
1101
1111
1110
0011
0100
1100
1101
1111
1011
0011
0001
0110
1110
1111
1110
0110
0100
1010
1110
1111
1101
0101
0010
1010
1110
1111
0111
0011
0010
1100
1101
1111
0111
0110
0010
0110
0111
1111
0111
1100
0100
1100
1011
1111
1101
0011
0100
0110
1011
1111
1101
1100
0100
0110
1101
1111
0111
1001
1000
0011
1110
1111
1110
0011
1000
0110
1110
1111
1110
0110
0001
1100
1101
1111
1110
1010
0010
0110
1110
1111
1110
1100
1000
1010
1110
1111
1011
0011
0010
0110
1011
1111
1110
1010
0100
1100
1011
1111
1101
1010
0100
0101
1110
1111
1110
0110
,  // measure 27
0100
1010
1110
1111
1110
1100
0010
1100
1110
1111
1110
1010
0100
0101
1101
1111
1101
1100
0010
1010
1110
1111
0111
1001
1000
1010
0111
1111
1110
0110
0100
1001
1101
1111
0111
1010
0001
1100
1011
1111
0111
0101
0100
1010
1110
1111
1101
1100
1000
1010
1101
1111
1110
0110
0100
1001
1110
1111
1110
1010
0001
1010
1110
1111
1110
0110
0100
0110
1110
1111
1011
1001
1000
1010
1011
1111
0111
1001
1000
1010
1011
1111
0111
1010
0010
0011
0111
1111
1101
1100
1000
1100
1110
1111
1101
0011
0100
1001
1011
1111
1110
1100
0010
0101
1011
1111
1101
1001
0001
1100
1101
1111
1011
1010
1000
1010
1110
1111
1110
1010
0100
0110
1011
1111
0111
0101
0100
0101
1110
1111
1101
0110
1000
1100
1101
1111
1110
0011
0010
1010
1011
1111
1101
1001
1000
0101
1101
1111
1101
0110
0010
1010
1011
1111
1101
0011
0100
1010
1101
1111
1011
1010
0010
1010
1011
1111
1011
1100
0100
1100
1110
1111
1011
1010
0100
1010
1101
1111
0111
1100
0010
1100
1110
1111
1110
0110
0100
1100
1011
1111
1101
1010
,  // measure 28
0001
0101
1011
1111
1110
0110
1000
1100
1011
1111
1110
1010
0001
1100
1101
1111
1101
0101
1000
0101
1101
1111
1011
0011
0100
1001
1110
1111
1110
0011
1000
0011
1011
1111
0111
1010
0010
0101
1101
1111
0111
1010
1000
1100
1101
1111
1101
1010
0010
1001
1110
1111
0111
1100
0100
1001
1101
1111
1011
1010
0001
0011
1101
1111
1110
0110
0010
0110
1110
1111
1011
1010
1000
0011
1011
1111
1101
1001
0001
0110
1110
1111
1011
1100
1000
1100
0111
1111
0111
1001
0100
0011
0111
1111
1110
1010
0010
1010
1110
1111
1101
0110
1000
1010
1110
1111
1101
1010
0001
0110
1110
1111
1110
0110
1000
1001
1110
1111
0111
1010
0010
1100
1101
1111
0111
0011
0010
0110
1110
1111
0111
1010
1000
1100
0111
1111
1101
0011
1000
1010
1110
1111
1011
1100
0001
1100
1110
1111
1101
1001
0100
1100
1101
1111
1110
1010
0100
1001
1110
1111
1101
1100
0001
1100
1011
1111
1110
0011
0100
0110
1110
1111
1101
1001
1000
0101
1011
1111
1101
1010
0100
0101
0111
1111
1110
0011
1000
0101
1110
1111
1110
0011
,  // measure 29
0010
1100
1101
1111
1110
1100
1000
1001
0111
1111
1110
1010
1000
1100
1110
1111
0111
1100
0010
1100
1011
1111
1110
1001
0100
1100
1110
1111
1011
0101
1000
1010
0111
1111
0111
1010
1000
1100
1011
1111
1110
0011
0001
0101
1101
1111
1110
1100
0010
1100
1110
1111
0111
0101
0100
0110
0111
1111
1101
0110
0100
1010
1101
1111
1101
1100
0100
0101
1110
1111
1101
1100
0100
1001
0111
1111
0111
1010
0100
1100
1110
1111
1110
1010
1000
1010
1110
1111
1110
1010
0010
1010
1110
1111
1101
1010
0001
1100
1011
1111
1011
0011
1000
0110
1011
1111
1110
0011
1000
1001
1110
1111
1110
1100
1000
1010
1011
1111
1101
1001
1000
1010
1101
1111
0111
0110
1000
1100
1110
1111
1110
1100
0010
1100
1101
1111
1101
1010
0010
1010
1011
1111
0111
1100
0100
1001
1101
1111
0111
0101
0100
0101
0111
1111
0111
0110
0100
0011
1011
1111
1101
0101
0010
1001
1011
1111
1011
0101
1000
1001
1011
1111
0111
0110
1000
0110
1011
1111
0111
0110
0010
1001
1110
1111
1110
0110
0100
1100
1011
1111
1110
1001
,  // measure 30
1000
0110
1011
1111
0111
1010
0100
0011
1110
1111
1110
1010
1000
1010
1101
1111
0111
1100
1000
0110
1101
1111
1011
0011
1000
0011
1101
1111
1110
0110
1000
1100
1101
1111
1101
0110
0010
1010
1110
1111
0111
0110
1000
0110
1101
1111
1011
1100
0100
1010
1011
1111
1110
0110
0100
1100
1101
1111
1011
1100
0100
0110
1110
1111
1101
1100
0001
0110
0111
1111
1110
0110
1000
1001
1101
1111
1011
0110
0100
1100
1110
1111
1110
1001
0010
0101
0111
1111
1011
1001
0100
1100
1101
1111
1110
1100
1000
1100
1110
1111
0111
1010
1000
1100
1110
1111
1101
0011
0100
1010
1101
1111
0111
1010
0010
1001
1110
1111
1110
0011
0010
1001
1101
1111
1110
0110
1000
0110
1110
1111
1101
1010
0100
1100
1011
1111
1011
1001
1000
1001
1110
1111
1101
1010
0010
1010
1110
1111
1101
0101
1000
0011
1011
1111
1101
0110
1000
1100
1101
1111
0111
1010
1000
1001
1110
1111
1101
1001
1000
0110
0111
1111
1011
1001
0010
1010
1110
1111
1101
1010
0100
1010
1101
1111
1110
0110
1000
1001
1011
1111
1011
1010
,  // measure 31
0010
1010
1110
1111
1110
1001
0100
1010
1011
1111
1110
1100
1000
1001
0111
1111
1011
0011
0100
0110
1110
1111
1110
1001
0001
1010
1011
1111
0111
1001
1000
0011
1110
1111
1011
1001
1000
1001
1101
1111
1110
0011
0100
1010
0111
1111
1101
1001
0100
0110
1011
1111
1011
0101
1000
0101
1110
1111
1011
1010
0010
0110
1110
1111
1110
0011
0010
1010
1101
1111
1101
0101
0100
0101
1101
1111
1011
1001
1000
1010
1110
1111
0111
1100
0100
0011
1110
1111
1011
0110
1000
1100
1101
1111
0111
1010
0100
1010
1101
1111
1101
0110
0010
0011
0111
1111
1110
1010
1000
1010
1110
1111
0111
1100
1000
1010
1011
1111
0111
0011
0001
1100
0111
1111
1011
1001
0010
1010
1110
1111
1011
1010
0100
1001
0111
1111
1101
1100
0010
0101
1011
1111
1101
1100
0100
1010
0111
1111
1011
1100
1000
1100
1101
1111
1110
1001
0010
0110
1011
1111
1011
0110
1000
1010
1101
1111
1101
1100
0010
1100
1110
1111
0111
1001
0001
1010
1110
1111
1011
1010
0010
1001
1110
1111
1011
1001
1000
1010
0111
1111
0111
0110
,  // measure 32
0001
0110
1110
1111
1011
0110
0001
1010
1110
1111
1101
0011
1000
0110
1110
1111
0111
1100
0010
1010
1110
1111
1110
1001
1000
1100
0111
1111
0111
1100
1000
1001
1101
1111
0111
1010
0010
1001
1011
1111
1011
0011
1000
1010
1110
1111
1101
0110
1000
0110
1011
1111
1011
1100
0010
1010
1101
1111
1101
0101
0001
1010
1110
1111
1110
0110
0010
0110
1110
1111
1101
1010
1000
1001
1011
1111
1110
1001
0100
1100
1101
1111
1011
1001
0010
1001
1011
1111
1101
0011
0010
1100
1110
1111
0111
1010
0100
0110
1101
1111
1101
0110
0010
1010
1110
1111
1101
0110
0100
1100
1110
1111
1101
0110
1000
1001
1101
1111
1101
1010
0010
1100
1110
1111
1110
1001
1000
0110
0111
1111
1101
0101
0100
1010
1101
1111
1101
0110
0100
1100
1110
1111
0111
1001
0010
1100
1101
1111
0111
1001
0010
1100
1011
1111
1110
0110
1000
0101
1101
1111
1110
1010
1000
0101
1101
1111
1110
1010
0010
0101
1110
1111
1110
1001
0010
1001
1011
1111
1101
1100
0010
1100
0111
1111
1101
1010
1000
0110
1011
1111
1101
0110
,  // measure 33
0100
1001
1101
1111
0111
0110
1000
1100
1110
1111
0111
0011
1000
1100
1110
1111
1101
1010
0010
1001
1011
1111
1011
1001
1000
0101
1011
1111
0111
1100
0100
1001
1110
1111
1011
0101
0100
1100
1011
1111
0111
1001
1000
1100
1110
1111
0111
1100
0010
0101
1011
1111
1110
1100
1000
0011
1011
1111
0111
0110
0010
0110
1110
1111
1011
1010
0001
1010
1011
1111
0111
1100
1000
0110
1011
1111
1011
1100
0010
1100
1110
1111
1101
0110
0010
1100
1011
1111
1101
1001
0100
0110
1101
1111
1101
0110
1000
1010
1110
1111
1101
0110
0001
0110
1101
1111
1110
1100
1000
1100
1110
1111
1110
1001
0100
1001
1011
1111
1011
1001
0100
1001
1110
1111
1101
1010
0010
1100
1011
1111
0111
1010
0100
1010
1011
1111
1101
1100
0100
1001
1110
1111
1110
0011
1000
1100
0111
1111
1011
0101
0100
1010
1110
1111
1011
1100
1000
0110
1101
1111
1110
1010
1000
1010
1110
1111
1110
1010
0010
1100
1101
1111
1101
1010
0100
0110
1011
1111
0111
1001
1000
1010
1101
1111
1110
1010
0100
1100
1101
1111
1110
0011
,  // measure 34
1000
1100
1011
1111
1011
0110
1000
1001
1110
1111
0111
1100
1000
0101
1110
1111
1110
1100
1000
0101
1110
1111
1101
1100
0100
0101
1110
1111
1101
1100
0010
1100
1110
1111
1011
1010
1000
1100
0111
1111
1101
1010
1000
1100
1101
1111
0111
0110
0010
1100
1011
1111
1110
0101
0010
0110
1110
1111
1101
0110
1000
1100
1101
1111
1110
1010
1000
0110
1110
1111
0111
1100
0010
0011
1011
1111
1101
1001
0100
0011
1101
1111
0111
0011
0001
1001
0111
1111
1011
1010
0100
1100
1101
1111
0111
0011
0010
1001
1110
1111
0111
1100
0001
0101
1011
1111
1110
1100
0100
0110
0111
1111
1110
0011
0100
0110
0111
1111
1110
1100
1000
0011
1101
1111
0111
1001
0100
0011
1011
1111
1101
1010
1000
1001
1101
1111
1101
0011
0100
0101
1101
1111
1110
1001
0100
0101
1011
1111
1110
1010
0100
1010
1110
1111
1110
1100
1000
1100
1110
1111
1011
0110
0010
1001
0111
1111
1110
1010
1000
1010
1011
1111
1011
1001
1000
0110
1110
1111
1110
1100
1000
1100
1011
1111
0111
1010
0010
1010
1110
1111
1011
1100
,  // measure 35
0001
0101
1011
1111
1011
1010
1000
1100
1110
1111
1101
0101
1000
1100
1101
1111
1011
1100
0100
1100
1101
1111
1011
1010
0010
0101
1101
1111
1101
0101
0100
1010
1011
1111
1110
1100
0010
1001
1110
1111
1011
0110
0100
1001
1110
1111
1110
1001
0001
0101
1011
1111
1101
1010
1000
1100
0111
1111
1011
1100
0100
0110
1101
1111
1011
1010
0010
1100
1110
1111
1110
0110
0010
0011
1101
1111
0111
1100
1000
0011
0111
1111
1101
0011
1000
0110
0111
1111
1110
1010
1000
1010
1110
1111
1110
1100
1000
0110
1101
1111
1110
1010
0100
0110
1101
1111
1011
1010
1000
1010
1110
1111
0111
0011
0100
0110
0111
1111
0111
1100
1000
1100
0111
1111
1011
1100
1000
1100
1101
1111
0111
1001
0010
1001
1101
1111
1101
0101
0100
1010
1101
1111
1011
1100
1000
1010
1110
1111
0111
1100
1000
1100
1110
1111
0111
0110
0001
1001
1110
1111
1110
1010
0100
0110
1011
1111
1110
1100
1000
1010
1110
1111
1011
1010
0100
1100
1101
1111
1101
1001
0100
1010
0111
1111
1011
0011
0100
1010
0111
1111
1110
0110
,  // measure 36
1000
1010
1110
1111
1110
0101
0001
1100
1110
1111
1011
1100
1000
1100
0111
1111
0111
1100
0001
1010
1110
1111
1011
0011
0100
1100
1110
1111
1011
0110
1000
1010
1101
1111
1101
0110
0100
1100
1110
1111
1101
1010
1000
1001
1110
1111
1011
1010
0100
0101
1110
1111
1110
1100
1000
1010
1011
1111
1110
1100
0100
1100
1110
1111
1011
0101
1000
0101
1011
1111
1011
1010
1000
1010
1110
1111
1110
1100
0100
1100
1011
1111
0111
1001
0010
0110
1101
1111
0111
0110
0100
0101
1110
1111
1110
0101
0010
1001
1011
1111
0111
1100
0100
1001
0111
1111
0111
1010
0100
1010
1101
1111
1110
1010
0100
1100
1110
1111
1101
0011
0100
0101
1101
1111
1101
0011
1000
1001
1110
1111
1011
0011
1000
0110
0111
1111
1110
1100
0100
1100
1011
1111
0111
1001
0010
0110
1110
1111
1110
0110
1000
1100
1110
1111
1101
1010
0100
1100
1101
1111
1110
1100
1000
0011
1110
1111
1110
0110
0100
1001
1110
1111
0111
1100
1000
1100
1110
1111
1110
0011
0001
1100
1110
1111
1110
0101
1000
1001
1110
1111
1101
1010
,  // measure 37
1000
0110
1101
1111
0111
1010
0010
1010
1101
1111
1110
1100
0010
1001
1101
1111
0111
0101
0100
1010
1101
1111
1101
1100
0100
0101
1110
1111
1110
1100
1000
1100
1101
1111
0111
1100
0100
1010
1011
1111
0111
1001
1000
1100
1011
1111
1110
0011
0100
0101
1110
1111
1011
1001
0100
1001
1110
1111
1110
1100
0100
1010
1110
1111
1110
0110
0010
1010
1011
1111
0111
0101
0100
1100
0111
1111
0111
1010
1000
1010
0111
1111
1101
0101
1000
1100
1011
1111
1110
1100
0001
1001
0111
1111
1101
1100
1000
1001
1101
1111
1110
1001
1000
1100
1011
1111
1101
1010
1000
1010
1110
1111
0111
1001
0001
1010
1110
1111
1011
1100
1000
1100
1110
1111
0111
1010
0001
1100
1101
1111
1101
0101
1000
0110
1110
1111
1011
0011
0010
0101
1110
1111
0111
1010
0100
1010
1011
1111
1101
0110
0010
1100
1110
1111
0111
0101
0100
1001
0111
1111
1101
1100
1000
0101
1110
1111
0111
0101
1000
0101
0111
1111
0111
0110
1000
1001
0111
1111
0111
1010
1000
1010
1011
1111
0111
0011
0100
1100
1110
1111
1110
1010
,  // measure 38
0100
0110
1110
1111
1101
0110
0100
1100
1110
1111
1110
1100
0010
1001
1101
1111
0111
0110
0001
0101
1110
1111
0111
1100
1000
1001
1101
1111
0111
1010
1000
0101
1101
1111
1110
0011
1000
1100
1101
1111
1110
0110
0010
0101
1110
1111
1101
0110
0001
1001
0111
1111
1011
1010
1000
1010
1011
1111
1110
1100
0100
1001
1011
1111
1011
1010
0001
1001
1110
1111
1110
0110
0100
1010
0111
1111
1011
0101
0001
1010
1011
1111
1110
0011
1000
0011
1011
1111
1101
1100
0010
1100
1011
1111
0111
0011
0100
1001
1011
1111
0111
1100
1000
0101
1101
1111
1110
1100
0010
1100
1101
1111
1101
1100
0100
1100
1101
1111
1110
1010
0100
1100
1110
1111
0111
0011
0001
1100
1101
1111
0111
1001
0010
0011
1110
1111
1011
0101
1000
0101
1101
1111
0111
1010
0100
0101
1101
1111
0111
0101
0010
1100
1101
1111
1110
1100
1000
0110
1101
1111
1101
0101
1000
1010
1110
1111
1011
0011
0010
0011
1110
1111
1110
0110
1000
1100
1110
1111
1110
0011
0100
0101
1110
1111
0111
0110
1000
1001
1101
1111
1110
0011
,  // measure 39
1000
1010
1110
1111
0111
1010
0001
1100
1110
1111
1101
1001
1000
1100
1101
1111
1110
1010
1000
0101
1101
1111
1110
0011
0010
1100
1110
1111
1101
1001
0100
1001
1110
1111
1011
0110
0100
1100
1110
1111
1011
0101
0100
1001
1101
1111
0111
1010
0010
1001
1110
1111
1110
1010
1000
0110
1110
1111
1011
1010
0010
0110
1110
1111
1101
1100
1000
1001
1101
1111
1101
1010
1000
0110
1101
1111
1110
1100
1000
1010
1101
1111
1101
0110
0100
1010
1101
1111
1110
1010
1000
0101
1110
1111
1110
1100
1000
1100
1110
1111
1110
0101
1000
1010
1101
1111
1110
0011
0100
0110
1011
1111
1110
1001
0010
1010
1110
1111
1011
1100
0100
1010
1110
1111
1101
1001
0100
1001
1110
1111
0111
1010
0100
1100
1110
1111
1110
0101
0001
0101
1110
1111
1011
1100
0001
1001
1101
1111
1110
0110
0100
0101
1011
1111
1101
1001
1000
0011
1110
1111
1110
1010
1000
0110
1101
1111
0111
0101
1000
1001
1101
1111
0111
0101
0100
1001
1101
1111
0111
1001
1000
0110
1110
1111
1101
1100
0100
1100
1110
1111
1110
1100
,  // measure 40
0010
1100
1011
1111
1110
1001
0100
1001
1110
1111
1110
0110
0010
1100
1101
1111
1110
0101
0100
1100
1011
1111
0111
0011
0100
0011
1011
1111
1011
0011
0100
1100
1101
1111
0111
1100
0010
1100
0111
1111
0111
0011
0010
1010
0111
1111
1011
0011
1000
1010
1101
1111
1011
1001
0010
1100
1011
1111
1110
1100
1000
1001
1011
1111
1110
1010
1000
1100
1110
1111
1101
1010
0100
1010
1101
1111
0111
1010
1000
1010
0111
1111
1011
1001
0100
1001
0111
1111
1011
0101
0010
1010
1011
1111
0111
0101
0010
1001
1110
1111
1011
1010
0001
0110
1101
1111
1110
1100
0100
0110
1110
1111
1110
0110
0001
0110
1011
1111
1011
0011
0100
1001
1110
1111
0111
1100
0100
1010
1011
1111
1101
1001
0100
0101
1110
1111
0111
1100
0001
0011
1011
1111
1110
1010
0010
1001
1101
1111
1110
0101
0100
1010
1110
1111
1110
1100
1000
1001
1110
1111
1101
0011
0100
1100
1110
1111
0111
1100
0100
0011
1110
1111
1110
1100
0100
0101
0111
1111
1101
1010
0100
0110
1110
1111
0111
0101
0010
0011
1101
1111
1101
0011
,  // measure 41
1000
1100
1110
1111
1101
1100
1000
1010
0111
1111
1011
0011
0010
1010
1110
1111
1110
1001
0100
0110
1110
1111
1101
1010
0010
1001
1110
1111
0111
1100
1000
0101
0111
1111
1011
1010
0001
0101
1110
1111
1110
1010
1000
0101
1011
1111
1011
1001
0100
0110
1110
1111
1110
1001
0010
1010
1101
1111
1110
1010
1000
1010
0111
1111
1110
0101
1000
1100
1011
1111
1110
1100
1000
0011
0111
1111
0111
0101
0010
0110
0111
1111
0111
1100
0010
0110
1101
1111
1101
1010
0100
1100
0111
1111
1110
0110
0100
1100
1011
1111
1011
0101
0010
0110
1101
1111
1110
1010
0100
1100
0111
1111
1101
1010
0010
1010
1101
1111
1110
0110
0100
1001
1110
1111
0111
0110
1000
0101
0111
1111
1110
0011
0100
0011
1101
1111
1110
1100
0100
0110
1110
1111
1101
0101
0010
0101
1110
1111
1101
0110
0100
0110
1110
1111
1110
1001
0010
1100
1110
1111
0111
1100
1000
1100
0111
1111
1110
1001
0100
0011
1101
1111
1110
1001
0100
1001
1110
1111
1011
0011
0010
0101
0111
1111
0111
1100
1000
1100
0111
1111
0111
0110
,  // measure 42
0100
1010
0111
1111
1011
0101
0100
0110
1110
1111
1110
0101
0100
1010
1110
1111
1110
1001
0001
1001
1101
1111
1110
0110
0010
1010
1110
1111
1011
0011
1000
1010
1011
1111
0111
1001
1000
1001
1110
1111
1101
1001
0100
1010
1110
1111
1101
0110
1000
0101
1110
1111
0111
1100
1000
1001
1011
1111
1101
0110
1000
0011
1110
1111
0111
1100
1000
0101
1101
1111
1110
0101
0010
1010
1101
1111
1101
1001
1000
1100
1110
1111
0111
1010
0010
0110
1101
1111
1110
1010
1000
1100
1110
1111
1101
1001
0100
0110
1101
1111
1011
1010
0001
1100
1101
1111
1110
1001
1000
1100
1011
1111
0111
0011
0010
1001
1110
1111
1011
0110
0100
1100
1101
1111
1101
1001
1000
1100
1011
1111
1110
1100
0010
0101
0111
1111
1011
1001
1000
1010
1110
1111
1110
1001
0100
0011
1011
1111
0111
1001
0010
0101
1011
1111
1110
1100
0100
1100
1110
1111
1110
1010
0100
1010
0111
1111
1110
1010
0100
1100
1110
1111
1110
0011
1000
1100
1011
1111
1101
1010
0001
0110
1101
1111
0111
1010
0100
1100
1110
1111
1011
0101
,  // measure 43
1000
0101
1110
1111
1110
1001
1000
1100
1110
1111
1101
1010
1000
1010
1101
1111
1110
0110
1000
0101
1110
1111
0111
0101
0010
0011
1110
1111
1101
0110
0100
0110
1101
1111
1110
0101
0100
1100
1110
1111
1011
1001
0010
1010
1101
1111
1110
1100
1000
0110
1110
1111
1101
1010
1000
1010
0111
1111
1101
0110
0001
1100
1110
1111
0111
0101
0100
0011
1110
1111
1011
0110
1000
1100
1011
1111
0111
1010
1000
1010
1110
1111
1110
1010
0010
0101
1110
1111
1110
1001
0010
0011
1110
1111
1011
0110
0100
1010
1101
1111
1110
0011
0010
1100
1110
1111
1011
1100
1000
1100
1110
1111
1101
1100
1000
1010
1110
1111
1110
0101
0100
1100
1110
1111
1110
1001
1000
1100
1101
1111
1011
0110
1000
0101
1110
1111
1011
1010
1000
1010
1110
1111
1110
0110
0100
1001
1110
1111
1011
1001
0100
1010
1011
1111
0111
0011
0010
1010
1110
1111
1011
1001
1000
0011
1110
1111
1011
1100
0100
1010
1101
1111
0111
1010
0100
0110
1110
1111
0111
1010
0010
0011
1101
1111
0111
1010
1000
0101
1110
1111
1101
1001
,  // measure 44
0100
1100
1101
1111
1101
1010
1000
0011
1110
1111
1101
0110
0100
1010
1011
1111
0111
1001
1000
1100
1110
1111
1011
0101
0100
0110
1110
1111
0111
0110
0010
1010
1110
1111
1101
0110
0100
1100
1011
1111
1011
1010
1000
1001
1110
1111
1110
0101
0100
1100
0111
1111
0111
0011
0100
1100
1101
1111
0111
0011
0100
1010
1101
1111
1011
0110
0100
1100
1110
1111
0111
1010
0010
1100
1011
1111
1110
1010
0010
1100
0111
1111
1101
0110
0010
0101
1110
1111
1110
0011
0100
1001
1101
1111
1101
0110
1000
1100
1011
1111
1101
0110
1000
1010
1011
1111
1110
0110
1000
1100
0111
1111
1110
1001
0010
1100
1110
1111
1110
0110
0010
1100
1011
1111
1101
1100
1000
0101
1110
1111
1011
0101
0100
1001
1110
1111
1011
0110
1000
1010
1011
1111
1101
0011
1000
0101
0111
1111
0111
1001
0100
1010
1101
1111
1110
1100
1000
1001
1101
1111
0111
1010
1000
1010
0111
1111
0111
1100
1000
0110
1101
1111
1101
1100
0100
1001
1101
1111
1110
0011
1000
1010
1101
1111
0111
0110
1000
1100
1101
1111
0111
1100
,  // measure 45
0100
0011
1110
1111
1110
0110
0010
1100
1011
1111
1110
1001
0100
1001
1011
1111
1101
1010
0100
1010
1110
1111
1011
1001
1000
1001
1110
1111
0111
0110
0010
0110
1101
1111
1101
0011
1000
1010
1101
1111
1110
1001
0010
0110
1011
1111
1011
1010
1000
1100
1101
1111
0111
1010
1000
0110
0111
1111
1110
0110
0001
1001
1110
1111
0111
0110
0010
1010
1110
1111
1110
0011
0100
0011
1110
1111
1011
1010
0010
1001
1110
1111
1101
1010
1000
1001
1110
1111
0111
0110
0100
1010
0111
1111
0111
1001
0010
0110
1101
1111
1110
0011
0010
1010
1101
1111
1110
0011
0001
1001
1110
1111
1011
1001
0100
1100
1110
1111
1011
0011
0100
1100
1101
1111
0111
1010
1000
1100
1110
1111
1011
0101
0100
1100
1110
1111
1110
1100
0001
1100
1011
1111
0111
1001
0001
1100
1011
1111
1110
0110
0100
0101
1101
1111
1101
0011
1000
0101
1110
1111
1110
1010
0001
1010
1110
1111
1101
1010
1000
1010
1110
1111
1011
0110
0100
0011
1110
1111
1101
0110
1000
1100
1101
1111
0111
1010
0100
1100
1101
1111
1101
0110
,  // measure 46
0001
0011
1011
1111
0111
1001
0100
1100
0111
1111
1101
1100
0100
1100
1110
1111
1011
0110
0100
1001
1011
1111
0111
1100
0001
1100
1110
1111
1110
1001
0100
0011
1110
1111
1110
1010
1000
1100
0111
1111
1110
1010
0010
0110
1101
1111
1101
0110
1000
0101
1110
1111
1110
1100
0100
1100
1101
1111
0111
1010
1000
1100
1110
1111
0111
1100
1000
1100
1110
1111
1110
1001
0010
0101
1110
1111
1110
1010
1000
1100
1101
1111
0111
1010
0100
0011
1101
1111
0111
0110
0010
1100
1101
1111
1101
1100
0001
0011
1011
1111
0111
0101
0010
1001
1110
1111
0111
1100
0100
1010
1011
1111
1101
1010
0100
1010
1110
1111
1011
0110
0100
1100
0111
1111
0111
1001
0010
1001
1110
1111
1110
0110
0010
1100
1110
1111
1110
1100
0010
0011
1101
1111
1011
0011
0010
1001
1101
1111
1110
0011
1000
1001
1101
1111
1110
0110
0001
1001
1101
1111
1110
0011
1000
1100
0111
1111
0111
1100
1000
1100
0111
1111
1110
1001
0100
1010
0111
1111
1110
0011
0100
1100
1110
1111
0111
1100
0010
1001
1011
1111
1011
1100
,  // measure 47
0001
0110
1101
1111
0111
1010
0010
1001
1110
1111
1101
1100
1000
1010
1110
1111
1011
1100
0010
1001
0111
1111
1101
1010
0010
0110
1110
1111
1110
1100
0100
1001
1011
1111
1110
0011
0001
1100
1110
1111
0111
0110
1000
0110
1110
1111
1110
0110
0010
1010
1110
1111
1011
1100
1000
0110
1110
1111
1110
0110
0100
1001
1101
1111
0111
1100
1000
1010
1101
1111
1101
1010
1000
0110
1110
1111
0111
0110
1000
0110
1110
1111
0111
1100
1000
1010
1101
1111
1011
0011
0100
0110
1110
1111
1110
1010
0010
0101
1011
1111
0111
1001
0010
0110
1110
1111
1101
0101
0001
1100
0111
1111
0111
1010
0100
1100
0111
1111
1101
1001
0100
0101
1101
1111
1110
1100
1000
1100
1101
1111
1110
0101
0010
1100
1110
1111
1101
1001
0100
1001
1110
1111
1011
1010
0100
1010
1110
1111
0111
0110
1000
1010
0111
1111
1011
0011
0010
0011
1101
1111
0111
0110
1000
0110
1110
1111
1101
1001
1000
0101
0111
1111
1011
1100
1000
0101
1101
1111
1011
1001
0100
0110
0111
1111
1101
1100
1000
1010
0111
1111
1101
1010
,  // measure 48
0100
1010
1110
1111
1101
1100
0001
0101
1110
1111
1110
1010
1000
1001
1110
1111
1110
1100
1000
0110
1101
1111
1110
0011
1000
1001
1110
1111
1110
1001
1000
1001
1110
1111
1110
0110
1000
1100
1110
1111
0111
0011
0100
1100
1011
1111
1110
1010
0100
1010
1101
1111
0111
1001
0010
1010
1110
1111
1101
0101
0100
1010
1011
1111
1011
1001
1000
0101
1110
1111
1110
1100
1000
1010
1110
1111
0111
1001
0100
1010
1110
1111
1011
1100
0100
0011
0111
1111
0111
1001
0100
1100
1101
1111
1011
0101
0100
1001
1110
1111
1110
1010
0100
1010
1101
1111
1011
0110
0100
1010
1101
1111
1110
0101
0001
1100
1110
1111
1011
1010
0001
0011
1110
1111
1110
1010
0010
1100
1011
1111
1110
1100
0010
1100
0111
1111
1011
0011
0001
1001
1110
1111
0111
0011
0010
1001
1101
1111
1101
0011
1000
0110
1101
1111
1110
1100
0100
1010
1101
1111
1011
0101
0001
0101
0111
1111
1110
1001
0001
1001
1110
1111
0111
1010
0010
1010
1110
1111
1101
1010
1000
0110
1101
1111
0111
0110
0100
1001
1110
1111
0111
0110
,  // measure 49
0001
1010
1110
1111
0111
1001
0001
1001
1101
1111
0111
0011
0100
0110
1011
1111
1101
0101
0100
1100
1101
1111
0111
1100
0100
1001
1110
1111
1110
1010
0010
1100
0111
1111
1101
1100
1000
1010
1011
1111
0111
1010
1000
0110
1101
1111
0111
0011
0100
1100
1011
1111
1011
1010
0010
1010
1110
1111
1110
1001
1000
1010
1110
1111
1110
1010
0010
0011
1110
1111
1110
1100
1000
0110
1110
1111
1110
1001
0100
0101
1110
1111
0111
0101
1000
1100
1110
1111
1101
0101
0010
0101
1101
1111
1011
1010
0010
0110
1101
1111
0111
1001
1000
1100
1011
1111
0111
1010
0010
0011
1110
1111
0111
1100
1000
1100
1011
1111
1011
1010
0001
1100
1101
1111
0111
0011
0010
1010
1110
1111
1110
1100
0100
0011
0111
1111
0111
0110
1000
1100
1110
1111
0111
1100
0010
0101
1110
1111
1011
0110
1000
0110
0111
1111
1011
1010
1000
1100
0111
1111
1110
1100
0100
1100
0111
1111
0111
0110
1000
1100
1011
1111
1110
1010
1000
0011
1101
1111
1011
1100
0010
0110
0111
1111
0111
0011
1000
1010
1101
1111
1101
0101
,  // measure 50
1000
0110
1110
1111
0111
1100
0010
0011
0111
1111
1101
0110
0010
1010
1011
1111
1011
1001
1000
0101
1110
1111
1101
0110
1000
0011
0111
1111
1101
0101
0100
1100
0111
1111
1110
1010
1000
1010
1110
1111
1101
1100
0010
1100
1011
1111
0111
0011
0100
0110
1110
1111
1110
1100
1000
1001
1011
1111
0111
0011
0001
0101
1110
1111
1011
1001
0010
1100
0111
1111
0111
1001
0100
1001
1101
1111
0111
0011
0001
1010
1011
1111
1110
1010
0100
1001
1110
1111
1110
1001
1000
1010
1011
1111
1011
1010
0010
0101
1110
1111
0111
1100
0100
0110
0111
1111
1011
1100
0100
1100
1101
1111
1101
1010
1000
1010
1110
1111
0111
0101
0001
1010
1101
1111
0111
1001
1000
1100
1101
1111
1101
1001
1000
0110
1110
1111
1011
1100
0010
0011
1101
1111
1011
1100
1000
1100
1101
1111
0111
1100
1000
0110
1110
1111
1110
1001
0100
1010
1110
1111
1101
1001
0100
1010
1101
1111
1101
1100
1000
1100
1110
1111
1110
1001
1000
1100
1101
1111
1101
0110
1000
0011
1101
1111
1101
1100
0100
1010
1110
1111
1011
0110
,  // measure 51
0010
1100
1110
1111
1011
1010
0100
1100
1011
1111
1011
1100
0001
1010
0111
1111
0111
0101
0100
1010
1101
1111
1101
1010
1000
0101
1110
1111
1110
0101
1000
1100
0111
1111
1110
1100
0010
1010
1110
1111
1011
1100
0100
0101
1110
1111
0111
0011
0100
1001
1101
1111
1110
1100
1000
1010
0111
1111
1110
0110
0010
0110
1110
1111
1011
1100
0010
1010
1101
1111
1110
1100
1000
1100
1110
1111
1011
0101
0100
1100
1101
1111
1110
1100
0100
1100
1110
1111
1101
1001
0100
0110
1110
1111
0111
0101
0100
1100
1011
1111
0111
0110
1000
1100
1101
1111
0111
1010
1000
0110
1110
1111
1101
1001
1000
0011
1110
1111
0111
1010
1000
1001
1110
1111
1110
1100
1000
0110
1110
1111
0111
1100
1000
1100
1110
1111
1101
1010
0010
1001
0111
1111
0111
0101
1000
0110
1110
1111
1011
0110
0010
0101
0111
1111
1110
0110
1000
1010
1101
1111
0111
0110
1000
0011
1110
1111
1110
1001
0100
0110
1101
1111
1110
1010
1000
0011
1110
1111
0111
1100
0010
1010
1110
1111
1101
1001
0001
0110
1110
1111
1011
1100
,  // measure 52
1000
0011
0111
1111
1011
0011
1000
1100
1101
1111
1011
0011
0010
0101
1110
1111
1011
1010
0001
0110
1011
1111
1101
1100
0100
0101
1011
1111
0111
1001
1000
0101
1011
1111
1110
1100
0010
0101
1101
1111
1011
0101
0100
0110
1110
1111
1101
0011
1000
1001
1110
1111
1110
0110
1000
0110
1101
1111
1011
0101
0001
1010
1110
1111
1110
0011
0001
1001
1110
1111
1011
0101
1000
0110
1101
1111
1110
0110
0100
1100
1011
1111
1011
0110
0100
1010
1110
1111
1011
0101
1000
1100
1110
1111
1110
1010
1000
1010
1011
1111
1101
0110
1000
0101
1011
1111
1110
1010
1000
0101
1011
1111
0111
1100
0100
1100
1011
1111
0111
1100
1000
0101
0111
1111
1011
1010
0100
1010
1110
1111
1011
1001
1000
1100
1110
1111
0111
1010
1000
1100
0111
1111
1011
0101
0100
1100
1011
1111
0111
1001
1000
1001
1011
1111
1110
0011
1000
1010
1101
1111
1101
1100
0010
1100
1011
1111
1101
1010
0010
0110
1110
1111
0111
0011
1000
0011
1101
1111
0111
0110
1000
1100
1110
1111
1110
0101
0100
1010
1011
1111
1011
0011
,  // measure 53
1000
1100
1110
1111
1110
1100
1000
1100
1101
1111
1110
1100
0001
1100
0111
1111
1011
1001
1000
0101
1101
1111
1110
0011
0010
1010
1101
1111
1110
0110
0010
0101
1101
1111
1110
0011
0010
1010
1110
1111
1011
0110
0001
1100
1110
1111
1011
1001
1000
1010
0111
1111
0111
1001
0010
1100
1011
1111
0111
1010
0010
1001
0111
1111
0111
1001
0010
0110
1110
1111
1101
0110
1000
1010
1101
1111
0111
1100
0100
1010
1110
1111
1110
1100
0100
1001
1110
1111
1110
1001
0001
1100
1110
1111
1011
1010
0100
1100
0111
1111
1110
0110
1000
1100
1110
1111
1011
1001
0001
1010
1110
1111
1011
1100
1000
1100
1011
1111
1011
0101
0100
1100
0111
1111
1101
1001
0010
1100
1011
1111
0111
0110
0100
0011
1101
1111
1011
1100
0010
0101
1110
1111
1011
0101
0100
1010
0111
1111
1101
1001
1000
1100
1101
1111
1110
1010
1000
0101
1110
1111
1101
1010
0010
0110
0111
1111
1011
1001
1000
0110
0111
1111
1110
1001
0001
1100
1101
1111
0111
1100
0001
1100
1101
1111
1110
1010
0010
0011
0111
1111
0111
0011
,  // measure 54
0100
1001
1011
1111
0111
1010
0100
1100
1110
1111
1011
1100
1000
0011
1101
1111
1110
0011
0100
0011
0111
1111
0111
1010
0010
1010
1101
1111
0111
0011
0010
0101
1110
1111
1011
1010
0010
1010
1101
1111
1110
1100
1000
0101
1110
1111
0111
1100
1000
1100
1110
1111
0111
0110
0001
0101
1011
1111
0111
0101
0100
0101
1110
1111
0111
1100
0100
0011
1110
1111
0111
0110
1000
1001
1011
1111
0111
1010
0100
1001
1011
1111
0111
0011
0001
1010
1011
1111
1110
0110
1000
1010
1110
1111
1011
1010
0010
1010
1011
1111
1101
0110
1000
1001
1101
1111
0111
0011
1000
0101
1011
1111
1011
0101
1000
0101
1110
1111
1011
1100
1000
0110
1011
1111
1101
1010
0100
1100
1011
1111
0111
1001
0100
1001
1101
1111
1110
0110
1000
0110
1011
1111
1101
1100
0001
1001
1011
1111
1110
1100
0001
0101
1110
1111
0111
1100
0100
1010
1101
1111
1110
1100
0100
1010
1110
1111
1101
1100
0100
1100
1011
1111
1101
1001
0100
0110
1011
1111
0111
1100
1000
1001
1110
1111
0111
0110
0010
0011
1110
1111
1011
0110
,  // measure 55
0001
1001
1011
1111
1011
1010
0010
1100
1011
1111
1011
1001
1000
1001
0111
1111
1110
1010
0001
1010
1101
1111
1110
1100
0100
1010
1011
1111
1011
1100
0100
0110
0111
1111
0111
1100
1000
1100
1110
1111
0111
1100
0100
1100
0111
1111
0111
0011
0010
0011
1110
1111
1110
0101
0100
1100
1101
1111
1011
0101
1000
1100
1110
1111
1110
1100
0100
0011
1110
1111
1101
1010
0100
1010
1110
1111
0111
1100
1000
1100
1011
1111
1011
0110
0001
0101
1101
1111
1011
1100
1000
0110
1101
1111
0111
1010
1000
1100
1101
1111
1101
1100
0100
1001
0111
1111
1101
1001
0100
1010
1011
1111
1101
0101
0100
1010
1011
1111
0111
1001
1000
1100
1011
1111
1110
1100
1000
1001
1110
1111
1101
0101
0100
0110
1101
1111
1011
0101
0001
0011
1110
1111
1110
0011
0100
1001
1110
1111
1110
1010
1000
0110
1101
1111
1110
1010
1000
1100
1101
1111
1110
1010
0010
0110
1110
1111
1011
1100
0001
0011
1101
1111
1110
1100
0100
0110
1110
1111
1101
1010
0001
0110
1110
1111
0111
0110
1000
0110
1101
1111
1110
1010
,  // measure 56
0010
0110
1110
1111
1110
1100
1000
1100
1110
1111
1110
1010
0100
1100
0111
1111
0111
1100
1000
1010
0111
1111
1011
1001
0100
1100
0111
1111
0111
0101
0100
0110
1011
1111
1110
1010
0100
1010
1110
1111
1011
0011
0100
1010
1101
1111
1011
0101
0100
1100
1011
1111
1101
1100
1000
0101
1110
1111
1110
1010
0100
1100
1110
1111
1110
1010
1000
1100
1101
1111
1110
1100
0100
1100
1110
1111
1110
0110
0010
1100
1101
1111
0111
1100
0001
0110
1110
1111
1101
1010
0100
1010
1011
1111
1011
0110
0010
1100
1101
1111
1011
0110
0100
1100
1110
1111
1110
1001
0100
0101
1110
1111
0111
1010
0100
0011
1110
1111
1011
1100
0100
1001
1101
1111
1101
1001
0010
1010
0111
1111
1101
0011
0010
0011
1110
1111
0111
0011
0001
0110
1110
1111
1101
0011
1000
1100
1110
1111
1110
1100
0100
0011
1110
1111
1101
0011
1000
0101
0111
1111
1101
0011
1000
1100
1101
1111
1011
1010
0001
1100
1011
1111
1011
0011
0100
1100
1110
1111
1101
0011
1000
1100
1101
1111
1110
1010
0100
0110
1110
1111
1110
0011
,  // measure 57
1000
1010
1101
1111
1110
1010
0010
0011
1101
1111
1101
0110
0010
1100
1011
1111
0111
0110
0100
0110
1110
1111
1110
1010
0010
1010
1011
1111
0111
0110
1000
1010
1101
1111
1110
0011
0100
0110
0111
1111
1101
0101
1000
1001
1110
1111
1110
1010
0100
1001
1110
1111
1110
0110
1000
1100
0111
1111
1110
0011
0010
0101
1101
1111
0111
1010
1000
1100
1101
1111
1101
0110
0100
0101
1110
1111
1101
0101
0001
0011
1101
1111
1101
1010
0010
1100
1101
1111
1101
1010
0010
1010
1110
1111
0111
0101
1000
0110
1110
1111
1110
1100
0010
1001
1101
1111
0111
0011
0010
0011
1011
1111
1110
1100
0100
1001
1110
1111
1101
1001
1000
1100
1101
1111
1011
1100
1000
0011
1011
1111
0111
1001
0001
1001
1011
1111
0111
0011
0100
0101
0111
1111
1101
1010
1000
1100
0111
1111
1011
1100
0010
1100
1011
1111
1101
0110
0100
0110
1110
1111
1110
1001
0001
0011
0111
1111
0111
0110
0010
1100
1110
1111
1011
0101
1000
1001
1110
1111
1101
0101
0010
0011
1110
1111
1101
1100
1000
1010
1110
1111
1110
1010
,  // measure 58
0100
1001
1110
1111
1110
1100
0100
0101
1101
1111
1101
0011
0001
1010
0111
1111
1110
1100
1000
0101
1110
1111
1011
0011
0100
1100
1101
1111
1011
0101
0100
1010
1110
1111
1011
0110
0100
1100
1110
1111
0111
0011
0100
0110
1011
1111
1011
1010
0010
1010
1110
1111
1101
0101
0100
0011
1011
1111
1110
0101
0010
1100
1011
1111
1011
0101
1000
1001
1110
1111
1110
0101
1000
1010
0111
1111
1110
1001
1000
1100
1110
1111
1011
0110
1000
1100
1110
1111
0111
0110
0001
1001
1110
1111
1101
1100
0100
1100
1101
1111
1110
0101
0001
1010
1110
1111
1110
1010
1000
1100
0111
1111
1011
0101
0001
0110
1110
1111
1011
0110
1000
1100
1110
1111
1011
1010
1000
1010
1110
1111
0111
1001
1000
1001
1011
1111
1101
1010
0001
1010
1110
1111
1110
0011
0010
1010
1011
1111
1011
1001
1000
1010
0111
1111
1110
0011
0100
1100
1011
1111
1101
1001
0010
0011
1101
1111
0111
1010
0010
1010
1110
1111
1110
1010
1000
0110
0111
1111
1110
1010
0010
1001
1110
1111
0111
0011
0100
1100
1110
1111
1101
1001
,  // measure 59
1000
1100
0111
1111
1101
1100
1000
1100
1110
1111
1110
0011
0010
1100
1011
1111
1101
0101
0001
0101
0111
1111
1101
1100
0100
1001
1101
1111
1101
0011
0001
1010
1110
1111
0111
0101
1000
1100
1110
1111
1110
1010
0010
1100
1110
1111
1011
1010
0010
1010
0111
1111
0111
1010
1000
1100
1110
1111
1110
0011
0010
1100
1110
1111
1011
1100
1000
1001
0111
1111
1101
1001
1000
1010
1101
1111
1110
1100
0100
1010
1011
1111
1101
1010
0100
0110
0111
1111
1101
1010
0100
1001
1101
1111
1101
0011
0010
1100
0111
1111
1011
0110
0010
0110
1110
1111
1011
1001
1000
1100
1110
1111
1101
0101
1000
1100
1110
1111
1110
0110
0010
1001
1110
1111
1101
1100
0001
0110
1110
1111
1101
1010
0010
1100
1101
1111
1110
1100
0010
1001
1101
1111
0111
1100
0100
0110
1101
1111
1101
0101
1000
1001
1110
1111
0111
1010
1000
1100
1011
1111
0111
1010
0010
1001
1110
1111
1101
0011
0001
1100
1011
1111
1110
1100
1000
0101
0111
1111
1101
0101
1000
0011
1101
1111
0111
1100
0010
0101
0111
1111
1101
0011
,  // measure 60
1000
0110
0111
1111
1011
0110
1000
1010
1101
1111
1011
1001
0010
1010
1011
1111
1110
1100
0001
1100
0111
1111
1110
1100
1000
0011
1011
1111
1101
1001
0100
1100
1011
1111
0111
0011
1000
0110
1101
1111
1110
1010
1000
1001
1110
1111
0111
1100
0010
0101
0111
1111
1110
1010
0010
1100
1011
1111
0111
0101
0001
0011
1011
1111
1011
1100
0100
0110
0111
1111
1011
1001
0010
1001
1101
1111
1101
1010
1000
1010
1101
1111
0111
1010
0100
1100
1110
1111
0111
0101
0010
0011
1101
1111
1011
0110
1000
0110
1101
1111
1110
1001
0010
0110
1110
1111
1101
1100
0001
0101
1011
1111
1110
0101
1000
0011
0111
1111
1101
1010
1000
1010
1101
1111
0111
1001
0001
0101
1110
1111
1011
1100
0010
0101
1110
1111
1011
0101
0100
1100
0111
1111
1110
1001
0100
1010
0111
1111
1011
1100
1000
1100
1110
1111
1110
0011
0100
1100
1110
1111
1101
0011
0100
1100
1110
1111
1110
1010
0010
1100
1110
1111
0111
1100
0100
0011
1110
1111
1101
1010
0100
0011
1110
1111
1101
1010
1000
0110
1110
1111
0111
0011
,  // measure 61
0100
1100
1101
1111
1011
0101
0001
0110
1101
1111
0111
1100
0100
1100
1101
1111
0111
1010
1000
1100
1101
1111
0111
0011
1000
1010
1110
1111
1110
1001
0100
1100
1101
1111
1110
0101
0100
1001
1011
1111
1011
1100
0100
1100
1110
1111
0111
0101
0001
1100
1101
1111
1011
1010
0100
1010
0111
1111
1011
0011
1000
0110
1101
1111
1011
1100
0100
0110
1101
1111
1110
0110
0100
1010
1101
1111
1011
0101
0100
1100
1101
1111
0111
1100
0010
1100
0111
1111
1011
1001
1000
1010
1110
1111
1101
0110
0010
0101
1110
1111
1110
0110
0001
0011
1101
1111
1101
1100
0100
0110
0111
1111
1101
0110
0100
0110
1101
1111
1011
0011
0100
1010
1101
1111
1101
1010
0001
1010
1101
1111
1011
1010
1000
1001
1110
1111
1101
0110
1000
0110
1011
1111
1011
1100
1000
1100
0111
1111
0111
0110
0100
1001
1110
1111
1110
1010
0100
0110
1101
1111
1110
1100
1000
0110
1101
1111
1110
0011
0100
0101
1110
1111
1101
0110
0010
0011
1101
1111
0111
0101
0010
1100
1110
1111
0111
0110
0010
0110
1110
1111
1011
1010
,  // measure 62
0100
0110
1011
1111
1011
0101
1000
1001
1101
1111
1011
1010
0100
1010
1101
1111
0111
1001
1000
1100
1011
1111
1101
0101
0100
1100
0111
1111
1110
1010
0010
1100
1101
1111
1101
1010
0001
1100
0111
1111
0111
0110
0010
1100
1110
1111
1101
1010
0100
1010
0111
1111
1101
0110
0010
1100
0111
1111
0111
0011
1000
1100
1101
1111
0111
1001
0100
1100
1110
1111
1011
0101
1000
0101
0111
1111
1110
0011
1000
1100
1011
1111
0111
0110
0010
1010
1101
1111
1110
0110
0100
0011
1011
1111
1101
0110
0010
1100
1011
1111
0111
0011
1000
0101
1110
1111
0111
0011
0010
1010
1101
1111
1011
0110
1000
0101
1110
1111
1011
1010
1000
1001
1110
1111
1011
1010
0100
1100
1110
1111
1110
1001
0010
1100
1011
1111
0111
1010
1000
0011
1011
1111
0111
0011
0100
1100
1110
1111
1101
1010
1000
0110
1110
1111
1110
1010
1000
1001
1011
1111
1011
1100
0010
1010
1110
1111
1011
0110
0100
1010
1110
1111
1101
1100
0010
0110
1011
1111
1110
0110
1000
1010
1110
1111
1011
0101
1000
1100
1110
1111
1011
0110
,  // measure 63
0001
1100
0111
1111
1110
0101
0100
1100
0111
1111
1011
1100
1000
1010
1110
1111
1110
0110
1000
0011
1110
1111
0111
0011
0100
1010
1110
1111
1101
0101
1000
0101
1110
1111
1110
1100
1000
1010
0111
1111
0111
0110
0001
0110
1011
1111
1110
1100
0001
1010
1101
1111
1110
1100
0001
0110
1110
1111
1110
1010
1000
1100
1110
1111
1101
0011
0100
1010
1011
1111
1011
0101
1000
0011
1110
1111
1101
1010
1000
0101
1101
1111
1101
1100
0100
0101
1101
1111
1011
1010
1000
1001
1011
1111
1101
0011
1000
1001
1110
1111
1011
1100
1000
0011
1110
1111
0111
1100
1000
1001
1110
1111
1110
1010
0010
0110
1101
1111
1110
1001
1000
1100
1011
1111
1101
0101
1000
1100
1110
1111
1101
0101
0100
1001
1101
1111
1101
0101
0100
0101
1011
1111
1110
1100
0010
1001
1101
1111
1110
1010
0010
1010
1110
1111
1110
1001
0100
1100
1011
1111
0111
0110
1000
1100
1101
1111
1110
1100
0010
1010
1101
1111
1110
1100
0100
1010
1110
1111
1101
1010
0100
0101
1110
1111
1101
0101
0100
1100
1110
1111
1110
1010
,  // measure 64
1000
0101
1110
1111
1101
1100
1000
1010
1011
1111
0111
1010
1000
1010
1101
1111
1011
1010
0100
1010
1011
1111
1101
0110
0100
1100
1110
1111
1011
1001
0001
1010
1110
1111
0111
1010
1000
0101
1101
1111
1011
1100
0100
1100
1101
1111
1110
1100
1000
1100
1110
1111
1101
1100
0001
1001
1110
1111
1110
1010
1000
0101
1011
1111
1101
0110
1000
1001
1011
1111
1101
1010
0001
0011
1110
1111
1110
0101
0100
1001
1101
1111
0111
1100
1000
1100
1101
1111
0111
1100
0100
1100
1101
1111
1110
1001
1000
0110
1110
1111
1011
0011
1000
0101
1110
1111
1110
1100
0100
1010
1101
1111
1110
1010
0010
1001
1101
1111
1110
0011
0010
1010
0111
1111
1110
0110
0010
1001
1110
1111
0111
1010
0001
0101
0111
1111
1110
1010
0100
0011
1110
1111
1101
1100
0100
1100
0111
1111
0111
1010
0100
1001
0111
1111
1110
1010
1000
0011
1101
1111
1101
0101
1000
1010
1110
1111
0111
0110
0100
1100
1110
1111
1101
1001
0100
0101
1110
1111
0111
0110
1000
0110
1110
1111
1011
1001
0100
0101
1110
1111
1101
1001
,  // measure 65
1000
1010
0111
1111
1011
1010
0100
1010
0111
1111
1110
0110
1000
1100
1110
1111
0111
0110
0001
1100
1110
1111
1011
0110
0100
1010
1110
1111
1011
0101
0010
1100
1011
1111
1110
1010
1000
1010
1101
1111
1110
0011
1000
0011
1110
1111
1110
1100
1000
1001
1110
1111
1110
1100
0010
1100
1110
1111
1101
0110
0001
0110
1101
1111
1011
0101
1000
1001
1110
1111
1011
0110
0100
1001
0111
1111
1011
0110
1000
1010
1011
1111
0111
1010
0100
0011
1011
1111
1110
0110
1000
1010
1110
1111
1110
1010
0010
1001
1110
1111
0111
1010
0100
1010
1011
1111
1011
0110
1000
0101
1110
1111
1101
1010
1000
0110
1101
1111
1011
1001
1000
1100
1110
1111
1101
1100
1000
1010
1110
1111
1101
1010
1000
1001
0111
1111
0111
0011
0010
1001
1101
1111
1110
0011
0100
0101
1011
1111
0111
1100
0100
1010
1101
1111
1011
1100
0100
1100
1110
1111
1011
1100
0100
0011
1011
1111
1011
1010
0100
1100
1110
1111
0111
1100
0100
1010
1011
1111
1011
0101
1000
1100
1110
1111
1101
1001
1000
1010
1110
1111
1011
0101
,  // measure 66
0010
0110
1110
1111
1101
1010
1000
0110
0111
1111
1110
1001
0100
0110
1101
1111
1101
0101
1000
0110
1011
1111
1110
1001
1000
1100
1110
1111
1110
1001
0100
1001
0111
1111
1101
0101
1000
1010
1110
1111
0111
0011
0010
0101
1101
1111
1110
1001
0010
1100
1110
1111
0111
1010
1000
0011
1110
1111
1101
1010
0010
1100
1101
1111
1101
1001
0010
1100
1110
1111
1011
1010
1000
1010
1101
1111
1110
0110
1000
1001
1110
1111
1110
0110
0010
1100
0111
1111
1110
1100
1000
1100
1110
1111
1011
1010
0100
1001
1101
1111
1110
1010
0001
1100
1110
1111
0111
1010
1000
1001
1101
1111
1011
1010
1000
1100
1110
1111
1110
1100
1000
1100
1011
1111
1110
0101
0100
1010
1101
1111
1110
0101
1000
0101
1110
1111
1011
0011
0001
1100
1011
1111
1110
0101
1000
0011
1101
1111
1101
1100
0100
0110
1101
1111
1011
1100
0001
1010
1110
1111
0111
1001
1000
0110
1011
1111
0111
0101
0010
0110
1110
1111
1011
0011
1000
1010
1101
1111
1110
0011
1000
0011
1101
1111
1110
0101
0100
1100
1011
1111
1011
0110
,  // measure 67
0001
1100
1011
1111
1110
1010
0001
0101
1110
1111
0111
0110
0100
1100
1011
1111
0111
1010
0010
1010
1110
1111
1011
0101
0010
1100
1110
1111
1110
1100
1000
1001
1110
1111
1011
1100
1000
0110
1110
1111
0111
1100
1000
1001
0111
1111
1101
0011
0010
0101
1110
1111
0111
0011
0010
1010
1110
1111
1110
0110
0010
1010
1101
1111
1011
1001
0010
1001
1110
1111
1011
1001
1000
0110
1110
1111
1011
1001
0100
1010
1110
1111
1101
0101
1000
1010
1110
1111
0111
0011
0010
0110
1011
1111
0111
1010
0100
0110
0111
1111
1101
0011
0001
1100
1011
1111
1101
0110
1000
1100
1101
1111
1011
1001
1000
1010
1011
1111
1110
0110
0010
1001
1110
1111
1011
0011
1000
0110
1110
1111
1110
1100
1000
1100
1101
1111
1110
0110
0010
0011
1101
1111
0111
1010
0010
1010
1011
1111
1101
1100
0010
1001
1101
1111
1110
0011
1000
1100
1110
1111
0111
1010
0010
0110
1110
1111
1101
0110
1000
1010
1011
1111
1110
1100
0100
1100
1110
1111
1011
0101
0010
0011
1110
1111
1011
0011
0100
1100
1110
1111
1011
1001
,  // measure 68
1000
1100
1110
1111
1110
0011
1000
1100
1011
1111
1110
0011
0100
0011
1110
1111
0111
0110
0100
0110
0111
1111
1011
0011
0010
0101
1110
1111
1110
1100
1000
0110
1110
1111
0111
0101
0100
1010
1110
1111
1110
1100
0100
0110
1101
1111
1101
0101
0010
1100
1011
1111
0111
1100
0100
0101
0111
1111
1011
1010
0010
1100
1110
1111
1101
1001
0010
1010
1110
1111
1110
1100
1000
1001
0111
1111
1011
1010
1000
1100
1101
1111
1110
0101
0010
1100
1110
1111
1011
1010
0010
1010
1110
1111
1101
0101
0010
0110
1011
1111
1101
1010
1000
1100
0111
1111
0111
1010
0100
1010
1110
1111
1011
1010
0010
0011
1101
1111
1011
1010
0100
1010
1110
1111
1011
1100
0001
1010
1110
1111
1011
0110
0010
1010
0111
1111
1110
1100
1000
0011
1110
1111
1011
0110
0010
1010
1110
1111
1101
1100
1000
1100
1110
1111
0111
1010
1000
1100
1110
1111
1101
1100
0001
0101
1011
1111
1011
1100
0010
1001
1110
1111
1011
1001
0010
1010
1110
1111
1011
1100
0010
1010
1011
1111
1110
1010
1000
1100
1110
1111
0111
0011
,  // measure 69
0010
1001
1011
1111
1110
0101
0100
0011
1110
1111
0111
1010
0010
0011
1101
1111
0111
1100
1000
1100
1110
1111
1110
0110
1000
0110
1110
1111
0111
1100
0100
1100
1101
1111
0111
0110
1000
1010
1110
1111
0111
0110
0001
1100
1101
1111
0111
0011
0001
1100
1110
1111
1110
1001
0100
1100
1110
1111
1110
0110
0001
1001
0111
1111
1101
1010
0100
1100
1110
1111
1110
0011
0100
1001
1110
1111
1110
1010
0010
1010
1110
1111
1011
0110
0010
0101
0111
1111
1101
0101
0010
1010
1011
1111
1101
1010
1000
1001
1101
1111
1110
1010
0100
1010
1011
1111
1011
1010
1000
1100
1110
1111
0111
1010
0010
0110
1110
1111
1101
1001
0100
1010
1110
1111
1101
0110
0100
1100
1110
1111
1011
0110
0001
1010
1110
1111
0111
0110
1000
1010
1011
1111
1101
1100
0100
1100
1011
1111
0111
1100
0100
0011
1110
1111
1110
1010
0100
1001
1110
1111
0111
0101
0010
1010
1101
1111
1110
0011
0010
1001
1101
1111
0111
0101
1000
1100
1110
1111
0111
1001
0100
0011
0111
1111
1101
1010
0010
1100
1011
1111
0111
1100
,  // measure 70
0001
1010
1110
1111
1011
1001
0010
1001
0111
1111
1110
0011
1000
0101
1011
1111
1110
1001
1000
1001
0111
1111
0111
1010
0001
0110
1110
1111
1011
0101
1000
1010
1110
1111
1110
0101
1000
1100
1011
1111
1110
1001
1000
1100
1110
1111
0111
1010
1000
1001
1110
1111
1101
1100
1000
1100
0111
1111
0111
1001
1000
1001
1110
1111
1011
1100
0001
1100
0111
1111
1101
1010
0010
1100
1110
1111
1011
1100
0010
1010
1101
1111
1011
1100
0010
1100
1011
1111
0111
1100
0100
1010
1110
1111
1101
0110
1000
1100
1110
1111
1101
1010
0010
0110
1101
1111
1011
0110
0001
1100
1110
1111
1101
1001
0010
1100
1110
1111
1101
1001
0100
1010
1110
1111
0111
0110
0010
0110
1110
1111
1110
1100
0100
0110
1110
1111
1101
1010
1000
1100
1101
1111
1011
1010
1000
0110
1110
1111
0111
0110
0100
0110
0111
1111
1101
1010
1000
0011
1011
1111
1101
1010
1000
1001
1101
1111
0111
1100
0100
1001
1011
1111
0111
1100
1000
1010
1101
1111
0111
1100
0001
1100
1011
1111
0111
0011
0100
0011
1110
1111
1101
1001
,  // measure 71
1000
0110
1101
1111
1011
1100
1000
1100
1011
1111
0111
0011
1000
0101
1110
1111
1110
1010
0010
1001
1011
1111
1011
0101
0100
1001
1011
1111
1110
1100
1000
0011
1011
1111
1101
1001
0001
1010
0111
1111
1101
1010
1000
0110
1101
1111
1110
1010
1000
0110
0111
1111
0111
0101
1000
1010
1101
1111
1110
1001
0100
1010
0111
1111
0111
1010
1000
1010
1110
1111
1011
0101
0010
0101
1110
1111
0111
0110
1000
0110
1110
1111
1011
1100
1000
1010
1011
1111
0111
0110
0010
0110
1011
1111
1011
1100
1000
0101
1101
1111
1011
0110
1000
1001
1011
1111
1110
0011
1000
1010
1110
1111
1011
1010
0010
1010
1110
1111
1011
1010
1000
1001
1110
1111
1101
1100
0010
1010
0111
1111
1110
1100
1000
0110
1110
1111
1110
0011
0100
1010
1101
1111
1110
1010
1000
1010
1110
1111
0111
1010
1000
0110
1011
1111
0111
0110
0100
0110
1011
1111
1101
1001
1000
1001
1011
1111
0111
1100
1000
0110
1101
1111
1101
0110
0100
0110
1110
1111
1011
1001
0100
0110
1110
1111
1110
1100
0100
1100
1011
1111
0111
1010
,  // measure 72
0100
1100
1101
1111
0111
1010
0010
1001
1110
1111
1101
1100
1000
1100
1110
1111
1110
1010
0100
0101
1101
1111
1011
0110
1000
1010
1110
1111
1101
1100
1000
0011
1011
1111
1110
0011
1000
0110
1110
1111
1110
1010
0010
1100
1110
1111
1110
1010
1000
1010
1101
1111
0111
1010
1000
0101
1110
1111
1011
1100
0001
1001
1011
1111
1110
1100
0100
1100
1110
1111
0111
0101
0100
0011
1011
1111
0111
1100
1000
0101
1011
1111
0111
1100
0100
0101
0111
1111
1110
1100
0001
1100
1101
1111
1101
0110
0100
1100
1101
1111
1110
0011
0001
0110
1110
1111
1110
1010
1000
0011
1101
1111
0111
1001
0001
1010
1101
1111
1110
0110
0100
1001
1101
1111
1101
0110
0010
1100
1011
1111
1110
0101
0100
1010
1011
1111
0111
1010
1000
1100
1110
1111
1011
1010
1000
1001
1110
1111
1011
1100
0010
1001
0111
1111
1110
1001
0001
0101
1101
1111
0111
1010
1000
1100
1011
1111
1101
0110
0100
1010
1110
1111
0111
1010
0100
0110
1011
1111
0111
0110
0001
0011
1011
1111
1110
1100
1000
1100
1110
1111
1110
1100
,  // measure 73
1000
0101
1110
1111
1101
1010
0001
1001
1011
1111
1110
1100
0010
0101
1110
1111
1110
1100
0010
0011
0111
1111
1011
1100
0100
1010
0111
1111
0111
1010
0001
1010
0111
1111
1101
1001
0100
1001
1101
1111
1110
0110
1000
1010
1110
1111
1101
1010
0100
1001
1110
1111
0111
0011
0100
1001
1011
1111
1101
0011
0100
0110
1110
1111
1110
1010
1000
1100
1101
1111
1011
0011
0001
0101
1110
1111
1101
0101
1000
0101
1110
1111
0111
1100
0001
0110
1101
1111
1110
1100
1000
1100
1110
1111
1110
1010
1000
0110
1110
1111
0111
1010
1000
1001
1101
1111
1011
1010
0010
0011
1110
1111
1110
1001
0100
1100
1101
1111
1110
1010
1000
1100
1110
1111
1110
1010
0100
0011
1110
1111
1101
1100
0100
1100
1110
1111
1101
1100
1000
1010
1011
1111
1110
0011
1000
1100
1101
1111
0111
0011
1000
1100
1110
1111
0111
1010
1000
1010
0111
1111
1110
1100
0100
0011
1011
1111
1011
0110
0010
1010
1101
1111
1101
0110
0100
1010
1011
1111
0111
0101
1000
0110
1101
1111
1101
1100
1000
1100
0111
1111
0111
1001
,  // measure 74
0010
1010
1110
1111
0111
1001
0100
0101
0111
1111
1101
0110
0100
0101
1110
1111
1011
1100
1000
0101
1011
1111
0111
1001
1000
1100
1011
1111
1011
1001
0010
1010
1110
1111
1011
0110
0100
0011
1101
1111
1101
0011
0010
1010
1110
1111
1110
1001
0010
0110
1110
1111
0111
1010
0001
1100
1110
1111
1110
1001
1000
1001
1110
1111
1110
0110
0010
1100
1101
1111
1110
1001
1000
1001
1101
1111
0111
1100
1000
1100
1101
1111
0111
0110
1000
1001
1011
1111
1101
1100
0010
1001
1011
1111
1101
0110
1000
0110
1101
1111
0111
1010
0100
1100
0111
1111
1110
0110
0010
1001
1011
1111
0111
1010
0100
1100
1011
1111
0111
1010
0100
1100
1011
1111
1110
1001
1000
0101
1101
1111
0111
0101
0010
0110
1101
1111
1110
1100
1000
1010
0111
1111
1110
0110
1000
0011
1110
1111
0111
0101
0010
1100
1110
1111
1110
1001
1000
0110
0111
1111
1110
0011
1000
1100
1110
1111
1101
1001
0100
0110
0111
1111
0111
1100
0010
1100
1101
1111
1110
1001
0001
1100
1110
1111
0111
1100
0100
1010
1101
1111
1110
0110
,  // measure 75
0010
1100
1101
1111
1110
1001
0010
0011
0111
1111
1101
1100
1000
1010
1110
1111
1101
1010
0100
0110
1101
1111
1011
0110
0100
0110
1101
1111
1011
1100
0001
1100
0111
1111
0111
1001
1000
1010
1110
1111
0111
0011
0010
1100
1011
1111
1101
0011
0100
1100
1110
1111
0111
1100
0010
1010
1011
1111
1110
0110
1000
1001
1110
1111
1110
1100
0100
1100
1011
1111
1110
1100
1000
0101
1101
1111
1011
0101
0100
1001
1011
1111
1011
0110
0001
0101
1110
1111
1101
1001
0010
1010
1101
1111
1101
0101
0100
1001
1110
1111
1110
1010
0100
1010
1110
1111
0111
1100
0010
1100
1101
1111
1101
1010
0010
1010
1110
1111
1101
1100
0100
1100
1110
1111
0111
1100
0010
1010
1011
1111
1110
0110
0010
1100
1101
1111
1110
0011
0010
1010
1110
1111
1011
0101
0010
1100
1110
1111
0111
1100
1000
1100
1110
1111
1011
0101
0100
1100
1110
1111
0111
1010
0100
1001
1110
1111
1011
1100
0010
0110
1101
1111
1110
0101
0100
1010
1101
1111
1110
0101
0100
0011
1011
1111
0111
1100
1000
1100
1110
1111
0111
1010
,  // measure 76
0001
0110
1101
1111
1101
1010
0001
0110
1110
1111
1011
1010
0100
1010
1101
1111
1101
1010
0010
0110
1110
1111
1101
0110
1000
0110
1110
1111
1101
1010
0010
0110
1011
1111
1101
1001
1000
0101
1110
1111
1110
1010
0010
1010
1110
1111
1110
1010
0010
0110
1011
1111
1110
1010
1000
1100
1110
1111
1110
1010
0100
1100
1101
1111
1101
0110
0100
1100
1110
1111
1011
1100
1000
1001
1011
1111
0111
0011
0100
1010
0111
1111
1011
1001
0100
1100
0111
1111
1101
0110
0010
1001
1011
1111
1101
0110
0001
1010
1101
1111
1110
0011
1000
1100
1101
1111
1011
0101
0010
0011
1011
1111
1011
1010
0001
0101
1011
1111
1110
1100
0001
0110
1110
1111
0111
1001
1000
0110
1110
1111
1110
0110
1000
1010
1110
1111
0111
1010
1000
0011
1110
1111
1101
1001
0001
1100
1011
1111
1110
1001
1000
1010
1110
1111
1011
0110
1000
1100
1101
1111
1101
1100
0100
0101
1011
1111
0111
0110
0010
1100
1110
1111
1110
1100
0100
1100
1110
1111
1110
0110
0010
0110
1110
1111
1011
1010
1000
1001
1110
1111
1101
0110
,  // measure 77
1000
1010
1101
1111
1101
0101
1000
1100
1110
1111
1110
0101
0010
1010
1011
1111
1110
0110
1000
1001
1110
1111
1110
1001
1000
1100
1110
1111
1110
1010
0010
0101
1101
1111
1110
0011
1000
1010
1110
1111
1101
1100
0010
1100
1110
1111
1011
1010
0100
1001
1110
1111
1101
1010
0100
1010
1101
1111
1110
1010
0100
0011
1110
1111
1011
0101
0001
1010
0111
1111
0111
0110
0010
1010
1011
1111
1110
0101
1000
1001
0111
1111
1101
1100
0100
1010
1101
1111
1011
0011
0010
1100
1101
1111
1110
1010
0100
1100
1101
1111
1110
0011
0100
0101
1110
1111
1011
1001
1000
0101
1110
1111
1011
1010
1000
0110
1101
1111
1101
1010
1000
0101
1110
1111
1011
1010
0001
1001
1110
1111
0111
1010
1000
1100
1110
1111
1110
1010
1000
0101
1110
1111
1101
1100
1000
0101
0111
1111
1101
0101
0010
0110
1011
1111
1101
1001
0100
0110
1110
1111
1101
0101
0010
1001
1101
1111
1011
1100
0100
0011
0111
1111
1110
1001
0100
1100
1011
1111
0111
1001
1000
1100
0111
1111
1011
0110
0100
1100
1101
1111
1101
1010
,  // measure 78
1000
0101
1110
1111
0111
0101
1000
0101
1110
1111
1011
1010
1000
1001
1101
1111
1011
1001
0100
1001
1011
1111
0111
1001
0010
0101
0111
1111
1011
0011
1000
0101
1110
1111
1110
0110
1000
1100
1101
1111
1101
1010
0001
0011
1110
1111
1101
0110
0100
1100
1101
1111
1101
1010
1000
1001
1101
1111
1110
1010
0100
1010
1011
1111
1110
1010
0010
0110
0111
1111
1101
1100
0100
1010
1110
1111
1110
1100
0100
1100
1110
1111
1011
0011
1000
1001
1011
1111
1101
0101
0100
1100
1110
1111
1011
1010
0100
1001
1110
1111
1110
0101
0100
1010
1110
1111
1110
1010
1000
0101
0111
1111
1011
0011
1000
1010
1011
1111
1110
1010
0001
0110
1110
1111
1011
0101
1000
1001
1110
1111
0111
1010
1000
1010
0111
1111
0111
1010
1000
0110
0111
1111
1110
1001
0100
1100
1101
1111
1101
1100
1000
0110
1101
1111
0111
1100
1000
1100
1101
1111
0111
1010
1000
1100
1011
1111
1011
1100
0001
0011
1110
1111
1110
1100
0100
0110
1110
1111
1101
0011
0100
1010
1110
1111
1110
0011
0010
1100
1110
1111
1101
1001
,  // measure 79
0001
0110
1110
1111
0111
1001
0100
1010
1011
1111
1101
0101
0010
0101
0111
1111
1110
1010
0010
1100
1101
1111
1011
1010
0010
1100
1101
1111
1110
1100
0010
1010
1110
1111
1110
1010
1000
0101
1101
1111
1101
1100
1000
1010
1110
1111
1101
0011
1000
0011
1110
1111
1110
0110
1000
1001
1101
1111
1110
1010
1000
1010
1011
1111
1110
1100
0100
0110
0111
1111
1101
0110
1000
1010
1110
1111
0111
0101
0010
0101
1101
1111
1101
1001
1000
0101
0111
1111
1110
1001
0100
1100
1011
1111
1011
1010
1000
1100
1110
1111
0111
0110
1000
1100
1101
1111
1110
0011
0010
0101
1011
1111
1101
0110
1000
0110
1110
1111
0111
1001
0100
1100
1110
1111
1110
0011
0010
1100
1110
1111
1110
0011
0100
0101
0111
1111
1101
1001
1000
1010
1011
1111
1110
1010
0010
1001
1011
1111
0111
1100
1000
1010
1110
1111
0111
1001
1000
0110
1101
1111
1110
1010
0001
1010
1110
1111
1011
0101
1000
0101
1011
1111
1011
0101
1000
1010
1101
1111
1110
1100
1000
1010
1011
1111
1011
0011
0100
1010
1110
1111
1110
1100
,  // measure 80
1000
1010
1110
1111
0111
0011
0100
1100
0111
1111
1011
1010
0010
1001
1110
1111
0111
0101
1000
1010
1101
1111
1110
1010
0010
0101
1110
1111
0111
1100
0100
0011
1110
1111
1011
0101
0010
1010
1011
1111
1110
0101
1000
0110
1110
1111
1011
0110
0100
1100
0111
1111
0111
1100
1000
0110
1110
1111
0111
0110
0100
1010
1110
1111
0111
1010
0100
1100
1110
1111
1101
1010
0010
1010
1110
1111
1110
1001
0100
0110
1101
1111
1011
0110
1000
1001
1101
1111
1011
1100
0001
0101
1101
1111
1101
1010
1000
1100
1101
1111
1110
1010
1000
1001
1011
1111
1011
1100
0100
1100
1110
1111
1011
1010
1000
1010
1101
1111
0111
0011
0100
0110
0111
1111
0111
1001
0010
0110
1011
1111
1101
1010
0010
1010
0111
1111
0111
1010
1000
1100
1101
1111
1110
0011
0010
0101
1101
1111
1101
1010
0001
0110
0111
1111
1110
0101
0100
1010
0111
1111
1110
0110
1000
1001
1110
1111
1110
1001
1000
0101
1011
1111
0111
1100
0010
1010
1011
1111
1101
0101
0010
1010
1011
1111
1101
1010
1000
1010
1110
1111
1110
1100
,  // measure 81
0001
0110
1110
1111
1101
1010
0010
0101
1110
1111
1011
0011
0100
1001
1101
1111
1101
0101
1000
1100
1110
1111
1110
0011
1000
1010
1101
1111
1101
0011
0010
0110
1101
1111
1110
0110
1000
0110
1110
1111
1011
1001
0010
0110
1110
1111
0111
0110
0100
1100
1110
1111
0111
1100
0010
1001
1101
1111
1101
0011
0010
0110
1110
1111
0111
1100
1000
1010
1101
1111
1110
1010
1000
0101
1101
1111
1110
1001
1000
1001
1101
1111
1011
0011
0001
1010
1110
1111
1011
1100
1000
1001
1110
1111
1110
1010
0010
1001
1011
1111
0111
0110
0100
0110
1101
1111
1011
1001
1000
1010
1110
1111
1101
0011
1000
0110
1101
1111
1110
1001
1000
1001
1110
1111
1110
1010
0001
1010
1110
1111
1011
1100
0001
1100
1101
1111
0111
0101
0010
1100
1110
1111
1110
0011
0010
0101
1110
1111
1101
1001
1000
0101
1110
1111
0111
1100
1000
1100
1101
1111
0111
0101
0001
1001
1011
1111
1110
1010
0100
1100
1101
1111
1011
1010
0100
1010
1110
1111
1110
0011
0010
1100
0111
1111
0111
0011
0100
1100
0111
1111
1011
0011
,  // measure 82
0100
1100
1101
1111
1110
1010
1000
1100
1101
1111
1101
0011
0001
1100
1011
1111
1110
0110
0010
0101
1110
1111
1011
0110
1000
1100
1110
1111
1011
1001
0010
0110
1110
1111
1110
1001
0100
1010
1101
1111
1101
0011
0100
1001
1011
1111
1011
1001
0100
0101
1110
1111
0111
0011
0010
1010
1110
1111
1110
0011
0001
1010
1110
1111
1011
0101
0010
0110
1101
1111
0111
0101
1000
0101
1101
1111
1101
0011
0010
1001
1101
1111
1110
0110
0010
0110
1110
1111
1101
0011
0001
0101
1011
1111
1101
0011
0010
1100
1110
1111
1011
1001
1000
1010
1101
1111
0111
1010
0100
0110
1011
1111
1011
0011
0001
0101
1011
1111
1110
0101
0010
0110
1101
1111
1101
0110
1000
1100
1101
1111
0111
1010
0010
1010
1110
1111
1011
0110
0010
0101
1011
1111
1011
0110
0100
0110
1110
1111
0111
1100
1000
1010
0111
1111
1110
1100
1000
1100
1110
1111
0111
1001
1000
0101
1110
1111
1011
1001
0100
1100
1110
1111
1110
1001
0100
1100
0111
1111
1101
0110
1000
1010
1110
1111
1110
1010
0100
1001
1110
1111
0111
1010
,  // measure 83
0100
1010
1101
1111
1110
1010
0100
1100
1110
1111
1110
0110
1000
1001
1011
1111
1011
0011
0100
0101
1110
1111
1101
1100
0100
1010
1011
1111
1101
1100
0100
1100
1110
1111
1110
1100
0010
0110
1011
1111
1101
0101
0100
1010
1011
1111
0111
1010
1000
1100
1011
1111
1101
0110
0100
1100
1101
1111
0111
1010
0010
1100
1110
1111
1011
1010
1000
1100
1011
1111
0111
1010
1000
1001
1101
1111
1110
0011
0100
0110
1110
1111
0111
1010
0001
1100
1110
1111
1011
0110
0100
1100
1101
1111
0111
0101
0100
0110
1011
1111
1110
1010
0100
1010
0111
1111
1101
1001
1000
0110
1011
1111
0111
1010
1000
1010
0111
1111
1011
1010
0100
0110
1110
1111
0111
0110
1000
1100
1110
1111
1101
0101
1000
0101
1110
1111
1110
1010
1000
0110
0111
1111
1101
0101
0010
0110
1011
1111
1011
0011
1000
1010
1101
1111
1011
1010
0100
1010
0111
1111
1110
0110
1000
1010
0111
1111
1110
0110
0100
1010
1011
1111
0111
1001
1000
1100
1110
1111
1011
1100
0100
0011
1110
1111
0111
1010
0100
1001
0111
1111
0111
1001
,  // measure 84
0010
0110
1011
1111
1011
1010
1000
1100
1110
1111
1110
0110
0100
1001
1011
1111
1101
1010
1000
0101
1101
1111
1101
1100
1000
1010
1011
1111
0111
1100
1000
1010
1101
1111
1110
1100
1000
0101
1110
1111
0111
1001
1000
0101
1110
1111
1101
1100
0010
1100
1110
1111
0111
1010
0010
0101
0111
1111
1110
0011
0010
1100
1011
1111
1101
1100
0100
1001
1011
1111
1110
0011
0010
1100
1110
1111
1110
0110
0100
0011
1110
1111
1101
1100
1000
0101
1101
1111
1110
1010
1000
1001
1101
1111
0111
0011
0010
1010
1101
1111
1011
0110
1000
0110
1101
1111
1011
0110
0010
0110
1110
1111
1110
0011
0010
0110
1011
1111
0111
1100
1000
0101
0111
1111
1110
1010
1000
0110
1110
1111
0111
1010
1000
0011
1011
1111
1101
0110
1000
0101
1101
1111
1011
1010
0010
1010
1011
1111
1110
0110
0010
1010
1110
1111
1011
1010
0010
1010
1011
1111
1110
1100
0100
0101
1011
1111
1011
0110
0010
1010
1101
1111
1110
0011
0010
1100
1110
1111
1011
0011
0100
1010
1101
1111
0111
1001
1000
1100
1110
1111
1110
0101
,  // measure 85
1000
0101
0111
1111
0111
1100
0010
1100
1011
1111
1101
1010
1000
1100
1011
1111
1101
0011
0100
1100
1011
1111
1110
1010
1000
1010
1110
1111
1011
1010
0100
1010
0111
1111
1011
0011
1000
0101
1011
1111
1110
1001
0010
1010
1101
1111
1110
1010
0100
0110
1110
1111
1101
0101
0010
1010
1011
1111
1011
0110
0100
1100
1110
1111
1101
1100
0001
1100
1101
1111
1110
1100
0100
1100
1011
1111
1110
1100
0100
1010
1011
1111
0111
1100
1000
1010
0111
1111
0111
1001
0010
1100
0111
1111
1110
0011
0010
0101
1011
1111
0111
1010
0100
1100
1101
1111
0111
1010
0100
0101
1101
1111
1101
1010
0100
1001
0111
1111
0111
0011
1000
1001
1011
1111
1110
1100
1000
1010
1101
1111
1110
1001
0010
1010
1011
1111
1101
1010
0010
0011
1110
1111
0111
0011
0100
0101
1110
1111
1101
1100
0001
0101
1011
1111
1101
1001
0100
0011
1110
1111
0111
1001
1000
1100
1110
1111
0111
0101
0100
0110
1011
1111
1101
0101
1000
1010
0111
1111
1101
1001
0100
0110
1110
1111
1011
1010
0001
1001
0111
1111
1101
0110
,  // measure 86
1000
1010
1110
1111
1110
1100
0010
1010
1110
1111
1110
0110
0001
1010
1101
1111
1110
1001
0001
1100
1110
1111
1101
0011
0001
1010
1110
1111
1101
0110
0100
1100
0111
1111
1110
1001
0001
1100
1011
1111
0111
0101
1000
1100
1011
1111
1110
1001
0100
0011
1011
1111
1101
1100
1000
1001
0111
1111
1110
1010
1000
0110
1011
1111
1011
0110
0100
1010
1011
1111
1011
0011
0100
1100
1110
1111
1110
1010
0010
1100
1011
1111
1110
0101
0100
0011
1101
1111
1101
0011
0010
1001
0111
1111
1101
0011
0100
1100
1110
1111
1110
0011
0010
1010
0111
1111
1011
1001
1000
1001
1011
1111
0111
0110
0001
0101
1101
1111
1011
1100
1000
1100
1110
1111
0111
1100
1000
1100
1101
1111
1101
1100
0010
1100
1110
1111
1110
0101
1000
1010
1101
1111
1101
1001
0100
1100
1011
1111
1110
1010
0010
1100
1110
1111
1110
1010
0010
1100
0111
1111
1011
1001
0010
0110
1110
1111
1011
0110
0100
0101
1110
1111
0111
0101
1000
0101
1110
1111
1101
1100
0100
1100
0111
1111
1101
1010
0001
0110
1110
1111
1101
1001
,  // measure 87
0100
1001
1011
1111
0111
0110
1000
1010
1110
1111
1011
1010
1000
1001
1101
1111
1110
0101
0001
0101
0111
1111
0111
1010
0100
1100
1110
1111
1110
1010
1000
1001
1101
1111
0111
1100
1000
0110
1110
1111
1101
0011
0100
1100
1110
1111
1110
1010
1000
1001
1101
1111
0111
1010
1000
1001
1011
1111
1101
0101
0100
1010
1110
1111
1011
1001
0100
0101
1101
1111
1110
1010
1000
1001
1101
1111
1101
1100
0100
1100
1011
1111
0111
1100
0010
0101
1011
1111
1011
1100
1000
1010
1110
1111
0111
1010
1000
1100
0111
1111
1110
0101
0001
1001
1110
1111
0111
0110
0100
0101
0111
1111
0111
1010
1000
1010
1101
1111
1101
1010
0010
1010
0111
1111
1110
0110
1000
0110
1110
1111
0111
0110
0100
1001
0111
1111
1110
0110
0100
0011
1101
1111
1110
0101
0100
1010
1011
1111
0111
1001
0100
1010
1110
1111
0111
0101
0010
1100
1110
1111
1110
0101
0010
0110
1011
1111
1101
0101
1000
0110
1101
1111
1101
0011
0010
1100
1110
1111
1101
0011
0100
1100
1110
1111
1101
1010
1000
1010
1011
1111
1101
1010
,  // measure 88
1000
1001
0111
1111
1011
1100
1000
0110
1110
1111
1110
0110
0001
1001
1011
1111
1011
1100
1000
1010
1110
1111
0111
1001
1000
1010
0111
1111
1101
1010
0010
0110
1101
1111
1110
1010
0001
1100
1110
1111
1110
1100
0001
1100
1110
1111
1011
1100
0001
1001
1110
1111
1011
1100
0100
0011
1101
1111
1011
1100
0001
0101
1110
1111
1110
0011
1000
1100
1101
1111
1101
1100
1000
1100
1110
1111
0111
1001
0010
0110
1110
1111
1101
1100
0010
1100
0111
1111
1110
0110
1000
0011
1110
1111
1101
1100
0100
0110
1110
1111
1011
0101
1000
1001
1110
1111
0111
1001
1000
1100
1011
1111
0111
0110
0010
1010
1011
1111
1011
1100
1000
1001
0111
1111
1011
1010
0010
0110
1110
1111
1011
1010
0010
1001
1110
1111
1110
1001
0001
1001
1101
1111
0111
1100
0100
0011
1101
1111
1110
1010
0100
1100
1011
1111
1011
1010
1000
0101
1101
1111
1110
1001
1000
1010
1011
1111
1110
1001
0010
1100
0111
1111
1110
1010
1000
1100
0111
1111
1110
0101
1000
1100
0111
1111
1110
0011
0001
1100
0111
1111
0111
1100
,  // measure 89
0001
1100
1011
1111
1110
0101
0010
1010
1110
1111
0111
1010
0001
1100
1110
1111
1110
0011
0010
0110
1110
1111
1011
1010
0010
1001
0111
1111
1101
0110
0010
1100
0111
1111
1101
1010
1000
1001
1011
1111
0111
0110
0010
1100
1101
1111
1110
1100
1000
1100
1101
1111
0111
0011
1000
0011
1011
1111
1101
0011
0010
0110
1101
1111
1110
0011
0100
1010
1101
1111
1011
1100
0100
1100
1110
1111
1110
0011
1000
0110
1110
1111
1011
1100
0100
0101
1110
1111
0111
1001
0100
0110
1110
1111
1101
1001
0100
1001
0111
1111
1101
1010
0100
1010
1011
1111
1101
1010
0100
1100
1101
1111
1101
1010
0010
0101
1110
1111
0111
1010
1000
1001
1101
1111
1101
1010
0010
0110
1011
1111
1011
0011
0010
0110
1110
1111
1101
1100
0001
1010
1011
1111
1101
1100
1000
0011
1101
1111
1011
0011
0010
1100
0111
1111
0111
0110
0010
0101
1110
1111
1110
0011
1000
1100
1011
1111
1101
1010
0001
1001
1101
1111
1101
1001
0001
0101
1101
1111
1101
0101
0100
1100
1110
1111
1110
0110
0100
1010
1101
1111
1011
1010
,  // measure 90
0100
1001
1110
1111
0111
0110
1000
1100
1110
1111
1101
1010
1000
1001
1110
1111
1101
0101
0001
0110
0111
1111
1110
0011
0100
1001
1011
1111
0111
0110
1000
1010
1110
1111
0111
1100
1000
1001
1110
1111
1101
1001
0100
0110
1011
1111
0111
1001
0001
1100
1101
1111
1101
0110
0100
1010
1110
1111
1110
0011
1000
0011
1011
1111
0111
1010
1000
1100
1110
1111
0111
1010
0010
0101
1101
1111
0111
1100
1000
0110
1011
1111
0111
0011
0100
1100
1101
1111
0111
0011
0010
1001
1101
1111
1101
1010
0001
0101
1101
1111
1110
1100
0010
1100
1110
1111
0111
1010
0001
1001
1101
1111
1110
1100
0001
0101
0111
1111
1110
0011
0001
1100
1110
1111
1101
0101
0100
1010
1101
1111
1011
1010
0010
1100
1110
1111
1110
0110
0100
1010
0111
1111
0111
0110
0001
0110
1110
1111
1101
0101
0010
0101
0111
1111
1110
1001
0100
1010
1110
1111
1101
1100
1000
0101
1110
1111
1101
1010
0100
1010
1101
1111
1110
1001
0100
1001
1101
1111
1110
1010
0100
1100
0111
1111
1011
1001
1000
1001
1110
1111
0111
0110
,  // measure 91
0100
1100
1101
1111
0111
1001
1000
1001
1110
1111
0111
1100
0100
1010
1101
1111
1101
1010
1000
1001
1101
1111
0111
1100
0100
1100
0111
1111
1011
1010
1000
0110
1101
1111
1011
1001
0100
0011
0111
1111
1101
0011
0010
1001
1110
1111
0111
0110
0010
1100
1011
1111
0111
0101
1000
1010
1101
1111
1011
0101
0010
1100
1110
1111
1101
1001
1000
1001
1110
1111
1011
0110
1000
1100
1101
1111
1110
1100
1000
1100
1101
1111
1101
0101
0001
1100
1011
1111
0111
0110
1000
0110
1110
1111
1011
1010
0010
1001
1011
1111
0111
1100
1000
1010
0111
1111
1011
1100
0100
1100
1110
1111
1101
1001
1000
0011
1011
1111
1101
0110
1000
1001
1110
1111
1110
1010
1000
1010
1101
1111
1110
0101
0100
0101
1110
1111
0111
0101
0001
1001
1011
1111
1011
0110
1000
1001
1101
1111
1011
0101
0001
1001
1101
1111
1011
0110
0010
1100
1101
1111
1011
1010
1000
1010
1011
1111
1101
1100
1000
1100
1011
1111
1101
0101
0001
1010
1101
1111
1101
1100
0100
0011
1011
1111
0111
0101
1000
0101
1011
1111
1101
1001
,  // measure 92
0100
1100
1110
1111
1011
0110
1000
0110
1110
1111
1101
0011
1000
1001
1011
1111
1110
1010
0100
1100
1011
1111
1110
0011
0001
0110
1110
1111
1110
0011
0100
1010
1011
1111
1101
1010
1000
1100
1110
1111
0111
1010
1000
0101
1110
1111
0111
0110
1000
1100
1011
1111
0111
1010
1000
0110
1110
1111
1011
0101
0100
1010
1011
1111
1110
0011
0001
1001
1110
1111
1110
1100
0100
0011
1011
1111
1110
1001
1000
0101
1110
1111
1011
1100
1000
0101
1011
1111
1110
0110
0010
1010
1110
1111
1110
0011
0100
1010
1110
1111
0111
0110
0010
1010
0111
1111
1110
0011
0100
0011
1101
1111
1110
0011
0010
1010
0111
1111
1110
1001
1000
1001
0111
1111
1101
1001
0010
1100
1110
1111
1110
1010
0100
1001
0111
1111
1011
1100
0001
1100
1110
1111
1110
0101
1000
0110
1011
1111
1101
1010
1000
0011
1110
1111
1101
1100
1000
1010
1101
1111
0111
1010
0100
1100
0111
1111
0111
0011
0100
1100
1011
1111
1110
1001
1000
1001
1101
1111
1101
1010
0100
1100
0111
1111
1101
1100
0001
1100
1101
1111
1011
0110
,  // measure 93
1000
1010
1011
1111
0111
1100
0010
0101
1110
1111
1101
0011
0100
1100
1101
1111
1101
0110
1000
1100
0111
1111
0111
0110
0010
1010
1101
1111
1101
1100
0100
0101
1011
1111
1110
0101
0100
1100
1110
1111
0111
0011
1000
1100
1011
1111
1011
0110
0010
1100
0111
1111
1110
0011
0010
0110
0111
1111
1110
1100
1000
0011
0111
1111
1101
1010
0001
1010
1110
1111
1011
1100
0100
0110
0111
1111
1101
0101
0010
1100
1110
1111
0111
0110
0100
1010
1011
1111
1110
1010
1000
0110
1110
1111
0111
0101
1000
1100
1101
1111
1110
1001
1000
0101
0111
1111
1011
1001
0010
0011
1101
1111
1011
1001
0100
0110
1110
1111
1101
1001
0010
1100
1110
1111
1101
1010
1000
0101
1110
1111
1110
1010
1000
0101
1101
1111
0111
0101
0010
1100
1101
1111
0111
1010
0010
1100
1110
1111
1110
0011
1000
0110
1110
1111
0111
1100
0010
1001
1011
1111
1110
0011
0100
1100
0111
1111
1101
1010
1000
0101
1101
1111
1110
1001
0100
1100
1110
1111
1011
1100
0100
1010
1011
1111
1011
0110
1000
1010
1011
1111
0111
1001
,  // measure 94
0100
0110
1011
1111
0111
0110
0100
1100
1110
1111
1110
1001
0001
0110
1110
1111
1101
0110
0010
1001
1101
1111
1101
0110
1000
1100
1110
1111
1101
0110
0100
1001
1101
1111
1110
1100
0100
1010
1101
1111
1101
0110
1000
1010
1110
1111
1011
1100
0100
0101
1110
1111
1110
1010
1000
1010
1110
1111
1110
1100
0100
1100
1110
1111
0111
0011
0100
1001
1110
1111
1101
1010
0100
0110
1011
1111
1011
1010
0010
0110
1011
1111
1110
0110
1000
0101
1110
1111
1011
1010
1000
0110
1101
1111
1110
1010
0100
1010
1110
1111
1011
1100
0001
1100
1110
1111
1110
1100
0100
1100
1110
1111
1011
1010
0001
0110
1011
1111
0111
0110
0100
1010
1101
1111
1110
0101
0001
1100
0111
1111
1011
1100
1000
0101
1011
1111
1011
0101
1000
1010
0111
1111
1110
0110
1000
1001
1011
1111
1101
0101
0010
0011
0111
1111
1110
0110
0001
1010
1110
1111
1011
1001
0100
1010
1110
1111
1011
1001
1000
1010
1110
1111
1101
0110
0100
1100
1011
1111
1110
0110
1000
1010
1011
1111
1011
1100
0100
1100
1110
1111
1011
1010
,  // measure 95
1000
1010
1110
1111
1101
0011
0010
1001
1011
1111
1110
1001
1000
0110
1011
1111
1101
1100
0100
1100
1011
1111
0111
1010
1000
0110
0111
1111
1011
0101
1000
0110
0111
1111
0111
0101
0001
1100
1101
1111
1110
0101
1000
1100
1011
1111
1101
0110
0010
1100
1110
1111
0111
1001
0100
1100
1011
1111
1110
0101
0010
0011
1110
1111
0111
0110
1000
0110
1101
1111
0111
1010
0010
1001
1011
1111
1011
1100
0010
1010
0111
1111
1101
1100
1000
0110
1011
1111
1011
0011
1000
0011
1101
1111
1011
0101
0010
0110
1110
1111
1110
1100
0100
0101
1110
1111
1011
0101
1000
1100
1110
1111
1110
1001
0100
0110
1110
1111
1011
0110
0010
0110
1101
1111
1110
0011
0010
1100
1011
1111
1110
0011
1000
0101
1101
1111
1011
0011
1000
1100
1011
1111
1110
0101
0001
0110
1110
1111
1110
0110
1000
1100
1110
1111
1101
0110
1000
1100
1110
1111
0111
1010
1000
0101
1101
1111
1011
1100
1000
0110
1101
1111
0111
0101
0001
1100
1011
1111
1011
0110
0001
1001
1101
1111
1011
1100
0100
1100
1011
1111
1110
0110
,  // measure 96
1000
1100
1110
1111
1110
0101
0010
1010
1011
1111
0111
0011
1000
1001
1110
1111
0111
0110
1000
1010
1011
1111
1101
1010
0100
1100
0111
1111
1011
1010
0010
1100
1101
1111
1011
1100
0010
1100
1101
1111
0111
1001
0010
0101
1110
1111
1101
1010
0001
0011
0111
1111
1110
1010
1000
1100
0111
1111
1011
1100
0001
0011
1011
1111
0111
0110
0001
1100
1101
1111
1101
1100
0100
1100
1011
1111
1101
1010
0010
0101
1101
1111
1101
0011
0010
1001
1101
1111
0111
1100
0100
1001
0111
1111
0111
1100
1000
1010
1110
1111
1011
0101
1000
1010
1011
1111
1011
0101
0010
1010
0111
1111
1011
1001
1000
0110
1011
1111
1101
0110
0010
1010
0111
1111
1011
1010
1000
1001
1101
1111
0111
1010
1000
1001
1110
1111
0111
1100
1000
0110
1110
1111
1110
0011
1000
1100
1011
1111
1110
0011
1000
1001
1011
1111
0111
0101
0100
0110
1101
1111
1110
0101
1000
0011
1011
1111
1011
1100
1000
1100
0111
1111
0111
1001
0001
0110
1011
1111
1101
1001
1000
0011
1101
1111
1110
0011
0010
1100
1110
1111
1101
1010
,  // measure 97
0100
0110
1110
1111
1110
1100
1000
0101
1110
1111
1101
1010
0001
1010
1110
1111
0111
0011
1000
1001
1110
1111
0111
1001
0001
0101
1110
1111
1011
1100
1000
1001
0111
1111
1110
1010
1000
1001
1110
1111
0111
1010
1000
1010
1110
1111
1011
1100
0010
1100
1110
1111
0111
0011
0010
1001
1110
1111
1011
0110
0100
1010
0111
1111
1110
1010
0100
0011
1011
1111
1101
1010
0010
1010
0111
1111
0111
1010
0010
1100
1110
1111
0111
1100
0010
0110
1110
1111
1110
0110
0010
0011
1011
1111
1110
1010
0100
1001
1110
1111
1110
1010
0001
1100
1011
1111
1110
0011
1000
1010
1011
1111
1110
1100
0100
1100
1011
1111
1011
0110
0001
1010
1011
1111
1101
1010
0100
1100
0111
1111
1101
1010
1000
1010
1101
1111
1101
0110
0010
0101
1110
1111
1110
0110
0100
1100
1101
1111
1101
0011
1000
1100
0111
1111
1110
0110
1000
1100
1011
1111
1110
0011
1000
0110
1110
1111
1110
1010
1000
0011
1011
1111
1101
0011
1000
1100
1101
1111
1110
1001
1000
1010
1110
1111
1101
1001
1000
1100
1110
1111
0111
1100
,  // measure 98
1000
0110
1101
1111
1110
0110
1000
0101
1011
1111
1101
0011
1000
0101
0111
1111
1011
0101
0010
1100
0111
1111
1101
1100
1000
0101
1011
1111
1110
1100
0001
0101
1011
1111
1011
0011
1000
1100
1011
1111
0111
1100
0100
1010
1011
1111
0111
0101
0010
1010
1110
1111
1101
0110
0100
1010
0111
1111
0111
1010
0010
1100
1011
1111
0111
1001
1000
1100
1110
1111
1110
0110
0100
1010
1011
1111
1011
1010
1000
1010
1110
1111
0111
0110
0001
1100
0111
1111
1011
0101
0010
0110
1110
1111
0111
1001
0100
1100
1011
1111
1011
1100
0100
1001
1110
1111
1110
0101
0100
1001
1011
1111
0111
1100
0010
0101
1011
1111
1110
1001
0001
0101
1011
1111
0111
1100
1000
1100
1101
1111
1110
1010
1000
1100
1011
1111
1011
1100
1000
1010
1110
1111
0111
1100
0100
1100
1011
1111
1011
1001
1000
1100
0111
1111
1110
0110
0100
1100
0111
1111
1110
1001
0100
0101
0111
1111
1101
0110
1000
0011
1011
1111
1101
0110
0001
0101
1011
1111
0111
0011
1000
1001
1110
1111
1101
1010
0010
0011
1101
1111
1101
0011
,  // measure 99
0100
1001
1101
1111
0111
1100
0100
1010
1011
1111
1110
0011
0100
1001
1110
1111
0111
0110
0001
1001
1110
1111
1101
1001
1000
1100
1110
1111
1110
1001
1000
1001
1110
1111
1011
1100
0100
1100
1101
1111
1110
1010
0100
1100
1110
1111
1110
1001
0010
1010
1110
1111
1110
1100
0010
0110
1110
1111
0111
1001
0001
1010
1110
1111
1011
1010
0010
1100
1101
1111
1110
0110
1000
1001
1101
1111
1110
1100
1000
1010
1101
1111
1011
1100
1000
1100
1011
1111
1110
0110
0100
0101
1101
1111
0111
1100
0010
1001
1011
1111
0111
0011
0010
0110
1110
1111
1110
1100
0100
1100
1011
1111
0111
0110
0100
1010
1011
1111
0111
1100
1000
0110
1110
1111
1101
1010
0100
1001
1110
1111
1110
1010
1000
1100
1110
1111
0111
0110
1000
1001
1011
1111
1110
1100
1000
1001
1101
1111
1110
0011
0100
1001
1110
1111
1101
0101
1000
1100
1110
1111
1110
1010
0010
0101
1101
1111
1110
1001
0100
0110
1011
1111
1101
0011
0100
1010
0111
1111
1110
1010
1000
1100
1101
1111
1011
1100
0010
1010
1011
1111
0111
1100
,  // measure 100
1000
1100
1110
1111
1101
1001
0001
1100
1110
1111
1110
0011
0001
1001
0111
1111
1101
1010
1000
0110
1110
1111
1110
0011
0010
1001
1110
1111
1101
1010
0100
0101
1110
1111
1110
1100
1000
0101
1110
1111
1110
0011
0010
1001
1110
1111
1011
0110
1000
1010
1110
1111
1110
1010
1000
0110
1110
1111
1011
1010
0010
0101
1110
1111
0111
1010
0100
0011
1101
1111
1011
1100
1000
1100
1110
1111
1101
1001
1000
1010
1110
1111
1101
0110
1000
0110
1101
1111
1110
0110
0100
1001
0111
1111
0111
1001
1000
1100
0111
1111
1011
1100
0100
0101
0111
1111
1110
0110
1000
0110
1011
1111
1110
1001
0010
1010
0111
1111
1110
0011
1000
1100
1011
1111
1101
1001
1000
0110
1110
1111
1101
1100
1000
1100
1110
1111
0111
0011
0100
1010
1101
1111
1110
0011
1000
1100
1101
1111
0111
1100
0100
0110
1101
1111
1101
1001
0100
1100
1011
1111
1101
0101
1000
1010
1101
1111
1011
0110
1000
1010
1101
1111
1011
1100
1000
1100
1110
1111
1110
1001
0100
1100
1110
1111
1101
1100
1000
1001
1011
1111
1011
1010
,  // measure 101
1000
0011
1011
1111
1011
1100
0100
1001
0111
1111
1110
1100
0001
1100
1101
1111
1011
0110
1000
1100
1011
1111
1011
1100
0001
0011
1101
1111
1110
1010
0010
0110
0111
1111
1011
0101
1000
1010
1011
1111
1101
0101
0001
0110
1101
1111
1101
1100
1000
1010
1101
1111
1101
1010
1000
1100
1110
1111
1110
0101
0010
1001
1110
1111
1110
1100
1000
1100
1110
1111
0111
0101
0100
0101
1110
1111
1011
1001
0010
0110
1110
1111
1110
1100
1000
1010
1110
1111
1101
0110
0001
1100
1101
1111
1011
1001
0010
1001
1011
1111
0111
0101
0100
0110
1101
1111
1110
1001
0010
1100
1011
1111
1110
1001
1000
0011
1110
1111
1110
1010
0010
1100
1101
1111
1101
0011
1000
1100
1110
1111
0111
1001
0100
1100
1011
1111
1110
1100
0100
1100
1011
1111
1101
1100
0100
0101
1101
1111
0111
1010
0010
0101
1110
1111
1011
0101
0010
0110
1110
1111
1101
1010
1000
1010
1101
1111
0111
0110
1000
0110
1110
1111
0111
1100
0100
0101
1110
1111
1011
0011
0001
0110
1110
1111
1110
1100
0100
1100
1101
1111
0111
1001
,  // measure 102
1000
1001
1101
1111
1101
0101
0010
1100
1011
1111
0111
1100
0010
1010
1011
1111
0111
1001
0100
1001
1110
1111
1110
1100
0010
1010
1110
1111
0111
0011
1000
1010
1110
1111
0111
1100
0010
1100
1101
1111
1110
1001
1000
1010
1011
1111
1110
1010
1000
0011
0111
1111
1110
0011
0001
1100
1110
1111
0111
1001
0001
1010
1101
1111
1011
0110
0010
1100
1110
1111
0111
0101
1000
0011
1101
1111
0111
1001
0100
1100
1011
1111
0111
1100
1000
0110
1110
1111
1101
1010
1000
1001
1101
1111
1101
1010
0001
0101
1011
1111
0111
1100
1000
0011
1110
1111
1011
1100
1000
1010
1110
1111
1011
1001
0010
1010
1011
1111
0111
1001
0001
1100
0111
1111
1110
0110
1000
0110
1110
1111
0111
1001
0010
1001
1011
1111
1101
0101
0001
1010
1110
1111
1011
0110
0100
1100
1110
1111
0111
1100
1000
1010
1110
1111
1101
0110
0010
0110
1101
1111
1011
0110
0010
1010
1110
1111
1101
0101
0100
0110
1110
1111
1011
1001
0010
1001
1101
1111
1101
0011
0100
1010
1110
1111
1011
1010
1000
1100
0111
1111
1101
1010
,  // measure 103
1000
0110
1011
1111
1110
0110
0010
1001
1110
1111
1110
0110
0010
1001
1011
1111
0111
1010
1000
0110
1110
1111
1101
1100
0100
1010
1101
1111
1110
1100
1000
1010
1011
1111
1011
1010
0010
1100
1101
1111
1110
0011
0010
1100
1011
1111
0111
1100
0100
1100
1011
1111
1101
1001
0100
0110
1101
1111
1011
0011
0100
1100
1101
1111
1101
1010
0100
1010
1011
1111
1110
1100
0010
0110
1011
1111
1110
0101
0001
0110
1101
1111
1011
1001
1000
0011
1011
1111
1011
1100
0010
1001
1101
1111
0111
1100
0010
0011
1110
1111
1011
1100
0100
1010
1110
1111
1011
0110
0010
1100
1110
1111
0111
1010
0100
0101
1101
1111
1110
1001
1000
1010
1101
1111
1011
1010
0010
0101
1011
1111
1110
1010
1000
0101
1110
1111
1011
1001
0100
0101
0111
1111
1110
1100
0100
1010
1110
1111
1101
0110
0100
1100
1110
1111
1110
1001
1000
1001
1110
1111
1110
1010
0010
0110
1101
1111
1110
0011
0010
1010
1110
1111
1110
0011
1000
0101
1110
1111
1011
1010
0010
1001
1101
1111
0111
0110
1000
1010
1110
1111
1011
1001
,  // measure 104
0010
1001
1011
1111
1101
0110
0010
1001
1101
1111
0111
0101
0100
1010
1110
1111
1110
1100
0010
0101
1011
1111
1110
0110
0100
1001
1110
1111
1011
1001
0010
1100
1110
1111
1110
1010
0010
1100
1101
1111
1011
0011
1000
1001
1110
1111
0111
0011
1000
1001
0111
1111
1101
0110
1000
0101
1011
1111
1011
1001
1000
1001
1101
1111
1101
0101
0100
1100
1110
1111
1011
0110
0010
1010
0111
1111
1011
0101
0100
1100
0111
1111
1110
1010
1000
1010
0111
1111
0111
0011
0001
1001
1101
1111
1101
1010
0100
1010
1110
1111
1110
0110
0100
1001
0111
1111
1110
0101
1000
1100
1011
1111
1011
1001
1000
0110
1110
1111
1011
1001
1000
1100
1110
1111
1101
1001
0010
0101
1101
1111
0111
1010
1000
1100
1110
1111
1011
0101
0100
1010
0111
1111
1101
0110
0010
0110
1101
1111
0111
0110
1000
1001
1101
1111
1110
0011
1000
1010
1110
1111
1101
0101
1000
1010
1110
1111
1101
1100
0100
1100
1110
1111
0111
1001
1000
0011
0111
1111
1110
0011
1000
0101
1101
1111
1101
1100
1000
1100
1011
1111
1110
1001
,  // measure 105
0010
1100
1110
1111
1101
1010
0010
1100
1011
1111
1011
0011
0001
1010
1110
1111
0111
0101
1000
1001
1011
1111
1110
1010
0001
1010
1011
1111
1110
0101
1000
1010
1011
1111
1011
1001
1000
1001
0111
1111
0111
1100
0010
1010
1110
1111
1101
0011
1000
1010
1011
1111
1110
0110
0100
0011
1110
1111
0111
1010
1000
0011
1101
1111
1110
0110
0100
0011
1011
1111
1011
0110
0100
0101
1011
1111
1011
1100
1000
1001
0111
1111
1011
1100
0100
1001
0111
1111
1011
0011
1000
1001
1011
1111
1110
1100
1000
1001
1101
1111
0111
1100
0001
0011
1101
1111
0111
1001
1000
1100
1110
1111
0111
0011
0010
1100
1101
1111
0111
0101
1000
0011
1011
1111
1110
1001
0001
1010
1110
1111
1101
1010
0010
1100
1011
1111
1011
0101
1000
1010
1110
1111
0111
0011
1000
1010
1101
1111
1110
1100
0010
1001
0111
1111
1101
1010
1000
0110
1110
1111
1011
0110
0010
1010
1101
1111
1101
1010
0100
0110
0111
1111
1011
1100
1000
0110
1110
1111
1110
1001
0010
1100
1110
1111
0111
0110
0001
0110
1011
1111
1110
1100
,  // measure 106
0010
0011
0111
1111
1011
0011
1000
1100
1110
1111
0111
1010
0001
1100
1110
1111
1011
0011
0001
1001
1110
1111
1101
1010
0010
0011
1110
1111
0111
1100
0100
0110
1110
1111
1110
0110
0001
1001
1101
1111
1110
1100
1000
0101
1011
1111
0111
0011
1000
1001
1110
1111
1011
1001
0010
1010
1110
1111
0111
1001
0001
0011
1110
1111
1011
1010
1000
0110
1110
1111
1011
1010
0100
1100
1101
1111
1101
1010
1000
1100
1110
1111
1110
1001
0010
1100
0111
1111
1011
1001
1000
1010
1101
1111
0111
0101
0010
1001
1101
1111
1101
0110
0001
0011
1011
1111
0111
1100
0001
1100
0111
1111
1101
1010
0100
1100
1101
1111
1011
1010
0100
1010
1101
1111
1110
1001
0010
1001
1110
1111
0111
1010
0001
0011
1110
1111
0111
1010
0010
1100
1011
1111
1110
0011
0100
1010
0111
1111
1110
0110
0100
1001
1110
1111
0111
0110
0100
1100
1011
1111
1101
1001
0100
0110
1110
1111
1011
1100
0010
1100
0111
1111
1101
0101
0010
0011
1110
1111
0111
0011
0100
1100
1110
1111
0111
0011
0010
1010
1011
1111
1110
1001
,  // measure 107
0100
0101
1110
1111
1110
1001
0100
1100
1110
1111
1101
1100
1000
1010
1110
1111
1011
0101
0010
1100
1110
1111
1011
0011
0100
1100
1101
1111
1101
1010
0010
0011
1101
1111
0111
0011
0001
1001
1101
1111
1110
0101
1000
1100
1101
1111
1011
1100
1000
1010
1110
1111
1101
1100
0100
1001
0111
1111
0111
1010
0010
0110
1110
1111
0111
1100
1000
1100
0111
1111
1110
0011
0010
0011
1101
1111
0111
1010
1000
1001
1011
1111
1011
1100
0100
0110
1011
1111
1101
1010
0001
1001
1011
1111
1101
1010
1000
1100
1110
1111
1011
1001
0100
0110
1101
1111
1110
0011
1000
0110
1011
1111
0111
0110
1000
1010
0111
1111
1101
1010
1000
0101
0111
1111
1101
0110
0010
0011
1101
1111
1110
1001
0100
1100
1110
1111
1110
1100
1000
1100
1110
1111
0111
0110
1000
1010
1101
1111
1101
1001
1000
0110
1110
1111
1110
1010
1000
1100
0111
1111
1101
1010
1000
1010
1110
1111
0111
1010
0100
1010
1110
1111
1101
0011
1000
1100
1110
1111
1110
0011
1000
1100
0111
1111
0111
0101
0100
1100
1101
1111
0111
1001
,  // measure 108
0100
1010
1011
1111
0111
1001
1000
0011
1110
1111
0111
1100
0001
0110
1110
1111
1101
1010
0100
0011
0111
1111
0111
1100
1000
0101
1011
1111
1011
0011
0010
1100
1101
1111
1011
1100
0100
1100
0111
1111
1101
1010
0010
0101
1110
1111
1101
1001
1000
1010
1101
1111
1101
0011
0001
1100
0111
1111
1110
1100
0001
0101
0111
1111
1110
1001
0010
1010
1110
1111
1011
1100
0001
1100
1101
1111
1011
0101
0100
1100
1101
1111
1011
1100
0010
1100
1011
1111
1011
1010
0100
1001
1110
1111
0111
1100
0100
0110
0111
1111
0111
0011
0100
1010
1110
1111
1011
1010
0010
0101
1011
1111
1011
0011
1000
1001
1110
1111
0111
1100
1000
0110
1101
1111
1101
1010
0100
1100
1101
1111
0111
1100
0100
0011
1101
1111
1110
0011
0001
0110
1011
1111
1101
1010
0100
1010
1011
1111
1110
1001
1000
1100
1110
1111
1011
1010
0010
1010
0111
1111
0111
1010
1000
1100
0111
1111
1101
0011
0010
0011
1110
1111
0111
1010
1000
1001
1110
1111
0111
1001
0100
0101
1101
1111
1101
1010
0010
1100
1110
1111
1110
1001
,  // measure 109
0100
1001
1011
1111
1011
1100
1000
0101
1101
1111
1101
1100
1000
1100
1110
1111
1110
0101
0100
1100
1101
1111
0111
1100
0010
1100
1101
1111
1110
1100
0100
0101
1101
1111
1011
1010
0100
1001
1011
1111
1101
0110
0100
1100
1110
1111
1110
1001
0001
0110
1101
1111
1101
0110
0100
1001
1011
1111
0111
1001
0100
0110
0111
1111
1110
0011
0100
1001
1110
1111
0111
0011
0010
1100
1110
1111
0111
0101
1000
1100
1110
1111
1110
1100
1000
1100
1101
1111
1101
1010
1000
1001
1110
1111
1011
0110
1000
1100
1101
1111
1011
1010
1000
0110
1011
1111
1101
1010
0100
1010
1101
1111
1101
0011
0100
1100
1101
1111
0111
1010
0100
1100
0111
1111
1011
1010
0100
1001
1110
1111
1110
0110
0001
1010
1110
1111
1101
1100
0010
1010
1011
1111
1110
0011
0001
0110
1110
1111
0111
0101
0001
0110
1101
1111
1101
1010
0010
1100
1101
1111
1011
1010
0100
1100
1101
1111
1011
1010
0100
0110
1101
1111
1101
0110
0100
1001
1101
1111
0111
1001
1000
0011
1110
1111
1110
1010
0100
1100
1011
1111
1110
1001
,  // measure 110
1000
1100
1110
1111
0111
0110
1000
0101
1011
1111
1011
0101
0010
0011
1110
1111
0111
1100
0100
0110
1011
1111
1011
0101
0001
0101
1110
1111
1011
0101
1000
0110
1110
1111
1101
0011
0010
1010
1110
1111
1101
1001
1000
0110
1011
1111
1011
1100
0100
1100
1101
1111
1011
0110
0100
1010
1110
1111
1101
0011
1000
1001
1101
1111
0111
1010
0001
1100
1101
1111
0111
0011
0010
1010
1110
1111
1110
1010
0100
0101
1110
1111
0111
1001
0010
1100
1110
1111
1011
0101
0100
1001
0111
1111
1110
0101
0100
1001
1110
1111
1110
1001
0100
1100
1101
1111
1101
1010
0001
1010
0111
1111
1110
1100
1000
1100
1011
1111
1011
0011
0100
1001
1011
1111
1011
1010
1000
1001
1110
1111
1110
1010
0100
1010
1110
1111
1110
1001
1000
0110
1110
1111
1110
0101
1000
1010
1110
1111
1101
0101
1000
1001
0111
1111
0111
1010
0100
0011
1101
1111
1011
1001
0100
1010
0111
1111
1110
0110
0100
1001
1011
1111
0111
0101
1000
1010
1101
1111
1101
0011
1000
0110
1110
1111
0111
1010
1000
1010
1110
1111
1110
1100
,  // measure 111
0010
1100
0111
1111
0111
1100
0010
1010
1011
1111
1101
0101
1000
1100
1110
1111
1011
1010
1000
1001
1110
1111
0111
0110
0100
1001
1011
1111
0111
1010
1000
1100
1101
1111
1011
1010
1000
1100
1110
1111
1101
1100
1000
1100
1101
1111
1011
1001
1000
1100
0111
1111
1101
0011
1000
1100
1110
1111
1101
1010
0100
1010
0111
1111
1101
0110
0001
0110
1011
1111
1011
0101
0100
1010
1101
1111
1110
1100
1000
1100
1011
1111
1110
0101
1000
1100
0111
1111
0111
1001
0001
1100
1110
1111
0111
0011
0100
1100
1101
1111
1110
0011
1000
0101
1101
1111
1101
1001
0100
0101
1110
1111
1101
0110
1000
1100
1011
1111
1110
0011
0100
0110
1011
1111
1110
0110
1000
1100
1110
1111
0111
1100
1000
1100
1011
1111
1110
1100
0010
0011
1101
1111
1011
0101
1000
1100
1011
1111
0111
0110
0010
1010
1011
1111
1110
0101
1000
0101
1011
1111
0111
0101
1000
1100
1110
1111
1011
1100
0010
1001
1101
1111
1110
0110
0100
0011
1011
1111
1110
1010
0010
0110
0111
1111
1011
0011
1000
1100
1011
1111
1110
0101
,  // measure 112
0100
1001
1110
1111
0111
1010
0010
0011
1110
1111
0111
0110
1000
0110
1011
1111
1011
0011
1000
1100
1110
1111
1110
1001
0010
1001
1101
1111
1011
0011
0100
1010
1101
1111
0111
1010
1000
1100
1110
1111
1011
0101
1000
0011
1110
1111
1110
0110
0010
1001
1011
1111
1101
0110
0100
1100
1110
1111
1101
1001
0001
1100
1110
1111
1011
1100
1000
1100
1110
1111
1110
1100
0001
1010
1011
1111
1011
1001
0100
0110
0111
1111
1011
1100
0100
1010
0111
1111
1110
0110
0010
0101
1110
1111
1110
1001
0100
1010
1101
1111
1011
0101
1000
1010
1110
1111
0111
1010
0010
1100
1110
1111
1101
1010
1000
1100
1110
1111
1101
1001
0100
0011
1101
1111
1110
1100
0100
1100
1110
1111
1110
1010
0001
1010
1101
1111
1110
0101
0010
0101
0111
1111
0111
1010
1000
0110
0111
1111
1110
1010
1000
1100
0111
1111
1011
1010
0001
1010
1101
1111
1101
1010
0001
1100
1101
1111
1110
1100
0001
1001
1110
1111
1110
1100
0010
1100
0111
1111
1110
1100
0010
1010
1110
1111
1011
1010
0100
0101
1110
1111
1110
0110
,  // measure 113
1000
1001
0111
1111
1011
0011
1000
1010
1101
1111
1110
1100
0001
1100
1101
1111
1101
1010
0100
1010
1011
1111
1101
1100
0010
0101
0111
1111
0111
1001
1000
0110
1011
1111
1110
0110
0010
0110
0111
1111
1110
1100
1000
1001
1110
1111
1011
0110
1000
1100
1011
1111
1101
1001
0010
1010
1011
1111
1110
1100
1000
0101
1110
1111
0111
1100
0010
1100
1110
1111
0111
1100
1000
1001
0111
1111
0111
1010
1000
0101
1101
1111
1101
1001
0100
1100
1110
1111
0111
0011
1000
0110
1011
1111
0111
0101
1000
1010
1101
1111
0111
0011
0100
1100
1110
1111
1110
0110
0001
1100
0111
1111
1101
1010
1000
1010
0111
1111
1110
1100
0001
1010
1011
1111
0111
0110
1000
1100
1011
1111
0111
1001
1000
1001
1011
1111
0111
0011
0100
1010
1101
1111
1110
1100
0010
1100
1110
1111
0111
1010
1000
1010
1110
1111
1110
0110
1000
1010
1101
1111
0111
1100
1000
1010
1110
1111
1101
0011
1000
1010
0111
1111
1110
1001
0100
1001
1011
1111
1011
1001
0100
1010
1110
1111
1011
1100
0001
1001
1110
1111
1011
0011
,  // measure 114
1000
0110
0111
1111
1101
1001
1000
0101
1110
1111
1110
1001
0100
1100
1011
1111
1101
1100
0010
0101
1011
1111
0111
1010
1000
0110
1011
1111
1101
0110
0100
1010
1110
1111
1110
0011
0001
1001
1011
1111
1101
1010
0010
1010
1101
1111
1011
1010
1000
1010
1110
1111
1101
1100
0010
1001
1110
1111
0111
1010
0100
1010
1101
1111
1101
1001
1000
0110
1110
1111
1110
0101
0100
1010
0111
1111
1110
1001
0010
0110
0111
1111
1101
1100
1000
0101
1110
1111
1110
1001
1000
1100
1101
1111
0111
1100
1000
1010
1110
1111
0111
0110
0001
0101
0111
1111
1101
1001
0010
1001
1101
1111
1110
0101
0001
0101
1011
1111
0111
0011
1000
1010
1110
1111
0111
1100
1000
0011
1011
1111
1101
1010
1000
1100
1110
1111
1110
1010
0010
1010
1110
1111
1101
1100
0100
0101
1110
1111
0111
1100
0010
1100
0111
1111
1101
1001
1000
1010
1011
1111
1110
1100
1000
1010
1101
1111
1110
1001
0100
1001
1110
1111
1101
1100
1000
0110
1011
1111
1011
1100
1000
1010
1011
1111
0111
0011
1000
1100
1110
1111
1011
1010
,  // measure 115
0100
0101
0111
1111
0111
0011
1000
0011
1101
1111
1110
0011
0010
1100
1101
1111
1110
1010
0100
0011
1101
1111
1101
1001
0100
1001
0111
1111
1101
0110
0010
0101
1011
1111
1011
1100
0001
1100
1110
1111
1110
1100
0100
1001
1110
1111
1110
1010
1000
0101
1101
1111
1110
0101
0100
0110
1011
1111
0111
1100
0010
0011
1110
1111
1110
1010
1000
1100
1011
1111
1101
0110
1000
1010
1101
1111
1011
1010
1000
0110
1110
1111
1101
0110
1000
0110
1110
1111
0111
1001
0010
1010
1101
1111
0111
1100
1000
0110
0111
1111
1101
1100
0010
1100
1110
1111
1110
0011
0001
1010
0111
1111
0111
0101
0001
1001
1011
1111
1101
1010
0100
1001
1110
1111
0111
1100
0100
0101
1110
1111
1101
1001
0100
0110
1110
1111
0111
1010
0100
0110
1011
1111
1110
1100
1000
0110
1110
1111
1101
1010
1000
1001
1101
1111
0111
1100
0010
1100
0111
1111
1011
0101
1000
1100
1101
1111
1011
1100
0100
1100
1110
1111
1110
1010
1000
1001
1110
1111
1101
1100
0010
1010
1011
1111
1101
1100
0010
1001
1110
1111
1110
1010
,  // measure 116
1000
0011
1011
1111
1110
1100
0010
0101
0111
1111
1101
1010
1000
1010
1011
1111
1110
1001
0100
1001
1110
1111
1110
0110
1000
1010
1101
1111
0111
0101
1000
1100
1110
1111
0111
1100
1000
1001
0111
1111
1011
1100
1000
0011
1101
1111
1011
1001
1000
1100
1011
1111
0111
0101
0010
1100
1011
1111
1110
1100
1000
0101
1110
1111
1101
1001
0100
1010
1101
1111
0111
1100
0001
0011
1101
1111
1110
1100
0001
1010
1110
1111
1110
1010
0100
1010
0111
1111
1110
1010
0010
1001
1101
1111
1110
0110
0100
1001
1011
1111
1011
1100
0010
1001
1110
1111
1110
0110
1000
1010
0111
1111
1011
1010
0010
0011
1110
1111
0111
1100
1000
1001
0111
1111
1101
1010
1000
1010
0111
1111
1101
1010
1000
0110
1110
1111
1101
1001
0010
0110
1011
1111
1110
1001
1000
1100
1011
1111
1011
1100
1000
0101
1110
1111
1101
0011
0010
0110
1110
1111
1110
1001
0100
1100
0111
1111
1011
1010
0010
0101
1101
1111
1011
1001
0100
1100
1110
1111
0111
1010
0100
1100
1110
1111
1110
1100
1000
1001
1110
1111
1110
1100
,  // measure 117
0100
1001
0111
1111
0111
1010
0100
1100
0111
1111
0111
0110
0100
1010
1110
1111
1011
1100
1000
1010
1101
1111
0111
0110
0010
1010
1110
1111
1110
1100
1000
0110
1110
1111
1110
0011
0100
1100
1110
1111
0111
1010
0010
1001
1110
1111
0111
0110
0010
0011
1110
1111
1101
1100
1000
1010
0111
1111
1101
1001
1000
0110
1110
1111
1110
0101
0100
0110
1011
1111
1011
1010
1000
0101
1110
1111
1110
1010
0100
0011
1101
1111
1011
1010
1000
1100
1101
1111
1101
1010
0001
0101
0111
1111
0111
1010
0100
0011
1110
1111
1110
0110
1000
1100
1011
1111
1110
0110
0010
1001
1101
1111
1110
0101
1000
1100
1011
1111
1110
0110
0100
1010
1101
1111
0111
0110
0100
1010
1101
1111
1011
1100
1000
0110
1110
1111
1101
1100
1000
1100
1101
1111
0111
0011
1000
1001
1011
1111
1110
0110
0100
1100
0111
1111
1101
1001
0100
0110
0111
1111
0111
1100
0010
0101
1110
1111
1101
0011
0100
1100
1011
1111
1110
1100
0010
1010
1110
1111
1110
1100
0010
1100
1110
1111
0111
0011
0100
1010
1101
1111
1110
0011
,  // measure 118
1000
0110
1101
1111
1011
0011
1000
1010
1101
1111
1110
1001
1000
1010
1110
1111
1011
0101
0100
1100
1110
1111
1101
0110
0010
0110
1110
1111
1101
1010
0001
1001
1101
1111
1110
1001
1000
0101
1011
1111
1011
0101
0100
0110
1110
1111
1101
0011
0100
1001
1101
1111
1110
0101
0100
1010
1110
1111
0111
1100
1000
0011
1110
1111
1101
0110
0010
1100
1011
1111
0111
1001
0100
1001
1011
1111
1101
0110
0010
0110
1101
1111
1101
1100
0100
0110
1110
1111
1011
1010
1000
1010
1101
1111
0111
1001
1000
1010
1110
1111
1101
1010
1000
0110
1011
1111
1101
1010
0010
1001
1011
1111
1110
1100
1000
0110
1110
1111
1011
0011
0010
1100
1110
1111
1101
1010
1000
0110
1101
1111
1110
1100
0001
0101
1101
1111
1110
0110
0010
1100
1110
1111
0111
1010
0010
1100
1101
1111
1101
0011
1000
0011
1110
1111
1011
1010
1000
0101
1011
1111
1110
1001
0010
1100
1110
1111
1110
0110
1000
1010
1110
1111
1110
0101
0100
1001
1101
1111
1101
1001
1000
1100
1110
1111
1101
1010
0100
1001
1011
1111
0111
1100
,  // measure 119
0100
1010
1101
1111
0111
1100
0010
0011
1101
1111
1110
0110
1000
0110
1101
1111
1110
1100
0100
0101
1011
1111
0111
1010
0100
1010
1110
1111
1101
0110
1000
1010
1101
1111
1101
0011
0100
0101
1110
1111
0111
1010
0100
1001
1101
1111
1011
1001
1000
0011
1101
1111
1101
1001
1000
1001
0111
1111
1101
0011
1000
1010
1110
1111
0111
0101
0010
0110
0111
1111
0111
1100
0100
0110
0111
1111
1101
0110
1000
1100
1011
1111
1110
0101
1000
1100
0111
1111
0111
0110
0100
0110
0111
1111
1101
1100
0001
1001
1011
1111
1101
1010
0100
1100
1110
1111
1101
1100
0001
0011
0111
1111
1110
1100
0100
1100
1110
1111
1011
1010
0010
0110
1110
1111
0111
0101
0100
1100
1011
1111
0111
0110
0001
1100
1110
1111
1110
1100
1000
1100
1110
1111
1110
0110
0100
1100
1110
1111
1101
1010
1000
1010
1110
1111
1110
0011
0010
1100
1011
1111
1101
0110
1000
1100
1011
1111
1110
0011
1000
1100
1101
1111
1011
1100
1000
0101
1101
1111
1101
1010
0001
0101
0111
1111
0111
1010
1000
1010
1101
1111
0111
1100
,  // measure 120
1000
1100
1011
1111
1011
0011
1000
0011
1011
1111
0111
0110
1000
0110
1110
1111
1110
0101
0100
1100
1011
1111
1011
1010
1000
1100
1101
1111
1110
1100
0001
0110
1101
1111
1101
1100
1000
1010
1110
1111
1011
1100
0100
1100
1101
1111
1110
0110
0010
1010
1110
1111
1110
0110
0001
1010
1110
1111
1011
0110
0100
1010
1011
1111
1011
0110
0001
1010
1101
1111
1110
0110
0100
0110
1101
1111
1011
1010
0100
1010
1011
1111
1011
1001
0100
0110
1011
1111
1011
1100
0001
1001
1110
1111
1110
1010
1000
1100
1101
1111
0111
0110
1000
0101
1011
1111
1110
0101
1000
1001
1110
1111
1011
0101
0100
1001
1101
1111
1110
0110
1000
1100
1110
1111
1011
1001
1000
0101
1110
1111
1101
1001
1000
0101
1101
1111
1110
0011
0001
1010
1101
1111
1110
0101
0100
1001
1011
1111
1110
0011
0010
1010
1011
1111
0111
1010
1000
1001
1110
1111
0111
1100
1000
1100
0111
1111
1101
1100
1000
1010
1101
1111
0111
1100
0001
0110
1011
1111
1110
0110
1000
1010
1011
1111
1110
0011
0100
1010
1110
1111
1011
1001
,  // measure 121
0001
0110
1110
1111
1110
1001
1000
1001
1110
1111
1110
0101
1000
1010
1110
1111
1110
0110
0001
0110
1101
1111
1011
1010
0100
1100
1110
1111
1110
0101
0010
1100
1101
1111
1011
1100
0010
0101
1110
1111
1011
1001
0100
1001
1101
1111
1101
1100
1000
1010
1110
1111
1110
1010
0100
0110
0111
1111
1110
1010
1000
0110
1110
1111
1101
0110
0100
1100
1110
1111
1011
0110
1000
0110
1011
1111
1101
0011
0100
1100
1101
1111
1110
0110
0100
1100
1110
1111
1101
0101
1000
1010
1110
1111
0111
0110
0100
0011
1101
1111
0111
0110
0010
1100
1011
1111
1101
1010
0010
1100
1110
1111
1101
1010
1000
0110
1110
1111
1011
1001
0010
1100
1011
1111
1011
1001
0100
1010
0111
1111
1101
0110
0100
1100
1011
1111
1110
1001
1000
0011
0111
1111
0111
0101
1000
1100
0111
1111
0111
0101
0010
1010
1110
1111
1101
0011
1000
1100
1101
1111
1011
1100
0010
1100
1101
1111
1110
1001
0100
1010
1011
1111
1011
0110
1000
0011
1110
1111
0111
1010
0001
1100
1011
1111
1011
0110
0010
1010
1101
1111
1110
0011
,  // measure 122
0100
1010
1110
1111
1101
0110
1000
0101
1110
1111
1110
0110
1000
1100
1101
1111
1101
0011
1000
0110
1110
1111
1110
0110
0100
1001
0111
1111
1110
0110
1000
1010
1011
1111
1110
0011
0010
1100
1011
1111
1110
0011
1000
0011
1101
1111
1101
0110
1000
1001
1110
1111
0111
1010
0100
1010
1110
1111
1110
0011
1000
0101
1011
1111
1011
0110
1000
1100
1101
1111
1110
1010
0010
0011
1101
1111
1110
1010
1000
0110
1101
1111
1101
1100
0100
1001
0111
1111
0111
1100
1000
1100
0111
1111
1011
1100
1000
1100
1101
1111
1110
1001
0100
1001
1101
1111
1011
1100
0100
1010
1110
1111
1101
1010
1000
1100
1110
1111
1101
0101
1000
0011
1101
1111
1110
0110
1000
0110
1110
1111
1110
1100
0001
0110
1011
1111
1110
1100
1000
0110
1011
1111
1110
1100
0010
1100
1101
1111
1101
1100
1000
1010
1101
1111
1101
1010
0001
0110
1110
1111
1110
1001
1000
0110
1110
1111
1011
0011
1000
0011
1101
1111
1101
1010
1000
0101
1110
1111
1110
0110
0100
1100
1110
1111
1110
1001
0001
1001
1101
1111
1110
1001
,  // measure 123
0010
0110
1101
1111
1011
1001
1000
0011
1101
1111
1101
0110
0100
1001
1110
1111
0111
0011
0001
0101
1011
1111
0111
0101
1000
1100
1011
1111
1011
0110
0001
1100
1011
1111
1101
1001
0100
1100
1110
1111
1110
0011
1000
1010
1110
1111
1101
0011
0100
0011
1110
1111
1101
1010
1000
1010
1011
1111
1110
0110
0010
1010
1110
1111
1110
1100
0010
0110
1101
1111
1101
0110
1000
0101
1011
1111
0111
0011
1000
1100
1110
1111
0111
1010
0010
0101
1101
1111
1011
0011
0100
1010
1011
1111
1101
1001
1000
1100
1101
1111
1011
1100
0010
1100
1110
1111
1011
1100
0100
1001
0111
1111
1110
1001
0010
1100
0111
1111
1110
0110
0100
0110
1011
1111
0111
1100
1000
1001
1101
1111
0111
0110
0100
0110
1110
1111
1110
0110
1000
0101
0111
1111
0111
0011
0100
1001
1101
1111
1101
1010
0010
0110
1110
1111
1101
1001
0100
1100
0111
1111
1110
1001
0001
0101
1110
1111
1110
1001
1000
1001
1110
1111
1011
0011
0010
0011
1110
1111
0111
1100
1000
1100
1110
1111
1011
1100
0001
1100
1110
1111
1110
0011
,  // measure 124
0010
0101
1110
1111
1110
1001
0100
1100
0111
1111
1110
1010
0100
1100
1110
1111
1101
0101
0100
1001
1110
1111
0111
0110
0010
1100
1110
1111
1101
0110
1000
1001
1110
1111
1110
1010
0100
0101
1011
1111
1101
1001
1000
1001
1011
1111
1110
0110
0100
1001
1101
1111
0111
0011
0100
0101
1101
1111
0111
1001
1000
0011
0111
1111
1011
1001
1000
1001
1110
1111
1110
1100
1000
0110
1101
1111
1110
1010
1000
1001
1110
1111
0111
0011
1000
0101
1101
1111
1101
1001
0100
0011
1110
1111
1011
0011
1000
1100
1110
1111
1101
1001
0100
1100
1110
1111
1101
1010
1000
1100
1011
1111
1101
1010
1000
1100
1110
1111
1110
1100
1000
1001
1101
1111
1101
1001
0001
1001
1110
1111
1101
0011
1000
1100
1110
1111
1101
1100
1000
1010
1101
1111
1101
1001
0010
1100
0111
1111
0111
1100
0001
0110
1110
1111
0111
0110
1000
1010
1101
1111
1011
1010
0001
0101
1110
1111
1011
0011
0100
1001
1101
1111
1011
0011
1000
0110
0111
1111
0111
1100
1000
0110
1011
1111
1101
1100
0010
0011
1011
1111
1110
1100
,  // measure 125
0010
1010
1011
1111
0111
0101
1000
1100
1011
1111
1011
0011
0010
0110
0111
1111
1101
1100
1000
0101
1110
1111
1101
1010
0010
1100
1110
1111
1101
1100
0100
0110
1110
1111
1101
1010
1000
1100
1110
1111
1101
0110
0001
0110
1101
1111
0111
1010
0010
1010
1011
1111
0111
0011
1000
0110
1011
1111
0111
1010
0100
1001
1110
1111
1101
1001
0010
1010
1110
1111
0111
1001
1000
1010
1110
1111
0111
0110
0001
0110
0111
1111
1110
1010
1000
1100
1101
1111
1101
1010
0100
1001
1110
1111
1110
1100
0010
1010
1110
1111
1011
0101
1000
1010
0111
1111
0111
0011
0010
1100
1011
1111
1101
1100
0010
1010
1011
1111
1110
0101
0010
0110
1101
1111
1110
1001
0001
1010
1110
1111
1110
1001
1000
1100
1011
1111
0111
1100
1000
0110
1011
1111
1101
1100
1000
1010
1110
1111
1101
1010
1000
1100
1101
1111
1101
1100
0100
1100
1011
1111
1101
1010
0100
1100
1011
1111
1101
0110
1000
1010
1110
1111
0111
0011
1000
1100
1110
1111
0111
1001
0100
0101
1011
1111
0111
0101
0100
1001
1110
1111
1011
0110
,  // measure 126
1000
1001
1110
1111
1101
1010
0100
1010
1101
1111
1110
1010
0100
1001
1101
1111
1101
1100
1000
1100
1011
1111
1011
1100
0010
1001
0111
1111
1101
0110
0100
1010
1110
1111
1101
1010
0100
0101
1011
1111
1101
1010
0100
1001
1101
1111
1011
1010
0010
1100
0111
1111
0111
1001
0010
1001
1101
1111
1110
1001
1000
0101
1011
1111
1110
1100
0001
0101
1110
1111
1011
1100
0010
0011
1110
1111
1101
1010
1000
1001
1011
1111
0111
0101
1000
1100
1101
1111
1011
1010
0100
1010
0111
1111
1101
1010
1000
0101
1110
1111
1110
1010
0100
1010
1110
1111
0111
0101
0010
1100
1110
1111
1011
1010
1000
1010
1101
1111
1110
0101
0100
1010
0111
1111
1011
1010
0010
1100
1110
1111
0111
1010
0100
1001
1110
1111
0111
1001
0001
0110
1110
1111
1110
1001
1000
0110
1110
1111
1110
1010
1000
1100
1101
1111
1011
0011
1000
0101
1011
1111
1101
1100
0100
1010
1110
1111
1011
0110
1000
0110
1011
1111
1101
0110
1000
1100
1110
1111
1101
1001
1000
1001
1011
1111
0111
1010
1000
1010
1110
1111
0111
0101
,  // measure 127
0010
0110
1110
1111
1110
1010
0100
1010
1110
1111
1101
1010
0100
0101
0111
1111
1110
1010
1000
1010
1110
1111
1011
1010
1000
1010
1110
1111
0111
1010
0010
0110
1101
1111
0111
0011
0100
1100
1110
1111
1011
1001
0001
1100
0111
1111
0111
1100
0100
0101
1101
1111
0111
1010
0010
0011
1110
1111
0111
0110
0010
0110
1011
1111
0111
0110
1000
1001
0111
1111
1101
0101
1000
1100
0111
1111
1110
0101
0010
0011
1101
1111
1011
1100
0100
0011
1110
1111
1011
1100
0010
1100
1110
1111
0111
0011
0001
1100
1110
1111
1110
0011
0001
0101
1110
1111
0111
1100
1000
1100
1110
1111
1110
0110
1000
1010
1101
1111
1101
1010
0100
1100
0111
1111
1011
1100
0010
1001
0111
1111
1101
1100
1000
1100
1110
1111
1101
1100
1000
0110
1011
1111
1110
1010
0010
1100
0111
1111
1101
0101
0010
1001
1011
1111
1101
1100
1000
1001
1101
1111
1101
1010
1000
1001
1101
1111
1101
0101
1000
1010
1011
1111
1110
1001
1000
1010
1110
1111
0111
0110
0010
1010
1011
1111
0111
1100
0100
0110
1110
1111
1011
1010
,  // measure 128
0100
1100
1011
1111
1110
1010
1000
0011
0111
1111
1110
1001
1000
1001
1110
1111
1110
0101
0010
1100
1101
1111
1101
1001
0010
0011
1110
1111
1110
1100
0010
1100
1110
1111
1101
1010
1000
1010
1011
1111
1110
1001
1000
1100
1101
1111
1101
1100
0100
0101
1101
1111
0111
1100
0100
0101
1101
1111
0111
0110
0010
0110
1011
1111
1011
1100
0010
0011
1101
1111
1011
0101
0001
0110
1110
1111
1101
0101
1000
1001
1110
1111
1011
0011
0010
1100
0111
1111
1101
1100
1000
1100
1011
1111
1110
1001
1000
1001
1110
1111
1110
0011
0100
0110
0111
1111
1101
0011
0100
1100
1110
1111
1011
0101
0001
1100
1101
1111
1011
1010
0010
1100
1011
1111
0111
0011
0010
1001
0111
1111
1101
1100
1000
1010
1011
1111
1110
1100
1000
1001
1110
1111
0111
0110
0100
1001
1110
1111
1101
1001
1000
0110
1110
1111
1110
1001
0010
0011
1110
1111
0111
1010
0010
1010
1101
1111
1101
0101
0100
1100
1011
1111
1110
0110
0001
0110
1011
1111
0111
1010
0100
1100
1110
1111
1011
1100
0010
1100
1101
1111
1011
0101
,  // measure 129
0100
0110
1110
1111
0111
0110
1000
0110
1110
1111
1011
0011
1000
1001
1011
1111
1011
1010
0010
0110
1101
1111
1101
0011
0100
1001
1110
1111
0111
1010
0010
1100
0111
1111
0111
0110
0100
1100
1110
1111
1101
1010
0100
1100
1101
1111
1101
1001
0010
1100
0111
1111
0111
1001
1000
0011
1110
1111
0111
1100
0010
1010
1011
1111
1110
1010
0001
1001
1101
1111
1110
1001
1000
1100
1110
1111
0111
0011
1000
0011
1011
1111
1101
1010
0001
1010
1110
1111
0111
1100
0010
1001
1101
1111
1101
0101
1000
1001
0111
1111
0111
0110
0100
1010
0111
1111
1011
0011
1000
0101
1110
1111
1101
1010
0100
1100
1101
1111
0111
1001
0100
1010
1011
1111
1011
1010
0100
1010
1011
1111
1110
0011
0100
0110
1101
1111
1110
1001
0010
1100
1101
1111
1101
1100
0100
1010
0111
1111
1110
1100
1000
1010
0111
1111
1101
1001
1000
1001
1110
1111
1101
0011
1000
1010
1110
1111
1110
1010
1000
1010
1101
1111
0111
0011
0100
0011
1011
1111
1101
1010
0100
1100
1011
1111
1110
1100
1000
1001
0111
1111
1110
1010
,  // measure 130
0001
0101
1101
1111
1110
0110
0100
1100
1101
1111
0111
1001
0010
1010
1101
1111
1110
0011
0001
0110
1101
1111
0111
1100
0010
1010
0111
1111
1011
1100
0100
1001
1101
1111
1110
0101
0001
1001
1101
1111
1101
1100
1000
1010
0111
1111
1110
0110
0010
1001
1011
1111
1110
0011
0010
1010
1101
1111
1110
1100
0100
0101
1110
1111
1011
1010
0100
0110
1110
1111
1110
1010
0100
1100
1110
1111
0111
0011
1000
0110
1110
1111
1011
1100
0100
1001
1101
1111
0111
1001
0010
1001
1101
1111
1101
1100
0001
1001
1110
1111
1110
1001
0100
0110
1011
1111
0111
0101
1000
1100
0111
1111
1101
1100
1000
1010
1011
1111
1011
0011
0010
1100
1110
1111
1110
1001
0100
0110
1110
1111
1101
1010
1000
0011
1011
1111
1110
0101
0100
1100
1110
1111
0111
1100
1000
1100
1101
1111
0111
1100
0010
1100
1101
1111
0111
1001
0010
1001
1011
1111
1101
0110
0100
1100
1110
1111
1110
1010
0010
1100
1011
1111
1011
1100
0100
1100
1011
1111
1011
1010
0100
1010
1110
1111
0111
1100
0100
1010
1011
1111
1011
1010
,  // measure 131
1000
0110
1110
1111
1110
0011
1000
1010
1011
1111
1011
0110
0001
1010
1011
1111
1011
1001
0010
1100
1101
1111
0111
0110
0100
0110
1011
1111
1110
0110
1000
1100
1011
1111
1110
0011
0100
0011
1110
1111
1101
0101
0010
0101
1110
1111
1011
1010
0001
0011
1011
1111
1101
1100
1000
1001
1011
1111
1110
0101
0100
1001
0111
1111
1011
1010
0010
1010
0111
1111
0111
1001
1000
0110
0111
1111
1101
1010
0100
1100
1110
1111
0111
1100
1000
1100
1110
1111
1101
0011
0010
1001
1011
1111
1011
1001
0100
1100
1110
1111
1110
1100
0100
0110
1110
1111
1110
0011
0100
0101
1110
1111
1110
1100
0010
1100
1110
1111
0111
0110
0010
1100
0111
1111
1101
1010
0010
1010
1110
1111
1110
1010
1000
1001
1110
1111
0111
1100
0010
1010
0111
1111
0111
0110
0100
1010
1110
1111
0111
0101
1000
1001
0111
1111
1011
0101
0010
1010
1110
1111
0111
1001
0100
1100
1110
1111
0111
1100
1000
0101
1101
1111
1101
1100
0010
0110
1011
1111
1011
1100
0010
1001
0111
1111
0111
1010
0001
1010
1101
1111
1101
0110
,  // measure 132
1000
1100
1101
1111
1011
0110
1000
1001
1110
1111
1110
1100
0100
1010
1110
1111
1011
0110
0010
0101
1101
1111
1101
1001
0010
0101
1110
1111
1101
0101
0010
1010
1011
1111
1110
1001
0010
1100
1101
1111
0111
1100
0010
1100
1110
1111
1101
1010
0100
1010
0111
1111
1110
0110
0010
1010
1101
1111
1110
1010
1000
1001
1011
1111
1011
0011
1000
0011
1011
1111
1110
1010
0001
1100
1101
1111
1101
0101
0010
1100
1101
1111
1011
1100
0100
1010
0111
1111
1101
0110
0100
0110
1110
1111
1110
0110
0010
1100
1110
1111
1110
0110
0010
1100
0111
1111
1110
0011
0010
0101
1110
1111
1011
1001
0010
1001
1101
1111
1101
1010
1000
1010
1011
1111
0111
0110
1000
0110
1101
1111
1011
0110
0100
1010
1011
1111
1110
0101
0100
1001
1101
1111
1110
0011
0100
1010
0111
1111
0111
1010
0100
1100
1110
1111
0111
1010
0001
1010
1011
1111
1101
0101
1000
1100
1110
1111
1101
1100
1000
1100
0111
1111
1011
1010
0100
0101
1110
1111
1011
1010
1000
1010
1011
1111
1011
1100
1000
1010
1011
1111
1110
1001
,  // measure 133
1000
0110
1101
1111
1101
0110
0100
1001
1011
1111
0111
1100
1000
1100
1110
1111
1110
1100
1000
0110
1101
1111
1110
1001
1000
1001
1110
1111
1011
1100
1000
0011
1110
1111
1101
1100
0100
1010
1101
1111
0111
0101
1000
1100
1110
1111
0111
0011
1000
0110
1110
1111
1011
1001
0010
1100
1101
1111
1110
1010
1000
1100
1011
1111
1011
1010
1000
1100
0111
1111
1011
1001
0100
1001
1011
1111
1110
0011
0001
1100
1110
1111
0111
1100
0010
1100
1011
1111
0111
0110
0100
1010
0111
1111
1110
0110
1000
1010
0111
1111
1011
1010
1000
0110
1110
1111
1011
0011
1000
1100
1011
1111
1110
1010
0010
0101
1011
1111
0111
1100
0010
1001
0111
1111
1101
1001
0100
1100
1101
1111
1101
0110
0010
0110
1110
1111
1110
0110
0100
1100
1101
1111
0111
1100
0100
0101
1110
1111
1011
0101
0001
0101
1110
1111
1110
1100
0010
0011
1110
1111
1101
0011
1000
1100
1110
1111
1011
1001
1000
0101
1110
1111
0111
1010
1000
1100
1101
1111
1011
1010
0010
1100
1110
1111
0111
1001
0100
1001
1101
1111
1110
0110
,  // measure 134
0100
1001
1011
1111
1110
0110
1000
0011
1011
1111
1101
1010
0001
0110
1101
1111
1101
0011
0100
0011
0111
1111
1011
1010
1000
1100
0111
1111
0111
1010
1000
1100
1110
1111
1101
1100
0010
0110
1011
1111
0111
1010
0010
1010
0111
1111
1011
1010
0100
0110
1101
1111
0111
0011
1000
1010
1011
1111
0111
1100
1000
1100
0111
1111
1011
1010
1000
0101
1101
1111
1101
0110
1000
1100
0111
1111
1101
0110
0100
0011
0111
1111
0111
1001
0010
0110
1101
1111
0111
1010
1000
1001
1011
1111
0111
0011
1000
1010
1101
1111
1011
0110
1000
0011
1110
1111
1110
1010
0100
1100
1101
1111
0111
1100
1000
0101
0111
1111
1110
1010
0100
1100
1011
1111
0111
1010
0001
1001
1110
1111
1110
0011
1000
1100
1110
1111
1011
1010
0010
1100
1101
1111
1110
1001
1000
1001
1110
1111
0111
1001
1000
1100
1110
1111
1101
0110
0010
1001
1011
1111
1101
1010
0100
0011
1110
1111
0111
0110
0001
1001
1101
1111
1110
0011
1000
1100
0111
1111
1101
1010
0010
0101
1110
1111
1110
1001
0010
1100
1101
1111
0111
1001
,  // measure 135
0010
1010
0111
1111
1101
1001
0010
0011
1101
1111
0111
1100
0010
0011
1101
1111
1110
1001
0001
1100
1101
1111
1110
1010
1000
1100
1110
1111
1011
0011
0100
1010
1101
1111
1110
0101
0100
0011
1101
1111
1101
1001
0100
0110
1110
1111
0111
1010
1000
0110
1110
1111
1101
1001
1000
1100
1110
1111
1110
0101
1000
0110
1011
1111
1110
1010
0100
1100
1110
1111
1101
1001
1000
0101
1110
1111
1110
1001
0010
0110
1110
1111
1101
1001
1000
0110
1011
1111
1110
1010
0100
1010
1110
1111
1110
1100
0001
0101
1011
1111
1110
0011
1000
1100
1011
1111
1011
1100
0010
1010
0111
1111
1110
1010
1000
1100
1101
1111
0111
0110
1000
0101
1101
1111
1011
1010
1000
0110
1110
1111
1110
0110
0010
0110
1110
1111
1101
0110
0010
0011
0111
1111
1101
1001
0100
1001
1110
1111
1101
0110
0001
1001
1110
1111
0111
0101
0100
1001
1110
1111
1101
1100
0010
0011
1110
1111
1101
1001
0001
1010
1110
1111
0111
1100
0100
1100
1101
1111
1110
1010
1000
0101
1011
1111
1101
1100
1000
0110
1110
1111
1101
1100
,  // measure 136
0100
1100
0111
1111
1110
1001
0100
1100
1011
1111
1011
0110
0010
0110
1101
1111
0111
1010
1000
0101
1110
1111
1011
0110
0100
1001
1110
1111
1011
0011
0010
1100
0111
1111
1011
0101
1000
1100
1101
1111
1101
0110
1000
1010
1110
1111
1101
1001
0010
0101
1110
1111
1110
1010
0010
0101
1110
1111
0111
1010
0001
1001
1011
1111
0111
1010
1000
1001
1110
1111
0111
1100
1000
1001
1110
1111
1110
1100
0100
0110
1101
1111
0111
1010
0001
1100
1110
1111
1110
1100
1000
1100
1101
1111
1011
0110
0100
1100
1101
1111
0111
1010
1000
1100
1101
1111
1101
1100
0010
1010
1011
1111
1110
1010
1000
1100
1110
1111
1110
1010
0010
0101
1110
1111
1110
1001
0100
1010
1110
1111
0111
1100
0100
1100
1110
1111
1110
1100
1000
1100
1110
1111
1011
0101
0010
1010
1110
1111
0111
1100
1000
1100
1011
1111
1110
1010
0010
0110
1110
1111
1011
1100
0001
0011
1101
1111
1110
1100
0010
1001
0111
1111
0111
1001
0010
1010
1110
1111
1110
0011
1000
1010
1011
1111
1110
1001
0100
1010
1101
1111
1011
1001
,  // measure 137
0010
0110
1110
1111
1110
1100
1000
1010
1011
1111
1101
0011
0001
1100
1011
1111
1110
1100
0100
1100
1110
1111
1110
1100
0010
1010
0111
1111
1101
0110
0100
1100
1101
1111
1110
1010
1000
0011
1110
1111
1110
1001
1000
0110
1110
1111
1101
0011
0010
1010
1011
1111
0111
1100
1000
1100
1110
1111
0111
1100
1000
1100
1101
1111
1011
0110
1000
0110
1011
1111
1101
0110
0001
0110
1110
1111
1101
1100
1000
0011
1110
1111
1011
0110
1000
0011
1110
1111
0111
0110
1000
1010
1101
1111
1101
1010
0001
1010
1110
1111
1101
1010
0100
0101
1011
1111
1101
1001
1000
1100
1110
1111
1011
0110
0010
1100
1101
1111
1110
1001
1000
0110
1101
1111
0111
0101
0010
0110
1101
1111
1110
0101
0100
0110
1011
1111
0111
1100
0100
1001
1101
1111
0111
1010
0010
0110
0111
1111
1011
1001
0010
1001
0111
1111
1110
1010
1000
1001
0111
1111
1011
0110
0100
1010
1011
1111
1101
0101
0100
1100
0111
1111
1011
0110
0001
0101
1110
1111
1110
0110
1000
0110
1110
1111
1110
1100
1000
1010
1110
1111
1101
0101
,  // measure 138
1000
1100
1110
1111
1011
1100
1000
1001
0111
1111
0111
0101
1000
1100
1101
1111
0111
1001
1000
0101
1110
1111
0111
1010
0010
0110
1011
1111
1110
0011
0100
0011
1101
1111
0111
0101
0100
1100
1011
1111
1110
1001
0001
1001
1101
1111
1011
1100
1000
0110
1011
1111
0111
1010
0100
0011
1110
1111
1110
0101
1000
1100
1011
1111
1011
0011
0100
1010
1110
1111
1101
1010
0010
0011
1110
1111
1011
1100
0010
0110
1101
1111
0111
1001
0100
1100
1011
1111
1110
0101
0010
1001
1110
1111
1110
1010
0100
0110
1110
1111
1011
1001
1000
1001
1110
1111
1011
1100
0010
0110
0111
1111
1011
1010
1000
0110
1101
1111
0111
0101
0100
0110
1110
1111
1101
0011
0100
1001
1011
1111
1011
0101
0100
1100
1110
1111
0111
1010
0010
0011
1011
1111
1101
0110
1000
0011
1011
1111
0111
0110
1000
1010
1110
1111
0111
1010
0010
1010
0111
1111
1101
0011
0010
0101
1110
1111
1110
1010
1000
1100
1110
1111
0111
1001
1000
0011
1101
1111
1110
1100
0100
1100
1110
1111
1011
1010
0100
1100
1101
1111
1110
0011
,  // measure 139
0010
0110
1101
1111
1011
1100
1000
0011
1011
1111
1011
0110
1000
1100
1110
1111
1101
0110
1000
1100
0111
1111
1011
0011
0100
1001
1110
1111
1101
1100
1000
1001
1110
1111
1110
0011
0100
0011
1110
1111
0111
1100
0010
0101
1101
1111
0111
1010
1000
1100
1101
1111
0111
1010
1000
1100
0111
1111
1011
0110
0010
1001
1110
1111
1011
0110
0100
0101
1110
1111
1011
1100
0010
1010
1110
1111
1110
0011
0010
1100
1101
1111
1110
1010
0100
1100
1110
1111
1011
1001
0001
1001
1110
1111
1011
1010
1000
1001
1110
1111
0111
0011
0010
1001
1101
1111
1011
0110
1000
1001
1110
1111
1011
1010
0010
1001
1011
1111
1101
1010
1000
1010
1110
1111
1101
1010
0100
0101
1011
1111
1110
1010
1000
1001
1011
1111
1110
1100
1000
1001
1110
1111
1011
1010
1000
0101
1110
1111
1110
0011
1000
1100
1110
1111
1110
1100
0100
0110
1110
1111
1011
1010
0010
1100
0111
1111
1110
1100
1000
1010
1011
1111
1110
1010
0010
1100
1011
1111
1110
1001
0100
1001
1101
1111
1110
1100
0100
1100
1011
1111
1101
1010
,  // measure 140
1000
1100
1110
1111
1110
1010
1000
1010
0111
1111
1110
1010
0010
1001
1110
1111
0111
1010
0100
1100
1110
1111
1101
1010
1000
1010
1110
1111
1110
1100
0010
1010
1110
1111
0111
1010
1000
0101
1110
1111
0111
1100
0100
1100
1011
1111
1101
1100
0010
1100
1101
1111
1110
0101
1000
1010
1110
1111
1101
0011
0100
0101
1011
1111
1011
1100
1000
0110
1110
1111
0111
0011
0010
1100
1110
1111
1110
1100
0010
1100
1011
1111
1101
0101
0010
1001
1101
1111
0111
0110
0100
1100
1110
1111
1110
1010
0001
0101
1011
1111
1011
0101
0001
1100
1110
1111
0111
1100
0001
1001
0111
1111
1110
1100
0001
1100
1101
1111
1101
0011
1000
1010
1101
1111
1110
1100
0001
1001
1110
1111
1110
0110
0100
1010
1101
1111
1101
0110
1000
1100
1011
1111
1101
1001
1000
1100
1110
1111
1011
0011
1000
0011
1110
1111
1011
1010
0010
1001
1110
1111
1110
1010
0001
1001
1110
1111
0111
1001
0001
1100
0111
1111
1110
0011
0100
0110
1101
1111
1011
1100
1000
1010
1110
1111
0111
1100
1000
0101
1011
1111
0111
1001
,  // measure 141
1000
1010
1110
1111
1011
1001
1000
1001
1110
1111
1011
1010
0010
1010
1110
1111
0111
1010
0001
1001
1110
1111
1110
1010
1000
1001
1110
1111
1110
0110
0010
1100
1011
1111
1110
1100
0100
0110
1101
1111
1011
1100
0100
1100
1011
1111
0111
1001
0010
0110
1110
1111
1101
0110
0010
1100
1101
1111
1101
0101
1000
0110
1110
1111
1101
1010
0100
1010
1011
1111
1110
0011
0100
1100
1011
1111
0111
0011
0001
1010
1011
1111
1101
1010
1000
0011
1011
1111
1011
0110
1000
1010
1101
1111
0111
1100
0010
1100
1101
1111
1101
0011
0010
1100
1101
1111
1011
1100
0010
0011
0111
1111
1011
0101
0100
1100
1110
1111
1011
0011
1000
1100
1011
1111
0111
1001
0001
1001
1101
1111
1101
1010
1000
1100
1110
1111
1101
1010
0010
1001
1011
1111
1011
1010
1000
0110
0111
1111
0111
0110
0010
1100
1110
1111
1110
1010
1000
0110
1110
1111
0111
1100
0010
0110
0111
1111
1101
1010
0010
1100
1101
1111
1011
0101
0010
0101
1011
1111
1101
1010
1000
1100
1101
1111
1101
1100
1000
0011
1101
1111
1110
1100
,  // measure 142
1000
0110
1101
1111
0111
0011
0100
1100
1101
1111
1101
1100
0010
1010
1110
1111
1011
1100
0010
0101
1011
1111
1101
0011
1000
1001
1110
1111
1011
1100
0100
1010
1101
1111
1110
0101
0010
1100
1101
1111
1101
0110
1000
1100
1110
1111
1110
1010
0001
1001
1101
1111
1101
0110
1000
0101
1011
1111
1101
0110
0100
0011
1110
1111
1110
0110
0001
1010
1101
1111
1110
0110
0100
1010
1011
1111
0111
1010
1000
0011
0111
1111
1011
0110
1000
0101
0111
1111
1110
1100
0100
0101
1011
1111
1110
0110
1000
1100
1011
1111
0111
0101
0100
0101
1110
1111
1011
1010
0010
1100
1011
1111
1011
1001
0100
1001
1011
1111
1110
0011
0010
0110
0111
1111
0111
0110
0100
1001
1110
1111
1101
1100
0001
0110
1110
1111
0111
1001
0001
1010
1011
1111
1011
1100
0100
1100
1011
1111
1011
1001
0001
1100
1110
1111
1011
1010
0001
1100
0111
1111
1011
0011
0010
0110
1110
1111
1110
0110
0100
0011
1110
1111
0111
0011
1000
1100
1011
1111
0111
0110
1000
0101
1110
1111
1110
1100
0010
1010
0111
1111
0111
1100
,  // measure 143
0100
0101
1101
1111
1011
0011
0001
1010
1011
1111
0111
1001
0001
1001
1101
1111
1101
0101
0100
1010
1110
1111
1101
1100
0010
0011
1110
1111
1101
0011
1000
1001
1101
1111
1110
0110
0010
1010
0111
1111
1101
1010
0100
1001
1101
1111
0111
1100
1000
1001
1110
1111
1110
1010
0010
1001
1011
1111
1110
0101
1000
0011
1110
1111
1011
0101
1000
0101
1110
1111
1101
1001
0010
1100
1101
1111
1011
1001
1000
1010
1110
1111
1101
1100
0001
1100
1110
1111
1110
1100
1000
0011
1110
1111
1011
1100
1000
1100
1011
1111
1101
1001
1000
0110
1110
1111
1110
1010
0010
0110
1011
1111
1110
0011
1000
1001
1011
1111
1011
0110
0001
0101
1110
1111
0111
1100
0100
0110
1101
1111
1011
0011
0100
1100
1011
1111
1011
0101
1000
0110
0111
1111
1110
0110
1000
0101
1110
1111
0111
0101
0100
1100
0111
1111
1011
0110
1000
1010
1110
1111
1011
0110
0001
0101
1110
1111
1011
0110
1000
1010
1110
1111
1011
1001
0010
1100
1110
1111
1011
1010
1000
1010
0111
1111
1011
1100
0100
1100
1101
1111
1011
1100
,  // measure 144
0010
1010
1110
1111
1011
0011
1000
1010
0111
1111
1011
1010
0010
1100
1011
1111
0111
0101
0001
1100
1110
1111
1110
0101
0001
1100
1101
1111
0111
0110
0010
1100
1110
1111
1101
1001
0001
1001
1110
1111
1011
0101
0001
1100
1110
1111
1011
1010
0100
0101
1110
1111
0111
1010
0001
1100
1101
1111
1101
0110
1000
1010
1110
1111
0111
1010
1000
0101
0111
1111
0111
1100
0100
1001
1110
1111
1110
1001
1000
1100
1011
1111
1011
1100
1000
1100
1101
1111
1011
0101
0010
0101
1110
1111
1110
1010
1000
0110
1110
1111
1101
1100
0010
1100
1101
1111
1101
0011
0100
0110
1110
1111
1101
1010
0010
1100
0111
1111
1110
0011
0100
1100
1110
1111
1110
1010
0001
1100
1011
1111
0111
1001
1000
0101
1011
1111
1110
0110
0010
1001
1011
1111
1101
1010
0010
0110
1110
1111
0111
0101
0001
1001
1011
1111
1110
1010
1000
1001
1011
1111
1011
1001
0100
1010
0111
1111
0111
1001
0001
0011
1011
1111
0111
1100
0010
1100
0111
1111
1110
1100
0100
0011
1110
1111
0111
1010
0100
1010
1101
1111
1011
1010
,  // measure 145
0100
1100
1011
1111
0111
1010
1000
1001
1101
1111
1011
1001
0010
1100
1101
1111
0111
1001
1000
0110
1110
1111
1110
0110
1000
1010
1110
1111
0111
0011
0100
0110
1101
1111
0111
1010
0010
1001
1011
1111
1101
1001
0010
1100
1101
1111
1110
1100
0010
0011
1110
1111
1110
1001
0100
0011
1110
1111
1110
1100
0010
1100
1101
1111
1110
0110
1000
1100
1101
1111
1011
1001
0100
1100
1110
1111
1101
0110
1000
0011
1011
1111
1101
1010
1000
1010
0111
1111
0111
1001
0010
0110
1011
1111
1101
1001
0100
0011
1011
1111
1011
0110
0010
1010
1011
1111
1101
1001
0100
1010
1110
1111
1101
0110
0100
1010
1110
1111
1101
1010
0100
1001
1110
1111
1101
1010
0100
1100
1110
1111
1101
0011
0100
0110
1101
1111
1011
0110
0010
1010
0111
1111
1101
1010
1000
1100
1110
1111
0111
1001
0001
1100
1110
1111
0111
1010
0010
1001
1110
1111
1110
0110
0010
1001
1110
1111
0111
1010
0010
0101
1110
1111
1110
1100
1000
0101
0111
1111
1101
0110
0100
1001
1101
1111
0111
1100
1000
1100
1110
1111
0111
0110
,  // measure 146
1000
1010
1011
1111
0111
1100
0010
0110
1011
1111
1011
1010
1000
0101
1101
1111
1101
1100
0100
1100
1110
1111
1011
1010
1000
1001
1011
1111
1110
1010
1000
1100
1110
1111
1110
1001
0100
1010
0111
1111
0111
0011
0010
1010
1011
1111
1011
0101
1000
0110
1110
1111
0111
0101
1000
0110
0111
1111
1101
1100
0001
0011
1011
1111
1011
0011
0010
1010
1011
1111
1101
0110
0001
1100
0111
1111
1011
0110
1000
1010
1101
1111
1110
0110
0010
1010
1110
1111
1011
1100
0010
0101
1101
1111
1110
1001
0001
1100
1110
1111
1011
1100
0100
0101
1011
1111
1110
1010
1000
1100
1011
1111
1011
1100
0100
1100
1011
1111
1101
1010
1000
0110
1011
1111
1110
1001
1000
1010
1110
1111
1110
1001
1000
1001
1110
1111
1011
1100
1000
1100
1101
1111
0111
0110
1000
1100
1011
1111
1011
1001
0100
1100
0111
1111
1011
0011
1000
0011
1101
1111
0111
0110
0100
1100
1110
1111
0111
1100
1000
1001
1011
1111
0111
1100
0010
1010
0111
1111
1101
0110
0010
1010
0111
1111
0111
0110
1000
0110
1101
1111
1101
1010
,  // measure 147
0100
1001
1110
1111
1110
0110
0010
1100
1011
1111
1101
1010
1000
0011
1110
1111
1011
1010
1000
1010
1011
1111
1101
0110
1000
0110
0111
1111
1110
1010
0010
0110
0111
1111
1101
1001
0010
1001
0111
1111
0111
1010
0010
1100
1101
1111
0111
0011
0010
1100
1110
1111
0111
0110
1000
0011
1110
1111
1110
0110
0010
1001
0111
1111
0111
1100
0100
0110
1110
1111
1110
1010
0010
1001
0111
1111
1110
1100
0100
0101
1101
1111
1110
1001
1000
1100
1011
1111
1101
1100
1000
1001
1110
1111
1011
0011
1000
0110
1110
1111
1110
1001
1000
1100
1110
1111
0111
1100
0010
0101
1110
1111
0111
0110
0100
0110
1101
1111
1110
1010
0100
1001
0111
1111
0111
0101
0100
0110
1110
1111
1110
1010
0001
0110
1110
1111
1011
0110
1000
0110
1110
1111
1101
0110
1000
1010
1101
1111
1011
0011
0100
1010
1101
1111
1011
0101
1000
1001
1110
1111
1110
0011
0001
1100
1110
1111
1110
0110
1000
0011
1110
1111
0111
1001
0010
1010
1011
1111
1110
0110
0010
0011
1101
1111
0111
1010
0010
1010
0111
1111
1101
1100
,  // measure 148
0001
1010
1110
1111
1110
1010
0100
1001
1011
1111
1110
0101
0100
0101
1110
1111
1101
1010
1000
1001
1101
1111
1110
1100
1000
1100
1011
1111
1110
1100
0010
1001
0111
1111
1101
1100
0010
1010
1110
1111
1011
1001
1000
1100
1011
1111
1110
1010
1000
1010
1110
1111
1110
0101
0100
1010
1110
1111
1110
0101
0010
1010
1110
1111
1110
0101
0100
1100
1110
1111
0111
1100
0100
1010
1011
1111
1011
0110
1000
0011
1101
1111
1011
1010
1000
0101
1110
1111
1110
1100
1000
1010
1110
1111
0111
0011
0010
1100
1101
1111
1011
1010
0001
1001
1011
1111
0111
0101
1000
1010
1011
1111
1101
1100
0100
1010
1110
1111
0111
1100
0010
1100
1110
1111
0111
1100
1000
1100
1101
1111
1101
1001
0001
1001
0111
1111
1011
1001
0010
0110
1101
1111
0111
1010
1000
1100
1110
1111
0111
1001
1000
1100
1110
1111
1110
1010
1000
1100
0111
1111
1101
1010
1000
0110
1101
1111
1110
0011
0010
1010
1101
1111
0111
0011
0010
1100
1110
1111
1101
0101
0100
0011
1011
1111
1101
1100
0010
0110
1101
1111
0111
0110
,  // measure 149
0010
0110
1011
1111
0111
0110
0001
0101
1110
1111
1110
1100
1000
0110
1110
1111
0111
0011
1000
1100
1110
1111
0111
1001
0100
0110
1110
1111
0111
1010
0100
0110
1110
1111
1011
1010
0100
1100
1101
1111
0111
1100
0100
0101
1110
1111
0111
1100
0010
1010
1101
1111
1110
1010
1000
0011
1110
1111
1110
1010
1000
1010
1011
1111
1011
0011
0100
0101
1101
1111
1110
0101
0100
0011
1011
1111
0111
0110
1000
0110
1011
1111
1101
1100
0100
1100
1110
1111
1011
0011
0010
1100
1110
1111
1011
1010
0001
1010
1110
1111
0111
1010
0010
0101
1110
1111
0111
0011
0100
1001
1011
1111
1011
0011
0100
1100
1011
1111
0111
1010
1000
1010
1101
1111
0111
0011
0010
1001
1110
1111
0111
1100
0100
1100
0111
1111
1011
1100
1000
1100
1011
1111
0111
1010
0100
1001
1110
1111
1101
1100
1000
1100
1101
1111
1011
1100
1000
1100
1110
1111
1110
0011
1000
0110
1110
1111
1101
1010
0010
1001
1110
1111
1011
0110
0100
1100
1101
1111
1110
1010
0010
1100
1110
1111
0111
0011
0010
1100
1011
1111
1101
0110
,  // measure 150
0001
1100
1101
1111
1011
1001
0010
1001
1110
1111
1101
1010
0010
1100
1110
1111
1110
1001
0100
1001
1110
1111
1101
0110
1000
1100
1101
1111
1110
1100
0100
1001
1011
1111
1101
1001
0010
0101
1011
1111
1101
1001
1000
1010
1011
1111
0111
1010
0100
1100
1110
1111
0111
1100
0100
1001
1101
1111
1110
0011
0010
0011
1110
1111
1011
1010
0001
0101
1110
1111
1101
1001
0100
1010
1011
1111
1110
1001
0100
0110
1110
1111
0111
0101
0001
0110
1101
1111
1110
1010
0010
1001
0111
1111
1101
1001
0100
1100
0111
1111
1101
0011
0100
0101
1110
1111
1110
1010
1000
0011
1101
1111
1011
0011
0100
1001
1101
1111
1101
1100
0010
1001
1101
1111
1011
1001
1000
1001
1011
1111
1101
1001
0100
1100
1101
1111
1110
0011
0100
1010
1110
1111
1110
1100
0001
1100
1110
1111
0111
1100
1000
1001
1011
1111
1011
1100
0100
0101
1110
1111
0111
0110
1000
1001
1011
1111
1101
1010
0010
1100
1110
1111
1011
0110
1000
1100
1101
1111
0111
1100
1000
0110
1011
1111
0111
0101
0010
0011
1110
1111
0111
0011
,  // measure 151
1000
1100
1110
1111
1110
0101
1000
1100
0111
1111
1110
0110
0010
1001
0111
1111
1101
1100
1000
1010
1110
1111
1110
1001
0010
1100
1011
1111
1110
1100
0100
1010
1110
1111
1011
1010
1000
0110
1101
1111
0111
1010
0010
1100
1101
1111
1011
0101
1000
1010
1110
1111
1011
1100
1000
0101
1110
1111
1011
1010
0100
1001
1110
1111
0111
1001
0010
0011
1110
1111
1110
1100
1000
1100
1011
1111
1110
0110
0100
1100
1101
1111
1101
1100
0100
1100
1110
1111
0111
1010
0010
1001
1110
1111
1101
1100
0010
1100
1011
1111
1110
1001
1000
1100
1101
1111
0111
1001
0001
1010
0111
1111
1101
1010
0010
1100
1101
1111
1011
0101
0010
1010
0111
1111
1011
1100
1000
1100
1110
1111
0111
0011
0001
1001
1110
1111
1101
0110
1000
0110
1110
1111
1101
0101
1000
1100
1011
1111
1110
1010
0010
1001
0111
1111
1101
0110
0100
1010
1110
1111
0111
1010
0100
1001
0111
1111
1101
0101
1000
1010
1101
1111
0111
0011
0001
0011
1011
1111
1110
0110
0100
1001
1110
1111
1101
0101
0001
1100
1110
1111
1110
0011
,  // measure 152
1000
1001
0111
1111
1110
0011
0100
0101
1101
1111
1101
1100
0100
0101
1110
1111
1110
0011
0001
1100
1011
1111
1011
1001
0100
0110
1110
1111
0111
1100
0100
1010
0111
1111
1101
0101
0100
1010
0111
1111
1011
0110
0100
0101
1110
1111
0111
1010
0001
1010
1011
1111
1110
1001
0010
0110
1110
1111
0111
1001
0100
1001
1101
1111
1101
1010
0100
0101
1011
1111
0111
0110
0001
0011
1011
1111
0111
0110
0010
0101
0111
1111
1011
1100
1000
1001
1110
1111
1110
0101
0010
1010
0111
1111
1110
1001
0100
1010
1110
1111
1110
0011
0100
1001
0111
1111
1110
1001
0100
1010
1011
1111
1011
1010
0010
1001
0111
1111
0111
0011
0010
1100
0111
1111
1110
1010
0100
1100
1011
1111
1011
0011
1000
1010
1110
1111
1101
1010
0100
0101
1110
1111
0111
0011
0100
1010
1110
1111
1011
0101
0100
1100
1110
1111
1110
0101
1000
0101
1110
1111
1101
0101
0010
1100
1101
1111
1011
0011
0100
1010
1011
1111
1101
1001
1000
1100
1011
1111
0111
1010
0100
1100
1110
1111
1011
0110
1000
1100
1101
1111
0111
0011
,  // measure 153
0001
1100
1110
1111
0111
1010
0100
1010
1110
1111
1101
1010
0100
0101
1110
1111
1101
0110
0010
0101
0111
1111
1110
0110
0001
1010
1011
1111
1110
1010
0010
1100
1101
1111
0111
0101
0010
1100
1101
1111
0111
1001
0010
1001
1110
1111
1110
1010
0010
0110
1101
1111
1011
0101
1000
0110
0111
1111
1011
1001
0001
1010
1110
1111
1110
0110
1000
1010
1110
1111
1101
1010
0100
0110
1110
1111
1110
1001
1000
1100
1011
1111
1110
1100
1000
1100
1110
1111
1110
1100
0100
1010
1101
1111
0111
1001
0001
1010
1011
1111
1011
0011
0010
0011
1110
1111
1011
1010
1000
0011
1101
1111
0111
0110
0010
1010
1011
1111
1011
0011
0100
1100
1101
1111
1110
0110
0001
1001
1101
1111
0111
0110
1000
1010
1110
1111
1101
0110
0001
1100
1101
1111
1011
0011
0001
1010
1110
1111
1101
1001
1000
1100
1110
1111
1011
1100
0010
1100
1101
1111
1011
1010
0010
0110
0111
1111
1011
0110
0010
0110
1101
1111
1011
0110
0010
0101
1101
1111
1101
0101
1000
1100
0111
1111
0111
1010
0010
0110
1101
1111
1011
0110
,  // measure 154
0010
0110
1110
1111
1101
0110
1000
0101
1110
1111
1110
1010
0100
1010
1110
1111
1110
0101
0100
1100
1011
1111
1101
0011
1000
1100
1011
1111
0111
0110
0010
1001
1110
1111
1110
1100
0001
0101
1101
1111
1101
1100
0100
1010
1110
1111
1011
0101
0100
0110
1101
1111
0111
1100
1000
1001
1110
1111
1011
0110
0001
1010
1110
1111
1101
0110
0100
1100
0111
1111
1101
0101
0100
1001
1110
1111
1011
1010
1000
1001
1110
1111
1011
0011
0010
1010
1110
1111
0111
1100
0100
1001
1110
1111
1011
1100
0100
1100
1110
1111
1110
0110
0010
1100
1110
1111
1011
1100
0010
1010
1011
1111
1101
1010
1000
0101
1101
1111
1101
1010
0100
0110
1011
1111
1110
1100
0001
1010
1011
1111
1110
1001
0001
0110
1110
1111
1101
1010
1000
1100
1011
1111
1011
1010
0010
1100
0111
1111
1110
0110
0010
0110
1110
1111
0111
1001
1000
0110
0111
1111
1101
0101
1000
1010
0111
1111
1011
1010
0100
1010
1110
1111
0111
1010
1000
0011
1011
1111
1011
0110
1000
0011
0111
1111
1110
1001
0010
0110
1101
1111
1110
1100
,  // measure 155
0100
1001
1110
1111
0111
1100
1000
1100
0111
1111
0111
1010
1000
0110
1110
1111
0111
1100
1000
1100
1110
1111
0111
1100
0010
0011
1101
1111
1101
0011
0100
1001
1101
1111
0111
1001
0001
1100
1011
1111
1110
1001
0010
1010
1101
1111
0111
1001
1000
1001
1011
1111
1110
1010
1000
1010
1110
1111
1110
0110
1000
1001
1101
1111
1011
1100
0100
0110
1101
1111
1110
0101
0010
1100
1101
1111
1101
1100
1000
1100
1101
1111
1110
1010
1000
1100
1110
1111
1101
0110
1000
1100
1011
1111
1011
1001
0010
0101
1101
1111
1110
0101
1000
0110
1101
1111
1110
0110
1000
1001
1110
1111
1101
1100
1000
1100
0111
1111
1110
1001
1000
0101
0111
1111
1011
0101
1000
0110
1110
1111
1110
0110
0100
1100
1101
1111
1011
1100
0010
1001
0111
1111
1101
0101
1000
0110
1110
1111
1110
0011
0100
0101
1110
1111
0111
1001
0010
1001
1110
1111
1101
1010
0100
1100
0111
1111
0111
0110
0100
1001
1011
1111
1110
1010
0010
1001
1110
1111
1110
0110
0010
1100
0111
1111
0111
0110
1000
1100
1110
1111
0111
1100
,  // measure 156
0100
0110
1110
1111
1101
1001
0100
0011
1011
1111
1011
1100
0001
1010
1110
1111
1011
0011
0001
1010
1011
1111
1011
0011
1000
1001
1110
1111
0111
0101
1000
1010
1110
1111
0111
1100
0100
0110
1110
1111
0111
1001
1000
0011
1110
1111
1011
1001
1000
0110
1011
1111
1110
1010
0010
1100
1011
1111
1110
1010
1000
1100
0111
1111
1101
1001
1000
1010
1110
1111
0111
1010
0100
1100
1011
1111
1110
0101
0010
1100
1011
1111
1011
1001
1000
1001
1101
1111
1011
1100
1000
1010
1110
1111
1101
0011
1000
1001
1101
1111
1011
1001
0100
0011
1101
1111
1110
1100
0001
1100
1110
1111
0111
1010
0100
1010
0111
1111
1011
0101
0010
1001
1101
1111
0111
1001
1000
0110
1011
1111
1101
0110
1000
1100
1101
1111
1101
1001
0100
0011
1011
1111
1011
1010
0100
0110
1011
1111
1101
1010
1000
0101
1101
1111
0111
1001
0100
1100
1110
1111
1110
1010
0010
0101
0111
1111
1011
0110
0001
0011
1011
1111
1110
1010
0100
0011
0111
1111
1110
0110
0010
1001
1110
1111
1101
0110
0100
1100
1110
1111
1110
0011
,  // measure 157
1000
1100
1101
1111
1101
1100
0100
1001
1011
1111
0111
0011
0100
1010
1110
1111
1110
0110
0100
1100
1110
1111
1011
1001
0100
0110
1101
1111
1110
1100
0010
0011
1011
1111
0111
0011
0100
1100
1011
1111
1011
0101
0100
1100
1110
1111
1011
1001
0010
1001
1101
1111
0111
0110
0100
1100
1101
1111
1011
1100
1000
0101
1011
1111
0111
0110
1000
0110
1011
1111
1110
1001
0100
1010
0111
1111
1011
1010
0010
0011
0111
1111
1101
0110
0010
1100
0111
1111
0111
0110
1000
0011
1101
1111
1110
1100
1000
0110
1011
1111
1110
1100
1000
1100
1110
1111
1101
1010
1000
0110
1101
1111
0111
1100
0100
0101
1110
1111
1110
1010
0100
0110
1110
1111
1101
0110
0100
0101
1110
1111
1101
1100
0010
1100
1110
1111
1101
0110
0010
0110
1011
1111
1101
1100
1000
1010
1110
1111
1101
0011
1000
0110
1101
1111
1101
1100
0100
0110
0111
1111
0111
1100
0010
0110
1101
1111
1110
1100
0100
1001
1011
1111
0111
0011
0001
1001
1110
1111
0111
1010
1000
0101
1011
1111
0111
1100
1000
0110
0111
1111
1101
1010
,  // measure 158
1000
1010
1101
1111
1110
1001
0100
1100
1011
1111
0111
0011
1000
0110
1110
1111
1110
0110
1000
1100
1101
1111
1101
0110
0001
1001
1110
1111
1101
0011
0010
0101
1110
1111
0111
0011
1000
1010
1110
1111
0111
0110
1000
1010
1110
1111
1011
1010
1000
0110
1110
1111
1101
1100
0100
0110
1110
1111
0111
0110
1000
1100
1110
1111
1101
1001
1000
1001
1101
1111
1110
1010
1000
0110
1101
1111
0111
0110
1000
0110
1011
1111
1110
1010
0100
1100
1101
1111
1011
1010
0010
1001
1110
1111
1101
1010
1000
1100
1110
1111
1101
0011
1000
1001
1110
1111
1101
1010
1000
1100
1101
1111
1101
1100
0010
0110
1110
1111
1110
0101
0100
1010
1101
1111
1101
0110
0100
1010
0111
1111
1110
1010
1000
0101
1011
1111
1101
0101
0100
1100
1110
1111
0111
0110
0001
1010
1110
1111
1110
1100
0010
1010
1011
1111
1110
1001
1000
1010
1011
1111
1110
1010
1000
1100
1110
1111
0111
0011
0001
1010
1110
1111
0111
0011
0100
1001
0111
1111
1110
1010
0010
1100
1110
1111
1011
0101
0100
0110
0111
1111
1011
0110
,  // measure 159
1000
1001
1110
1111
1011
0110
0010
1001
1110
1111
1110
0110
1000
0101
0111
1111
1110
1100
0100
1010
0111
1111
1110
1001
1000
1100
1011
1111
1101
1001
0100
1100
1110
1111
1011
1100
0010
1010
1110
1111
1011
1001
0100
0110
1011
1111
1110
0110
1000
0011
1110
1111
1101
1010
0010
1100
1110
1111
1011
0011
0001
0011
1011
1111
1101
1100
0001
1001
0111
1111
1110
1100
0100
1010
1110
1111
1110
0110
0001
1001
1110
1111
1110
1100
0010
0110
1011
1111
0111
1001
0100
0011
1110
1111
0111
1100
1000
0101
0111
1111
0111
1010
1000
0110
1110
1111
1101
1010
0010
1001
1011
1111
1101
1001
0100
0101
1101
1111
1011
1010
1000
1010
1011
1111
1110
1010
1000
0110
1101
1111
0111
0101
0100
1010
1011
1111
1011
1001
1000
0011
1011
1111
1101
1010
0010
0011
1011
1111
0111
1100
0001
0011
0111
1111
1011
0011
0100
1010
1110
1111
1011
0011
0100
1010
0111
1111
1101
1100
1000
1100
1101
1111
1101
1100
0100
1001
1110
1111
0111
0101
1000
0101
1011
1111
0111
1001
0010
1010
1101
1111
1101
1100
,  // measure 160
1000
1100
0111
1111
1101
0110
1000
1100
1110
1111
1101
0101
0010
0110
1110
1111
0111
1001
1000
0110
0111
1111
1011
0101
0010
1010
1101
1111
1011
0110
1000
1010
1011
1111
1110
1001
0100
1001
1110
1111
1011
0110
1000
1100
1110
1111
1011
0011
0100
1100
1110
1111
0111
1100
0100
1100
1101
1111
0111
0011
0100
0101
1011
1111
1110
1001
0010
1010
1110
1111
1011
1001
0100
1001
1101
1111
1101
0110
0001
1100
1110
1111
0111
0101
1000
1100
1011
1111
1101
0110
1000
1001
1101
1111
1101
1010
1000
0110
1011
1111
1101
1100
1000
0101
0111
1111
1101
0011
0100
1100
1101
1111
1110
1100
0001
1100
1101
1111
1101
0110
1000
1100
1101
1111
0111
0110
0100
1100
1101
1111
1101
1100
0100
1010
1011
1111
1110
0011
1000
1001
1101
1111
1011
1001
0100
0110
1110
1111
0111
0110
0001
1100
1101
1111
1110
1100
0010
1100
1110
1111
1110
1001
0001
0101
1110
1111
1011
0101
0010
0101
1011
1111
1110
1100
1000
0110
1110
1111
0111
0101
0100
1010
1101
1111
1101
1100
0100
1100
1110
1111
1110
1010
,  // measure 161
0010
1010
1110
1111
1110
0101
0001
0101
1011
1111
1110
1100
1000
1010
1011
1111
1101
1010
0100
0101
1101
1111
1101
1010
0010
1010
1011
1111
1101
0110
0010
1100
1110
1111
1110
1010
0100
1010
1110
1111
1011
1010
1000
0110
1011
1111
1101
0011
0010
1001
1110
1111
1101
1100
0100
1100
1110
1111
1110
0101
1000
1001
1110
1111
0111
1100
0100
1001
0111
1111
1011
1010
1000
1001
1101
1111
1011
0110
0010
0110
1110
1111
1110
1001
0010
0110
1011
1111
1011
1100
0010
1010
1101
1111
1110
1010
1000
1100
1101
1111
1101
0110
0100
1100
0111
1111
1101
1010
0100
0101
1011
1111
1101
1010
1000
1001
0111
1111
0111
0011
0001
1100
1110
1111
1110
1100
1000
0110
1101
1111
1011
1010
0100
1010
1110
1111
1101
0110
0100
1001
1101
1111
1110
1010
0010
1100
1011
1111
1011
1100
0100
0101
1101
1111
1110
0101
1000
0110
1101
1111
1011
1001
0001
1100
1110
1111
1101
0011
1000
0110
1101
1111
1110
0011
0100
0110
1110
1111
1110
0101
1000
1100
0111
1111
0111
0011
1000
1100
1011
1111
0111
1001
,  // measure 162
0001
1100
1110
1111
1011
1100
1000
1100
1101
1111
1101
0110
1000
0110
1011
1111
1110
1001
1000
1100
1110
1111
1011
0011
0010
1010
1101
1111
0111
1010
1000
1001
0111
1111
0111
0101
1000
1100
1110
1111
1101
0011
0100
1001
1110
1111
1101
0011
1000
1100
1101
1111
0111
1001
0100
0110
1110
1111
1101
0101
0100
1010
1011
1111
1011
0101
0100
1100
1011
1111
0111
1010
1000
1010
1110
1111
1011
0110
1000
0011
0111
1111
1101
0011
0100
1100
1011
1111
1101
1010
1000
1100
1110
1111
1110
1100
1000
1001
1101
1111
1101
1010
0010
1100
1011
1111
1110
1010
1000
1010
1110
1111
1110
1001
0100
0110
1011
1111
1011
1010
0100
0101
1011
1111
1110
0101
0100
1010
1110
1111
1011
1010
1000
1010
1011
1111
0111
0110
0010
1100
1110
1111
1101
1010
0001
0110
1101
1111
1101
1001
1000
1010
1110
1111
1011
0101
0100
0110
1110
1111
0111
0101
1000
0011
0111
1111
0111
0011
1000
1010
1011
1111
1110
1010
1000
1100
1011
1111
1110
1001
0001
0011
1011
1111
1110
0011
0100
1100
1101
1111
0111
0110
,  // measure 163
0010
1100
1110
1111
1011
0110
0100
0101
1110
1111
1110
1010
0001
1010
1110
1111
1101
0011
0001
1100
1110
1111
1110
1100
0100
1100
0111
1111
1101
1001
1000
1100
1110
1111
1011
0110
0001
1010
1110
1111
1110
1001
1000
0110
1110
1111
0111
0110
0001
1010
0111
1111
1101
0011
0010
0101
1110
1111
1101
1100
0010
0101
1110
1111
1110
1100
1000
0110
1101
1111
1011
1100
0100
1001
1011
1111
1110
1100
1000
1001
1011
1111
1110
0110
0100
1001
1101
1111
1101
0110
0010
1100
1101
1111
0111
1010
0100
1010
1110
1111
1101
0110
1000
0110
1011
1111
1110
0011
1000
1100
1110
1111
1101
1001
0100
1100
1101
1111
1101
1001
0001
1010
1101
1111
1110
1001
1000
0101
1110
1111
1110
1100
1000
1100
1110
1111
1011
0101
1000
0110
0111
1111
1011
1001
0010
1100
0111
1111
1110
1010
0100
1001
1101
1111
1110
0101
0100
1010
0111
1111
1110
1010
0100
0110
1110
1111
0111
0110
1000
1010
1011
1111
1101
1010
1000
0101
1110
1111
1011
0101
0010
1100
1011
1111
0111
1001
1000
0110
0111
1111
1110
1010
,  // measure 164
0010
0110
1110
1111
1011
1010
0010
1100
1110
1111
1011
0101
0100
0110
1101
1111
1110
1010
1000
0101
1110
1111
1011
0110
1000
1100
1101
1111
0111
1010
1000
1001
1110
1111
1101
0110
0010
1100
1110
1111
1110
1010
0001
1100
0111
1111
0111
0110
1000
0101
1110
1111
1011
0110
0001
0101
1101
1111
0111
0011
0100
1010
1101
1111
1011
0101
0010
1010
1011
1111
0111
0110
0010
1001
1011
1111
1110
1100
0010
1010
1101
1111
1011
1100
1000
1100
1011
1111
1110
0101
0001
1010
1110
1111
1101
1100
0001
0110
1110
1111
0111
1010
1000
0011
1110
1111
1011
1100
0001
1100
1011
1111
1101
1001
0001
1100
1011
1111
0111
0110
1000
0011
1110
1111
1110
1010
0010
1001
1101
1111
1101
0110
0100
0110
1011
1111
0111
0011
0100
1010
1011
1111
1110
0011
0010
1010
1110
1111
1110
1010
0100
1001
1101
1111
1101
0110
1000
1010
1110
1111
1011
0011
0010
1100
1110
1111
1101
0110
0100
1010
1101
1111
1101
0101
1000
1001
1011
1111
1110
1100
0001
0110
1011
1111
1011
0110
0100
1001
1110
1111
0111
1001
,  // measure 165
1000
1100
1101
1111
1110
1010
0010
0101
1101
1111
1101
1001
0100
1100
1101
1111
0111
0110
1000
0101
1101
1111
0111
1100
1000
0011
1110
1111
0111
1100
1000
1010
1011
1111
0111
1010
1000
1010
1110
1111
1110
0110
1000
1010
1110
1111
1011
0110
1000
1100
1101
1111
1110
1010
0010
1100
1110
1111
1110
0101
1000
1100
1011
1111
1011
1001
1000
1001
1011
1111
1110
1100
0010
0101
1110
1111
1101
0101
1000
1010
1011
1111
1110
1100
0100
1010
1011
1111
1110
0110
0010
1100
1011
1111
1011
0011
0001
0011
1110
1111
1011
0110
0100
1100
1110
1111
1110
1010
0100
1010
1110
1111
1110
1100
0001
0110
1110
1111
0111
1010
0001
1001
1110
1111
1011
1010
1000
1100
1110
1111
1110
1010
0100
0101
1110
1111
1011
1010
0010
1010
1110
1111
0111
1100
0001
1001
1011
1111
0111
0101
0100
0101
1011
1111
1011
1010
0001
0110
1110
1111
1110
0110
1000
1010
1110
1111
1110
1100
1000
1100
1101
1111
1101
1100
0010
1100
1110
1111
0111
1010
0010
0110
1110
1111
1110
0101
0001
1100
0111
1111
1011
1100
,  // measure 166
0100
1010
1110
1111
1011
0110
0010
0011
1110
1111
1101
0110
0100
0101
1110
1111
1011
0101
1000
0011
1101
1111
0111
0101
1000
0011
1011
1111
1011
1100
0010
1001
1110
1111
0111
1001
0010
0110
1110
1111
0111
1001
0100
1010
1110
1111
0111
0101
1000
0101
1101
1111
1011
1010
0100
1010
1101
1111
1011
1100
0100
1010
1101
1111
1101
0110
1000
0110
1110
1111
1011
1010
0100
1100
1110
1111
1101
0101
1000
1001
1011
1111
1101
1010
0100
0110
1110
1111
1110
0110
0001
1100
1101
1111
1110
1001
0010
1010
1110
1111
1101
1010
1000
1001
1011
1111
1101
1100
0100
1100
0111
1111
1101
1001
1000
1100
0111
1111
1110
1010
1000
1100
1110
1111
1101
1010
1000
0110
1110
1111
1011
1001
0100
0110
1110
1111
1011
0110
0010
1001
0111
1111
1011
1010
1000
1100
1110
1111
1101
1010
1000
1010
1110
1111
1101
0110
1000
1010
1110
1111
0111
1010
0010
1010
0111
1111
1110
1010
0010
1001
1110
1111
1011
0110
0001
0011
0111
1111
1011
1001
1000
1100
1011
1111
1110
0110
1000
1010
1011
1111
1101
1100
,  // measure 167
1000
1001
1011
1111
0111
1100
0100
1010
1110
1111
1110
1100
0100
0101
1011
1111
1101
1100
1000
0110
0111
1111
0111
0110
0100
0110
1101
1111
1110
1100
1000
1100
1011
1111
1011
0011
1000
0011
1011
1111
1101
0011
0010
1100
1110
1111
1110
1010
0001
0101
1110
1111
1011
0110
1000
1001
1011
1111
1011
1010
0001
1010
1110
1111
1101
1010
0100
0101
1101
1111
0111
1010
1000
1001
0111
1111
1110
0110
1000
1001
1110
1111
1110
1010
1000
0101
1110
1111
1101
0110
0001
1100
1011
1111
1101
0110
0001
1100
1101
1111
1101
1001
0100
1100
1011
1111
1101
0101
0100
1100
1110
1111
0111
1001
1000
1100
1101
1111
1011
1010
0001
1100
1110
1111
1110
0110
1000
1001
1110
1111
1110
1010
1000
0101
1101
1111
0111
0011
0100
1001
1110
1111
1011
0110
1000
1001
1110
1111
0111
1100
0100
0110
1101
1111
1101
1010
0010
0101
1110
1111
0111
1010
1000
1001
1110
1111
1011
0011
1000
0011
1110
1111
0111
0110
0100
0110
1011
1111
1110
1100
0100
0101
1101
1111
1101
1010
0010
1100
1110
1111
1110
1010
,  // measure 168
0010
1100
1011
1111
1101
1001
0010
1010
1011
1111
0111
0110
0100
1100
1110
1111
0111
1100
0001
1001
1110
1111
1110
0110
0001
1010
1101
1111
0111
0101
1000
1010
1110
1111
1101
0101
1000
1100
1110
1111
1101
1001
0010
1100
1011
1111
1110
1001
0100
0110
1101
1111
1101
1001
1000
1010
1110
1111
0111
1010
0100
0101
1110
1111
1101
1010
0010
0101
1110
1111
1110
1001
1000
0011
1110
1111
1101
1100
1000
1010
1110
1111
1101
0110
0100
1100
1101
1111
1110
1100
0010
1100
1101
1111
1011
1001
0100
1001
1110
1111
1101
0011
0100
0110
1110
1111
0111
1100
1000
0110
1101
1111
1011
1010
0001
0011
1110
1111
1110
1001
1000
1010
1110
1111
1101
1100
0001
1010
1101
1111
1110
0011
1000
1100
1101
1111
1101
1001
1000
1001
0111
1111
0111
1001
1000
1010
1101
1111
1011
1010
0010
0110
1110
1111
1011
1010
0100
1010
1110
1111
1011
0011
0010
1100
1011
1111
1101
1010
0100
1001
1011
1111
1101
1100
0010
1100
1110
1111
1110
0011
1000
0101
1101
1111
0111
1100
0100
0110
1011
1111
1101
1001
,  // measure 169
0100
0011
1011
1111
1110
0011
0010
0110
0111
1111
0111
1010
0100
1100
1110
1111
1110
1100
0100
0011
1101
1111
1110
1001
0010
0011
0111
1111
1110
0110
0010
1010
1101
1111
1110
1010
0010
1010
1110
1111
1110
1010
0010
1001
1110
1111
1011
0101
1000
1010
1011
1111
1011
0110
0010
1001
1110
1111
1101
0110
1000
1100
1110
1111
0111
1100
0010
1100
1110
1111
1101
0101
1000
1100
1011
1111
1101
0101
0010
1010
0111
1111
0111
1100
0100
0011
1011
1111
1110
1001
0100
0110
1101
1111
1011
1001
1000
1001
1011
1111
1101
1100
1000
0011
1101
1111
1110
0110
0001
1010
1101
1111
0111
1010
0010
1010
1101
1111
1110
0101
0100
1100
1011
1111
1110
1010
1000
1100
1011
1111
1101
1100
0100
1100
1011
1111
1101
1001
0100
0110
1101
1111
1101
1001
0010
0011
1110
1111
1101
1001
0100
1100
1101
1111
0111
1100
0010
1010
1110
1111
1110
1100
0001
1010
1011
1111
0111
1010
0100
1010
0111
1111
0111
1001
1000
1010
1011
1111
1101
1001
0100
1100
0111
1111
1110
1010
0010
1100
1110
1111
1011
1010
,  // measure 170
1000
0101
0111
1111
1101
0011
0010
1100
1101
1111
1101
1001
0100
0110
1110
1111
0111
0110
0010
1001
1101
1111
0111
1001
1000
0110
1110
1111
1110
0110
1000
0110
1101
1111
1110
0110
0100
1100
1011
1111
1101
0110
0100
1001
1011
1111
0111
0110
0100
1100
1110
1111
1101
0110
0100
0101
1101
1111
0111
0101
0100
0101
1011
1111
1101
0101
0010
1001
1110
1111
0111
1001
1000
0110
1110
1111
1101
1001
0001
1001
1110
1111
1110
1010
0100
1010
1011
1111
1110
1010
1000
1010
1011
1111
1101
0101
0010
0101
1110
1111
1110
0011
0100
1010
1110
1111
1101
0011
1000
1010
1011
1111
1110
1010
0100
1100
1110
1111
1011
1100
0001
0110
1110
1111
1011
1001
0010
1100
1101
1111
1110
1010
0010
1001
1011
1111
0111
0110
1000
1001
0111
1111
1110
0101
1000
0110
1110
1111
1101
1001
0100
1100
1110
1111
1110
1001
0010
1010
1101
1111
1011
1010
1000
1010
0111
1111
0111
1001
1000
1100
1101
1111
1011
1001
1000
0101
1101
1111
1011
1001
1000
1001
0111
1111
0111
1001
0100
0101
0111
1111
1011
0011
,  // measure 171
1000
1100
1101
1111
1110
0110
0100
1100
1110
1111
1110
1010
1000
1100
1011
1111
1110
0110
0010
1100
1101
1111
1110
1010
1000
0110
0111
1111
1110
1001
0100
1001
1110
1111
0111
1100
0010
1100
1110
1111
0111
1001
0001
1100
1110
1111
0111
1100
0100
1100
1101
1111
1011
1100
0010
1001
0111
1111
1110
1010
0010
1100
1011
1111
0111
1010
0010
0110
1101
1111
1110
0110
0010
0110
1110
1111
1110
1010
0001
0110
1101
1111
1101
0110
0100
1100
1011
1111
1101
0011
0100
1100
1110
1111
1110
0011
0010
0011
1110
1111
1011
1001
1000
0110
0111
1111
0111
0011
1000
1100
1110
1111
1110
1010
0100
0011
1110
1111
0111
0011
0001
1010
1101
1111
1011
1010
0100
1010
1110
1111
1110
1001
0100
1001
1110
1111
1101
0101
1000
1010
1110
1111
1101
0011
0010
1010
1011
1111
1011
0110
1000
0110
1011
1111
1011
0101
0001
1001
1101
1111
1011
0101
1000
1010
1110
1111
0111
1010
0100
1100
1011
1111
1011
1100
1000
1100
0111
1111
1011
1010
1000
0101
1110
1111
1101
0101
0010
1010
1110
1111
1011
0101
,  // measure 172
1000
1100
1110
1111
1110
1001
0100
0101
1011
1111
1101
0110
1000
1100
0111
1111
1011
1100
0100
0011
1110
1111
1110
1001
0010
0011
1110
1111
1110
1100
0001
1010
1101
1111
0111
1010
1000
1100
1011
1111
1101
1100
0100
1010
1011
1111
1110
0110
0010
0011
1101
1111
1101
1010
0100
0110
1110
1111
1101
1100
0010
0011
0111
1111
1110
1001
1000
1100
1011
1111
1011
0110
1000
0101
1110
1111
1110
1100
1000
0011
1110
1111
1110
0011
0100
1100
1011
1111
1110
0110
1000
1100
1110
1111
1101
1010
1000
0110
1011
1111
0111
0101
1000
0011
1101
1111
1101
1100
0100
1001
1011
1111
1011
0011
0010
0101
1101
1111
0111
1010
1000
1100
1011
1111
0111
1001
0001
0110
0111
1111
1101
1001
0100
1100
1101
1111
0111
1010
0100
1010
1101
1111
0111
1100
0010
0011
1101
1111
0111
0101
0010
1100
1101
1111
1011
1010
0100
0101
1101
1111
1110
1010
0010
0110
1011
1111
1110
0011
0010
1010
0111
1111
1110
1100
1000
0101
0111
1111
0111
0101
0001
1010
1110
1111
0111
0110
1000
1010
1110
1111
0111
0110
,  // measure 173
0010
1100
1011
1111
0111
1001
1000
1001
1011
1111
1101
0110
1000
1010
1011
1111
1101
0011
0010
1010
1101
1111
1011
0101
0100
1010
1110
1111
1011
0101
1000
0011
1011
1111
1011
1010
1000
1010
1110
1111
1101
1010
0100
0101
1011
1111
1110
1100
0100
1100
1110
1111
0111
1100
0100
1010
0111
1111
1110
1010
0100
1001
1011
1111
1011
1010
0100
0011
0111
1111
0111
0011
0100
1001
1110
1111
1011
1010
1000
0011
1110
1111
1011
0110
0100
1010
1110
1111
0111
0011
1000
1001
1110
1111
1110
0011
0100
1100
1101
1111
1011
1100
0100
1010
1110
1111
1110
1001
1000
1010
1110
1111
1101
0101
1000
1001
1011
1111
1110
1010
1000
1100
0111
1111
0111
0101
0001
0101
1011
1111
1110
1001
0010
1001
1110
1111
1110
1100
1000
1100
1101
1111
1011
1001
1000
1100
1101
1111
1011
1010
1000
0110
0111
1111
1011
1100
0001
0011
1101
1111
1101
1010
1000
1001
0111
1111
0111
1001
0001
0101
1101
1111
1101
1001
0001
1001
1101
1111
1110
1001
0001
1100
1101
1111
1011
0110
0010
1100
0111
1111
0111
0110
,  // measure 174
1000
1001
0111
1111
1110
0011
0100
1100
1011
1111
1101
0011
0010
1100
0111
1111
1011
0011
0100
0110
0111
1111
1110
0011
0001
1010
1110
1111
1101
1010
0100
0110
1110
1111
1011
1100
1000
0110
0111
1111
1110
1001
1000
1010
0111
1111
0111
0011
1000
0110
1110
1111
1110
0110
1000
1010
1101
1111
0111
1001
0001
1001
1011
1111
1101
1001
0100
1100
1110
1111
0111
0011
0100
1100
0111
1111
0111
1010
0001
1010
1101
1111
1110
1100
1000
1001
1011
1111
1110
0110
0100
0101
0111
1111
0111
1010
1000
0110
1110
1111
0111
1010
1000
1010
1110
1111
0111
1010
0010
1100
1101
1111
0111
1100
0010
1100
0111
1111
1101
0011
0100
1010
1110
1111
1011
0110
1000
1100
1110
1111
1011
1100
0100
1100
1110
1111
1110
1100
0100
1100
1011
1111
1101
1001
1000
1100
1110
1111
1011
0011
1000
1100
1110
1111
1110
0110
1000
0011
1011
1111
1101
0110
1000
1100
1110
1111
1110
1001
0100
1010
1110
1111
1101
1100
0001
1001
0111
1111
1101
0101
1000
1010
1110
1111
0111
1010
1000
1100
1011
1111
1110
1010
,  // measure 175
0001
1010
1110
1111
1101
0110
1000
1001
1101
1111
1011
1001
0010
1001
1011
1111
1011
1100
0100
0110
1011
1111
0111
0101
1000
1001
1101
1111
1110
1001
1000
1100
1101
1111
1011
1100
0001
0011
0111
1111
1101
1010
0010
1010
1011
1111
1110
1010
0100
1100
1011
1111
1110
0011
0100
0011
1110
1111
1110
1010
1000
1010
1011
1111
1101
1010
0100
1001
1110
1111
0111
0101
0010
0101
0111
1111
1110
1010
0100
1001
1110
1111
1011
0110
0100
1100
1011
1111
1110
1010
0100
1001
1110
1111
1110
1001
1000
0101
0111
1111
1110
1100
1000
1100
0111
1111
0111
0011
1000
1001
0111
1111
1011
0110
1000
0110
0111
1111
0111
0011
0100
0101
1011
1111
0111
0011
0001
1100
1011
1111
1110
1001
0100
1001
1110
1111
1101
0110
0100
0101
1110
1111
1110
1001
0010
1001
1110
1111
1011
1010
1000
1010
1101
1111
1110
1010
0100
1010
1110
1111
0111
1100
0100
1001
1110
1111
1110
1001
1000
0110
1101
1111
1101
1100
1000
0110
0111
1111
1101
0110
0001
1001
1110
1111
1101
1100
0001
0011
1110
1111
1110
1100
,  // measure 176
0010
1100
1110
1111
0111
0110
0010
0101
0111
1111
0111
0110
0001
1001
1110
1111
0111
1010
1000
0011
0111
1111
0111
1010
1000
0101
1101
1111
1110
1010
0100
1010
1011
1111
1011
1001
0100
0110
1110
1111
0111
1100
0010
0110
1011
1111
1101
1010
0010
1100
1101
1111
0111
0011
1000
1100
0111
1111
0111
1100
0100
0110
1110
1111
0111
0011
0001
0110
1110
1111
0111
0110
1000
0101
1101
1111
1011
1010
0010
1100
1110
1111
1110
0101
0100
1010
1110
1111
1011
0110
0100
0011
1110
1111
1101
1001
0010
1100
1011
1111
0111
1100
0010
0110
1011
1111
1011
0101
1000
1100
1110
1111
1110
1010
0100
0110
0111
1111
1110
1001
0010
1100
1110
1111
1011
1100
0001
1001
0111
1111
1110
1001
0100
0101
1101
1111
1011
0011
0100
1010
1110
1111
1110
0101
1000
0011
0111
1111
0111
1100
0001
0011
1101
1111
1011
0101
1000
1001
1101
1111
1110
1010
1000
0101
1110
1111
0111
0011
0100
1010
1110
1111
1110
1010
1000
0011
1110
1111
0111
0110
0010
1010
1110
1111
1110
1100
1000
1001
1110
1111
1011
1100
,  // measure 177
0100
1001
1011
1111
0111
1100
1000
0101
1101
1111
0111
1100
0001
0101
1101
1111
1110
0110
0010
1010
1011
1111
1011
1001
0010
1100
1110
1111
1101
1100
0010
0110
1101
1111
1110
0101
1000
1010
1110
1111
1110
1010
0001
1010
1110
1111
1101
0110
1000
1100
1101
1111
1110
1100
0100
1010
1110
1111
1011
0011
0001
0101
1110
1111
0111
0011
0100
1010
1110
1111
1110
0011
0001
1100
1011
1111
1101
1010
0010
1001
1110
1111
1011
1100
0010
1100
1110
1111
0111
0110
1000
1001
1011
1111
1101
0110
0001
0011
1101
1111
1011
0101
1000
0011
0111
1111
1011
0011
0100
0101
1101
1111
1011
1100
1000
1100
1101
1111
0111
0110
1000
1100
1011
1111
0111
1010
0010
1001
1101
1111
0111
1010
0100
1001
1011
1111
1101
1010
1000
1100
1110
1111
1110
1001
0100
0011
0111
1111
1011
1010
0010
0011
1011
1111
1110
1100
0100
1010
1110
1111
1101
0110
0010
1100
1110
1111
1101
0110
0100
0110
1110
1111
1011
1100
0100
1100
1101
1111
0111
1001
1000
1100
1110
1111
0111
1001
1000
1001
1110
1111
1101
1001
,  // measure 178
0001
1001
1011
1111
1110
0011
0010
0110
1011
1111
1110
1010
1000
1100
0111
1111
0111
1010
0001
1100
1011
1111
1011
1001
0100
1001
1110
1111
1011
0011
1000
1010
0111
1111
1101
1010
0001
0110
1011
1111
0111
1100
0010
1001
1011
1111
0111
0011
0010
1100
0111
1111
1101
1100
1000
1100
1011
1111
1011
1010
0100
0011
1011
1111
0111
0110
0010
1001
1101
1111
1101
0110
0100
0110
1011
1111
1110
1010
1000
1001
1011
1111
1110
1001
1000
0011
1101
1111
1101
0011
0010
0110
1110
1111
1110
0101
1000
0101
1110
1111
0111
0110
0010
0110
1011
1111
1101
1001
0010
0011
0111
1111
1110
1100
1000
1100
1101
1111
1110
1010
1000
1001
1011
1111
1110
1010
0100
0110
1011
1111
1110
1100
0010
1010
1110
1111
0111
1100
1000
1010
1101
1111
1110
0110
0100
1001
1110
1111
0111
1001
0010
0110
0111
1111
0111
0110
0010
0110
1110
1111
0111
0011
1000
1010
1110
1111
1011
1010
1000
1001
0111
1111
1110
1100
0100
1010
0111
1111
0111
0011
0100
1001
1011
1111
1110
0110
1000
1010
1110
1111
1110
1010
,  // measure 179
0010
1010
1110
1111
0111
1100
1000
0101
1110
1111
1101
1010
0010
0110
1110
1111
0111
1100
1000
0110
1110
1111
1101
1100
0100
0101
1011
1111
1101
1100
1000
1010
1110
1111
1110
0110
0010
0101
1110
1111
1110
1010
1000
1100
1110
1111
1011
0110
0001
0110
1110
1111
1011
1001
1000
0101
1110
1111
1110
0110
0100
1010
1110
1111
0111
1100
0001
1100
1110
1111
1011
1010
0001
1001
0111
1111
1011
1100
1000
1010
0111
1111
1110
1100
0001
1100
1110
1111
1011
1001
0010
1010
1011
1111
0111
1010
0100
1100
0111
1111
1101
0011
1000
0101
1110
1111
1101
0110
1000
1010
1011
1111
1011
1100
0001
1100
1110
1111
0111
1100
1000
1001
1011
1111
1101
1100
1000
1100
1110
1111
1011
1010
0010
1100
1110
1111
1011
1100
0100
0101
1110
1111
1011
0101
0100
0101
1110
1111
1101
1100
1000
1100
0111
1111
1101
1010
1000
1100
1110
1111
1011
1100
0001
1010
0111
1111
1101
1100
0001
0011
1110
1111
1101
1100
1000
1100
1110
1111
1110
1001
0100
0110
1110
1111
0111
0011
0010
1100
1011
1111
1110
1010
,  // measure 180
0100
0011
1110
1111
1011
1010
1000
1010
1101
1111
0111
1010
1000
1100
1110
1111
1110
0011
0010
1100
1110
1111
1011
1001
1000
1010
1011
1111
0111
0011
1000
1100
1110
1111
0111
1100
0001
0110
1011
1111
0111
1100
0100
0011
1110
1111
0111
1010
0100
1100
1110
1111
0111
1010
0001
0110
1011
1111
1011
0110
1000
1010
1101
1111
1101
0110
1000
1100
1011
1111
1110
1100
0010
1001
1110
1111
1101
0110
0100
0110
1101
1111
1011
0110
0100
1010
1110
1111
0111
1010
0010
1100
1110
1111
1101
1010
0100
1010
1110
1111
1110
0011
0100
0110
0111
1111
0111
1010
0001
1001
1101
1111
0111
1001
0010
1001
1110
1111
1011
1100
0010
1100
1011
1111
0111
1010
0010
0011
1110
1111
0111
1100
1000
1100
1011
1111
1101
0011
0100
0011
1101
1111
0111
0011
0100
1010
1101
1111
1101
1100
1000
1010
1011
1111
0111
1100
0010
1100
1110
1111
0111
0110
1000
1100
1011
1111
1101
1001
0010
1010
1110
1111
0111
1100
1000
0110
1011
1111
1110
1010
0001
1100
1110
1111
1101
1010
0100
0101
1110
1111
1110
1100
,  // measure 181
0001
1001
1110
1111
1011
0101
0100
1010
1110
1111
0111
0110
1000
1010
1110
1111
1110
0110
1000
1001
1101
1111
1011
1010
1000
0110
1110
1111
0111
1100
1000
0110
1101
1111
1110
1001
0100
1100
0111
1111
1110
1010
1000
0110
1110
1111
1011
0110
0010
0110
1110
1111
1110
0011
1000
1010
1101
1111
0111
1100
0010
0110
1011
1111
0111
1100
0100
0101
1011
1111
1101
1100
1000
1001
1110
1111
1011
1100
0010
1100
1110
1111
1110
0110
0010
1100
1110
1111
1101
1100
0001
1100
1110
1111
0111
1100
0010
1010
1110
1111
1110
1010
1000
1100
1101
1111
1011
1010
0100
1100
1110
1111
0111
1010
0010
0110
1110
1111
1110
0110
0010
1100
1101
1111
1110
1010
0100
1010
1110
1111
1011
1010
1000
1001
1101
1111
1110
1010
1000
1100
1101
1111
1101
0110
0010
0101
0111
1111
1110
0101
0010
1100
1011
1111
1110
1100
0100
0101
1110
1111
1011
1001
0100
1100
0111
1111
1110
0101
0001
1010
1101
1111
1101
0101
0100
1010
1101
1111
1011
0101
1000
1100
1110
1111
1011
1001
1000
1100
1110
1111
1011
0011
,  // measure 182
0100
1001
0111
1111
0111
1010
1000
0110
1101
1111
1011
0110
0001
0011
1110
1111
0111
1010
0001
1010
1101
1111
0111
1010
0001
0110
1011
1111
1011
1010
0001
0101
1011
1111
1110
1001
1000
1010
1110
1111
0111
1010
1000
1001
1110
1111
1110
1010
0100
1100
1110
1111
0111
0011
0100
1100
0111
1111
1110
0011
1000
1100
1110
1111
1101
0101
1000
0110
1011
1111
1011
1001
1000
1100
1011
1111
1110
0011
1000
1100
1110
1111
1101
1010
1000
1100
1110
1111
1110
0011
0010
1100
1110
1111
1110
0011
1000
0011
1110
1111
1101
0110
0010
0110
1101
1111
1101
0011
1000
0110
0111
1111
1110
0101
0010
1001
1110
1111
0111
1010
0010
1001
1110
1111
1101
0110
1000
0110
1101
1111
1101
1010
0100
0110
1110
1111
0111
1010
0100
1001
1011
1111
1110
1100
1000
0011
1110
1111
1110
0011
0100
1010
1110
1111
0111
0011
0100
0110
1101
1111
1101
1001
0100
1100
0111
1111
1011
1001
0100
1100
1011
1111
1011
1010
1000
0110
1011
1111
1011
0011
1000
0011
1011
1111
0111
0110
0001
1100
0111
1111
1101
1100
,  // measure 183
1000
1010
0111
1111
0111
1100
1000
1100
1110
1111
1110
1100
0010
1100
0111
1111
1011
1001
0010
1100
1101
1111
0111
1010
1000
1001
1101
1111
1110
0011
1000
1100
1110
1111
1110
0011
1000
0011
1110
1111
0111
0011
0001
1010
0111
1111
1011
0110
1000
1100
1110
1111
0111
0011
0100
1100
1110
1111
1101
0110
1000
1010
1011
1111
1011
0011
0100
1100
0111
1111
1101
0110
0001
1010
1011
1111
1101
1010
1000
1100
1101
1111
1101
1010
1000
1100
1110
1111
0111
0110
0100
0110
0111
1111
1101
0110
0010
1010
0111
1111
0111
0110
0010
0011
1110
1111
1101
1010
0010
1010
0111
1111
1110
1001
1000
1100
1110
1111
0111
0101
0100
1100
1110
1111
1110
1010
1000
1100
0111
1111
1011
1010
1000
1100
1110
1111
1110
1100
0010
0101
1011
1111
1011
0110
0001
1100
1011
1111
1110
1001
1000
0110
1011
1111
1110
0011
0010
1010
1110
1111
1110
1010
0010
1100
1110
1111
1011
1100
0100
1010
0111
1111
1011
0101
0010
1100
1110
1111
1101
1010
0001
1100
0111
1111
1101
1010
0100
1100
1101
1111
1110
0011
,  // measure 184
0100
1010
1101
1111
1011
0110
0100
1100
1110
1111
1011
0110
0010
0110
0111
1111
0111
1010
0100
1001
1110
1111
1110
1001
0010
0101
1011
1111
1110
1010
0001
1100
1101
1111
1110
0011
0100
1100
0111
1111
0111
1001
1000
1010
1011
1111
0111
0110
0100
1100
1110
1111
1011
1010
1000
1100
1011
1111
1011
0011
1000
1010
1011
1111
1101
1001
1000
1001
1110
1111
1110
0110
1000
1010
1110
1111
1101
0011
0100
0101
1011
1111
1101
0011
1000
0101
1101
1111
1101
1010
0100
0101
1110
1111
1101
0011
1000
1100
1110
1111
1011
1100
0001
0110
1110
1111
1101
0101
1000
1001
1101
1111
0111
1001
1000
1100
1110
1111
1110
0110
1000
1001
1101
1111
1011
1100
1000
1001
1011
1111
1101
1010
0010
1010
1110
1111
1011
1010
0010
1100
1101
1111
1110
0101
0010
1001
1101
1111
1110
1001
0010
1100
1101
1111
1110
1010
0100
1100
1101
1111
1101
1100
0010
1010
1011
1111
1110
0101
1000
0110
1110
1111
1101
0011
0100
1010
1110
1111
1011
1001
0010
1001
1011
1111
1110
0110
1000
1100
1101
1111
1101
1010
,  // measure 185
1000
1001
1011
1111
0111
1001
1000
0110
1011
1111
1011
0110
0100
1100
1110
1111
0111
0110
0001
1010
1110
1111
0111
0011
0010
1100
1110
1111
0111
1010
0100
0101
1110
1111
1101
1100
1000
1010
0111
1111
1101
1001
1000
1100
1110
1111
1110
0110
0100
1010
1101
1111
1110
0011
1000
1010
1110
1111
1101
1100
1000
0110
1101
1111
0111
1100
0001
1100
1110
1111
1011
1010
1000
1100
0111
1111
1011
0101
0100
0101
1101
1111
0111
1010
1000
1100
1011
1111
1011
1001
0100
1010
1101
1111
1110
1100
0100
1100
1011
1111
1101
1001
1000
1001
1110
1111
1011
1100
0100
0110
1011
1111
0111
0110
0100
1001
1110
1111
0111
0110
0001
0110
1110
1111
1110
0011
1000
1010
1110
1111
1011
1100
0001
1001
1011
1111
1101
1001
0010
1010
1110
1111
1011
1001
1000
1010
1110
1111
0111
0110
0001
1100
1110
1111
1110
1100
0010
1100
1011
1111
1011
1001
1000
1100
1101
1111
1011
0011
1000
0110
1110
1111
1011
1100
0100
1001
1110
1111
1110
1001
0100
0011
0111
1111
0111
1010
1000
1001
1011
1111
1110
1010
,  // measure 186
1000
0101
1101
1111
1101
0011
1000
1100
1110
1111
1101
1010
0001
1100
1110
1111
0111
0101
1000
1100
1011
1111
1110
1010
0001
1001
1011
1111
1011
1001
1000
0110
1110
1111
1011
0011
0010
1100
1011
1111
0111
1100
0100
1001
1101
1111
1110
0110
0100
0101
1110
1111
1101
1100
0010
1010
1101
1111
1110
0011
0010
1100
1110
1111
1110
0011
0010
1100
1011
1111
1011
1100
0100
1010
0111
1111
1110
1010
1000
1100
1011
1111
0111
1100
0001
0110
0111
1111
0111
1010
0100
1100
1011
1111
1110
0011
1000
1001
1011
1111
1011
0101
1000
1100
1110
1111
1101
0011
1000
0011
1011
1111
1110
0101
1000
1010
0111
1111
0111
1001
0010
1100
1011
1111
1101
1100
0100
1100
1101
1111
1101
1100
1000
1010
1101
1111
0111
0011
1000
1010
1110
1111
1011
1001
0100
1010
1110
1111
0111
1100
1000
1010
1101
1111
1110
0110
0001
0101
1101
1111
1101
0110
1000
1001
0111
1111
1011
1010
0100
0110
1011
1111
1011
0011
1000
1001
1101
1111
1011
1010
1000
1001
1011
1111
0111
1100
0001
1100
1110
1111
1011
1100
,  // measure 187
1000
1010
1110
1111
1011
0011
0010
1100
1110
1111
1011
1010
1000
1010
1011
1111
1110
0101
0100
1001
1110
1111
1101
0110
1000
1001
1110
1111
1011
1001
0100
1010
1101
1111
1110
1100
0100
1100
1110
1111
1101
1010
0010
0011
1110
1111
1101
1100
0010
1010
1110
1111
1011
0011
0100
1100
1011
1111
1011
1010
1000
0110
1110
1111
1110
0011
0010
1100
1110
1111
1011
1010
1000
1010
1110
1111
1101
0110
0010
1100
1110
1111
1101
1100
1000
0101
1110
1111
1110
0101
0010
1010
1110
1111
1101
0110
1000
1010
1011
1111
1110
0101
1000
1001
1011
1111
1011
1010
0001
1001
1110
1111
1011
1001
1000
1100
1101
1111
1011
0110
0100
0101
0111
1111
1101
1010
1000
0011
0111
1111
0111
1010
0010
1010
1011
1111
0111
1010
0100
1010
1101
1111
1110
0110
0010
1100
1110
1111
1101
0110
0010
1001
1110
1111
1101
0110
1000
1010
1011
1111
1110
1100
0100
1001
1110
1111
1011
1001
1000
1100
1110
1111
1101
0011
1000
1100
1110
1111
1011
0101
0010
1100
0111
1111
1011
1001
0100
1100
1110
1111
0111
0011
,  // measure 188
0001
1100
1110
1111
1101
1010
0100
1100
1101
1111
1110
1001
0100
1001
1101
1111
0111
0110
0100
1100
1011
1111
1011
0011
0100
0110
1110
1111
1011
1010
1000
1010
1110
1111
1011
1010
0100
1010
1101
1111
1011
0101
0001
1010
0111
1111
1011
0110
0100
1001
1110
1111
1110
0011
1000
1010
1110
1111
0111
1100
0010
0110
1110
1111
0111
0011
0100
0110
1011
1111
0111
0011
1000
0110
1101
1111
1110
0110
0001
1010
1101
1111
1011
1001
0001
1001
1110
1111
1011
1100
0100
0110
1011
1111
1011
1010
0010
1001
1101
1111
1011
1100
0010
1010
0111
1111
1011
0011
1000
0011
1110
1111
0111
1100
1000
1001
1110
1111
1011
1100
0100
1001
1011
1111
0111
0110
0010
1100
1101
1111
1011
1010
0100
0011
1011
1111
1011
1100
0100
0110
1110
1111
1101
1001
0100
1001
0111
1111
1110
1100
1000
0101
1101
1111
0111
1100
0100
1010
1101
1111
1011
0011
1000
1001
1110
1111
1011
1100
0010
0011
1110
1111
1101
1001
0001
1100
0111
1111
1011
1001
1000
1100
1011
1111
0111
1100
0100
0110
1101
1111
1101
1010
,  // measure 189
0010
0110
1101
1111
1110
1010
0010
0110
0111
1111
1101
1100
0010
1100
1011
1111
1110
0101
0100
1010
1011
1111
1011
1100
0100
1010
1101
1111
1011
1100
1000
1001
0111
1111
1110
1010
1000
1100
0111
1111
0111
0011
0100
1100
1101
1111
1101
0110
1000
0101
0111
1111
1110
1010
1000
0101
1011
1111
1101
0011
0001
1100
1110
1111
0111
1001
1000
0110
1110
1111
0111
1100
1000
1100
1011
1111
1110
1100
0010
0110
1101
1111
0111
0101
0100
1100
0111
1111
1011
1100
0001
0101
1110
1111
1101
1001
0100
1100
1110
1111
1011
1100
1000
0110
1110
1111
1101
0110
0010
0110
1110
1111
1011
0101
0100
1100
1101
1111
1110
0110
0100
0101
1110
1111
0111
1001
1000
1100
1110
1111
1101
0110
0010
1100
1101
1111
1110
1100
0100
0101
1011
1111
0111
0101
1000
0110
1110
1111
1011
1100
0100
1001
1101
1111
1110
1100
0010
1100
0111
1111
0111
1001
0010
0101
1101
1111
1101
0011
1000
1001
0111
1111
1110
1100
0100
1010
1101
1111
1011
1010
0100
1001
1011
1111
1011
0011
0001
1010
1110
1111
1011
1001
,  // measure 190
0001
0101
1101
1111
1110
1100
1000
1100
1110
1111
1101
0101
0100
1100
1110
1111
1101
1100
1000
0110
1110
1111
1110
1010
1000
1001
0111
1111
1011
1010
0100
0011
1110
1111
1101
1100
0100
1010
1101
1111
1011
1010
1000
0101
1011
1111
1011
0110
0010
1100
1110
1111
1110
1010
0100
1001
1110
1111
1110
1100
0100
0110
1110
1111
1101
1100
1000
1001
1110
1111
0111
0101
0001
1010
1110
1111
1011
1010
0010
1010
1110
1111
1011
0110
0100
1100
1110
1111
1110
0101
0100
0110
1110
1111
1101
1010
1000
1010
1110
1111
1110
1010
1000
1100
1101
1111
0111
1100
0100
1001
1101
1111
1101
1100
1000
0101
1101
1111
1101
1100
0001
1100
1110
1111
0111
0011
1000
0110
1110
1111
1101
1010
0100
1100
1011
1111
1101
1100
0100
1001
1101
1111
1101
1010
0001
0101
1011
1111
1110
1010
0100
0011
1110
1111
1011
0011
1000
1001
0111
1111
1110
0110
1000
1100
1110
1111
1011
1100
1000
0110
1110
1111
1101
1001
1000
1100
0111
1111
1110
1100
0001
1100
0111
1111
1110
0011
1000
1001
0111
1111
1110
1010
,  // measure 191
0100
1001
1101
1111
1101
0101
1000
1010
1110
1111
1110
0011
0001
1100
1101
1111
1110
0110
0001
1010
1101
1111
1110
1100
1000
1001
1110
1111
1011
0101
0010
0110
0111
1111
1110
0011
1000
1010
1011
1111
1101
0101
0010
1001
1101
1111
0111
0101
0001
1010
1011
1111
1011
1001
0010
0011
1110
1111
0111
0110
0100
0101
1101
1111
1110
0101
0010
1100
1011
1111
0111
1100
0100
1100
1011
1111
1011
0110
0010
1100
1101
1111
1011
0011
0100
1100
1101
1111
1011
1100
0001
0110
0111
1111
1110
1100
0100
1010
1110
1111
0111
1010
0100
0110
1110
1111
1110
1010
1000
1100
1101
1111
0111
1010
0010
0110
1110
1111
1011
0011
1000
1010
0111
1111
0111
0101
1000
0110
1110
1111
0111
0110
0010
1100
1110
1111
1101
1001
0010
1010
1101
1111
1110
0110
1000
1100
1110
1111
0111
1001
0100
0110
1110
1111
1101
0101
1000
0011
1011
1111
1101
1001
1000
0110
1101
1111
1101
1100
0010
0110
0111
1111
1110
1010
1000
1100
1110
1111
1110
0011
0100
1010
1011
1111
0111
1100
0001
1010
1011
1111
1110
1100
,  // measure 192
1000
1001
1011
1111
0111
1100
0100
1100
1101
1111
1101
0101
0010
1100
1101
1111
1011
1100
0001
1001
0111
1111
1011
1001
0100
1010
1110
1111
0111
0101
0001
1010
0111
1111
0111
0011
0010
1010
1110
1111
0111
0110
0010
1100
1011
1111
1011
1010
1000
1100
1110
1111
1110
0101
1000
1001
0111
1111
1101
0011
1000
0101
0111
1111
0111
1001
1000
0110
1110
1111
1011
1010
0010
1001
1101
1111
1110
0101
1000
0101
0111
1111
0111
1010
0001
0101
0111
1111
0111
0110
0100
1010
1101
1111
1101
1100
1000
1100
1101
1111
1110
0101
1000
1100
1011
1111
1011
1001
0001
0110
1110
1111
1101
1100
0010
1001
1011
1111
0111
1001
0010
0011
1110
1111
1110
1001
0100
1010
1011
1111
1110
0011
0010
1001
1110
1111
0111
1100
1000
1100
1110
1111
1101
1100
0100
1001
0111
1111
1011
0101
1000
0110
1110
1111
0111
0011
0100
1001
1011
1111
0111
1010
0100
1100
1011
1111
0111
1100
1000
1010
1110
1111
1110
1001
0010
0110
1101
1111
0111
1010
0100
1100
1011
1111
1110
1001
0100
1100
0111
1111
1101
0011
,  // measure 193
1000
1010
1101
1111
0111
1010
0001
0101
1110
1111
1110
0101
0010
0110
1110
1111
1110
1001
1000
0101
1101
1111
0111
0110
0010
0110
1101
1111
1011
1001
0100
1100
0111
1111
1011
1010
0010
1010
1110
1111
0111
1010
0100
1100
1110
1111
1011
1100
0001
0110
1110
1111
1110
1100
1000
1100
1110
1111
0111
0011
0010
0101
1110
1111
1101
1100
0100
1001
1110
1111
1011
0101
0010
1010
1110
1111
1101
1010
0010
1001
1101
1111
1101
1100
0010
1010
1011
1111
1110
0110
1000
1100
1101
1111
1011
1100
1000
1100
0111
1111
0111
0110
1000
1001
1101
1111
0111
1010
1000
1001
1110
1111
1110
0011
0010
1100
1110
1111
0111
1100
1000
0011
1110
1111
0111
1100
0100
1001
0111
1111
1011
0101
0010
1100
1101
1111
1011
1010
1000
1100
1101
1111
0111
1010
0001
1010
1011
1111
0111
1100
1000
1100
1110
1111
1110
1100
0010
0101
1110
1111
1101
1100
1000
0110
1011
1111
0111
1100
0001
1100
1110
1111
1110
0011
0100
0110
1011
1111
0111
1001
0010
0101
1110
1111
1101
0101
0001
0011
1101
1111
1011
0101
,  // measure 194
0001
0101
1011
1111
0111
0110
1000
1001
1110
1111
1011
1010
0100
1001
1011
1111
1110
1010
0001
1001
1110
1111
1101
1100
1000
0110
0111
1111
0111
0011
0010
1010
0111
1111
1110
0101
0100
0101
1101
1111
1011
0110
1000
1010
1110
1111
0111
0110
0010
1010
1101
1111
0111
0101
1000
1100
1110
1111
1101
1001
1000
1100
0111
1111
1110
0110
1000
1010
1110
1111
1011
0011
0010
1010
1101
1111
0111
0110
1000
1100
0111
1111
0111
0101
1000
0011
1110
1111
1101
0110
0010
1100
1110
1111
1011
0101
0010
0110
1110
1111
1110
1010
0010
1100
1101
1111
1101
0110
1000
1001
1101
1111
1101
0110
0100
0101
1011
1111
1101
0011
1000
0110
1011
1111
0111
0110
0001
1100
1101
1111
1011
1001
0001
1001
1011
1111
1011
1100
0100
0011
1110
1111
0111
0110
0010
1010
0111
1111
0111
1100
0100
1001
1101
1111
0111
0110
1000
0101
1101
1111
0111
1100
1000
1010
1101
1111
0111
0101
1000
1100
1101
1111
1011
1001
0001
1010
1110
1111
1011
0110
0100
0011
1011
1111
1110
1100
1000
0011
1011
1111
1011
1001
,  // measure 195
0100
0101
1110
1111
0111
1001
0001
0110
1110
1111
1101
0110
0010
1100
1110
1111
1110
0011
0100
1100
1110
1111
1101
1010
1000
1001
1110
1111
0111
1100
1000
1010
1101
1111
1101
1100
0100
1010
0111
1111
1110
1001
0001
0101
1011
1111
1011
0011
0100
1010
1011
1111
1110
0110
0001
0011
1101
1111
1011
0110
0100
1100
1110
1111
1011
0101
0001
1100
1011
1111
1110
1100
0100
1001
1110
1111
1011
1100
1000
1010
1101
1111
1110
1010
1000
0110
1110
1111
1101
1010
1000
0110
1011
1111
0111
1001
0100
1010
0111
1111
1110
0110
0100
0011
1110
1111
1011
0011
1000
1100
1110
1111
1110
1010
0100
1010
1110
1111
1101
1100
1000
1010
1011
1111
1011
0101
1000
1001
1110
1111
1011
1001
1000
1010
1110
1111
1101
0011
1000
1001
1110
1111
1110
0101
1000
1100
1011
1111
0111
0101
0010
0110
1110
1111
1110
1100
0100
1100
1101
1111
1101
0011
0010
0011
1011
1111
0111
1100
0100
1100
1011
1111
1011
1010
0100
0110
1110
1111
1011
1100
0001
1010
1110
1111
1011
1010
0100
0110
1011
1111
1101
0011
,  // measure 196
0001
1010
1110
1111
0111
1010
0010
0101
0111
1111
1101
1010
0010
0110
1011
1111
1011
0101
0010
1100
1101
1111
1110
0011
0010
1100
1011
1111
0111
0011
0001
1010
1110
1111
1101
0011
1000
1100
1110
1111
0111
0011
0001
1100
1011
1111
1110
0011
1000
1100
1101
1111
0111
0110
1000
1010
1101
1111
0111
1010
0001
0011
1110
1111
0111
0011
1000
1010
1110
1111
1011
0110
0001
1001
1101
1111
0111
0101
0100
0110
1101
1111
1110
1010
0100
0101
0111
1111
1110
1001
0010
1001
1110
1111
1011
1100
1000
1010
1101
1111
1101
1010
0100
0110
1110
1111
1110
1010
0010
1100
1110
1111
1011
0011
0010
1001
1110
1111
1110
0110
0010
1100
1011
1111
0111
1100
1000
1001
1101
1111
1011
0011
0010
1100
1011
1111
1011
0101
0001
1010
0111
1111
1011
1100
1000
0011
1011
1111
0111
0011
0100
1100
0111
1111
1101
0011
1000
0101
1101
1111
1101
1010
0100
1100
1101
1111
1110
1010
0001
0101
1110
1111
1101
0101
1000
1100
1110
1111
1011
0011
1000
1100
1101
1111
0111
1001
0001
1001
1011
1111
1011
1010
,  // measure 197
1000
0101
0111
1111
1110
1100
0100
1100
1101
1111
1110
0110
0100
1100
1011
1111
1011
1010
0100
1001
1101
1111
0111
1100
1000
1010
1011
1111
1110
0110
0100
1001
1110
1111
1101
0101
0100
1100
0111
1111
1101
0011
0100
0011
1110
1111
1011
1010
0001
1010
1101
1111
0111
0110
1000
0110
1110
1111
1101
1100
1000
1100
1011
1111
1110
0011
1000
1100
1110
1111
1110
1001
1000
1100
1110
1111
0111
1100
1000
1010
1101
1111
0111
1100
1000
1010
1101
1111
0111
1100
0100
1100
1110
1111
0111
1010
0010
1010
0111
1111
1011
0011
0001
0101
1110
1111
0111
1001
1000
1010
1101
1111
1011
0110
0001
0101
1110
1111
1110
1010
1000
1100
1011
1111
1110
0110
1000
1100
1101
1111
1011
1010
0100
1010
1011
1111
1110
1010
1000
1001
1101
1111
1011
0101
0001
1010
1011
1111
1101
1010
0001
1010
1011
1111
0111
1010
0100
0011
0111
1111
1110
0110
1000
0011
1110
1111
1011
1010
0100
1001
1011
1111
1110
1010
1000
1010
1110
1111
1110
1001
1000
1100
1011
1111
1011
0011
1000
0011
1110
1111
1011
1100
,  // measure 198
1000
1100
1011
1111
0111
1001
0010
0110
1011
1111
1110
0110
1000
1100
1101
1111
1110
0011
0001
0110
1110
1111
1110
1010
0100
0011
1110
1111
1110
1010
0010
1010
1011
1111
1011
1001
0100
1001
1011
1111
1101
0101
0001
0011
1101
1111
1110
0011
1000
1100
1011
1111
0111
1100
1000
0101
1011
1111
0111
1100
1000
1100
1101
1111
1110
1010
0001
1001
1110
1111
1110
0110
0010
1001
1110
1111
1101
0011
1000
1001
1110
1111
1011
0011
0001
1010
0111
1111
0111
1010
1000
0101
1101
1111
1110
1010
0100
1010
1110
1111
1011
1001
0001
0101
1110
1111
0111
1100
1000
0101
1101
1111
0111
0110
1000
0101
1101
1111
1110
0110
1000
1001
1101
1111
1101
0110
0100
0101
1110
1111
1101
0011
1000
1001
1101
1111
1011
1100
0001
1100
0111
1111
1101
0011
0010
0101
1110
1111
1110
0101
0100
1010
1110
1111
1101
0110
0100
0110
1110
1111
1011
0110
0010
0110
1101
1111
1011
0110
1000
1100
0111
1111
1101
0101
0010
0110
1011
1111
1011
1010
0010
0110
1011
1111
1110
1010
0100
0101
1011
1111
1011
1001
,  // measure 199
0010
0011
1110
1111
0111
1100
0010
0101
1110
1111
1101
1010
1000
0011
1011
1111
0111
1001
0010
0101
0111
1111
1101
1100
0001
1001
1110
1111
0111
1010
0001
0110
1110
1111
0111
1100
0100
1100
1011
1111
0111
0110
0001
0110
1101
1111
1110
1010
1000
0101
1101
1111
1101
1010
1000
1010
1110
1111
1110
0101
1000
1010
1101
1111
0111
1010
0100
0101
1110
1111
1011
0011
0100
1010
0111
1111
0111
1001
0010
0110
1110
1111
0111
1010
1000
1010
1110
1111
1101
1010
1000
1100
1011
1111
0111
1001
0010
1010
1101
1111
1101
1100
1000
0110
1110
1111
1110
0110
1000
1001
1110
1111
1101
0110
0100
0101
0111
1111
1110
0011
0010
1100
0111
1111
1110
0101
1000
1001
1110
1111
1011
1100
0010
1001
1110
1111
1110
0110
0010
1100
1101
1111
1011
0110
1000
1100
1110
1111
1011
1100
0100
0110
1011
1111
1110
0110
1000
1100
1101
1111
1110
1100
1000
1010
1110
1111
0111
0110
0001
0110
0111
1111
1101
0101
0100
0110
1110
1111
1011
1010
0010
1010
1011
1111
1110
1010
0100
1001
0111
1111
1110
0110
,  // measure 200
1000
1010
1110
1111
0111
1001
0100
1001
1101
1111
1101
0011
0100
1010
0111
1111
0111
0011
1000
1010
1110
1111
1011
1100
0100
1010
1101
1111
1110
0110
0010
1100
1110
1111
1110
0101
0001
0101
0111
1111
1110
1001
1000
0110
1110
1111
1011
1010
0100
1100
1110
1111
1011
0011
0010
1100
0111
1111
1101
0101
1000
0110
1101
1111
1011
0011
1000
1001
0111
1111
1110
0101
1000
1100
1011
1111
1011
1010
0001
1100
1110
1111
1110
0011
0010
0110
1011
1111
1011
1100
0100
0110
1110
1111
1110
1100
0100
0011
1101
1111
1110
1100
0100
1100
1110
1111
0111
0110
0001
1010
1011
1111
1101
1010
0010
1100
0111
1111
1011
1010
0001
1100
1011
1111
1011
0110
0100
1100
1101
1111
1101
0011
0100
1010
1110
1111
1110
1010
1000
1001
0111
1111
1101
1100
1000
1010
1101
1111
1011
0011
1000
0101
1110
1111
1011
0110
0100
1010
1011
1111
1110
1100
1000
1100
1011
1111
0111
1010
0100
1010
0111
1111
0111
0011
0001
0110
1110
1111
1110
0101
0001
1100
0111
1111
1110
0110
1000
1100
1110
1111
1101
0011
,  // measure 201
1000
1100
1110
1111
0111
0101
1000
1100
1101
1111
1011
1100
0100
0101
1011
1111
1110
1001
0010
1100
1011
1111
1011
1010
0100
1010
0111
1111
1011
1001
0100
1010
1101
1111
0111
0101
0100
1100
1110
1111
0111
0011
0100
1100
1011
1111
1011
0101
0010
1100
0111
1111
1101
1010
1000
1100
1011
1111
1110
1001
0100
1100
1011
1111
1101
1100
1000
1100
1011
1111
1101
0110
0001
1001
1011
1111
1110
1001
1000
1100
0111
1111
0111
1001
1000
1001
1110
1111
1101
0110
1000
0101
1110
1111
1101
1010
0010
1100
1101
1111
1110
1001
0100
0110
1110
1111
0111
1010
0100
1001
0111
1111
1011
0011
0010
1100
1110
1111
1011
0110
0001
0101
0111
1111
1101
0011
1000
1010
0111
1111
0111
1100
0100
1100
0111
1111
0111
1010
1000
0101
1110
1111
1101
0011
0100
1100
1101
1111
1110
1001
0001
1100
1101
1111
1011
1100
1000
1010
1110
1111
1011
1001
0100
1100
1110
1111
1110
1100
1000
0101
1101
1111
1101
1010
1000
1001
1011
1111
0111
0101
0100
0101
1101
1111
1110
1010
0010
1001
1011
1111
1101
0101
,  // measure 202
0100
1100
1110
1111
1101
1001
1000
1100
0111
1111
1011
0011
1000
1010
1110
1111
1110
1010
1000
1100
1110
1111
1110
1010
0010
0011
1101
1111
1011
1010
0001
0110
1110
1111
1011
0011
1000
0110
1110
1111
0111
0011
0100
0110
1011
1111
1110
0011
0010
1010
1110
1111
1011
0101
0001
0011
1110
1111
0111
0101
0100
1100
1101
1111
1011
1001
0100
1010
1110
1111
0111
0110
1000
0011
1110
1111
1101
0110
0100
1100
1110
1111
1110
0011
0100
0110
0111
1111
1101
1010
1000
1010
1011
1111
0111
1001
1000
1100
1011
1111
0111
0110
0001
1001
1011
1111
1110
0101
0001
0110
1110
1111
1101
1010
0100
1010
0111
1111
1110
1001
0100
1001
1110
1111
1101
1010
1000
1010
1110
1111
1011
1010
1000
1100
1110
1111
1101
1100
0001
0110
1110
1111
1101
1010
0100
0011
0111
1111
0111
1100
0100
1010
1011
1111
1110
1100
0001
1100
1110
1111
0111
1001
1000
1100
1110
1111
1110
1010
0010
1010
1101
1111
1101
0110
1000
1100
1110
1111
1110
1100
0001
1100
1110
1111
1101
1010
0100
1010
1011
1111
1110
0110
,  // measure 203
0100
1001
1110
1111
1110
1001
1000
1100
1110
1111
1011
1010
1000
0110
1110
1111
1101
1010
0100
1100
1011
1111
0111
1100
0010
1010
1101
1111
1011
1100
0001
1010
1011
1111
0111
1001
1000
0011
1110
1111
1110
1010
1000
1100
1110
1111
0111
1001
0010
0011
0111
1111
1101
1100
0001
0011
1110
1111
0111
1100
1000
0110
1110
1111
1011
0101
1000
0101
1011
1111
0111
1010
1000
1010
0111
1111
1011
1010
1000
1010
0111
1111
0111
1010
1000
1001
1011
1111
1101
1010
0100
1010
1011
1111
1011
0110
0010
0110
1110
1111
0111
1010
1000
0011
1110
1111
0111
0011
0100
1100
1110
1111
0111
1010
1000
0011
1110
1111
1011
1001
1000
1100
1110
1111
0111
1100
0100
0011
1101
1111
0111
0011
1000
1100
0111
1111
0111
1100
0100
1010
0111
1111
1110
1001
0010
0011
0111
1111
1011
0101
1000
0101
0111
1111
1011
1010
1000
0110
1110
1111
1011
1001
0010
1100
1101
1111
1101
1100
0010
1001
1110
1111
1011
1010
0010
1100
1110
1111
0111
1010
1000
1100
1110
1111
1011
1100
0100
1100
1011
1111
1011
0011
,  // measure 204
0100
1100
1011
1111
1011
1100
0010
1010
1101
1111
1110
1100
0010
1010
0111
1111
1110
1001
1000
1010
1011
1111
1011
1001
0010
1100
1101
1111
1011
1100
1000
0110
1101
1111
1011
0011
1000
0110
1011
1111
1110
0011
0100
0011
1110
1111
1101
1001
0100
1100
1110
1111
1110
0011
1000
1010
0111
1111
1101
0110
0010
0110
1110
1111
1101
1100
1000
1010
0111
1111
1101
1001
0010
1100
0111
1111
1101
1100
0001
1100
1101
1111
0111
0110
0100
0011
1110
1111
1011
1100
0001
1100
1110
1111
0111
0011
1000
1010
1110
1111
1110
0110
0100
0011
1101
1111
1101
1001
0100
1100
1011
1111
1011
1010
1000
0110
1011
1111
1011
1010
0100
1100
1011
1111
1110
0110
0001
0110
1110
1111
1110
1010
0100
0011
1101
1111
0111
1100
0100
1100
1110
1111
1101
1100
0100
0110
1101
1111
1011
0101
1000
1100
1110
1111
1101
0110
0100
1100
1110
1111
1101
1010
0100
1010
1011
1111
0111
1010
0010
0110
1011
1111
1110
1100
0010
1100
1110
1111
1101
1001
0100
1001
1101
1111
1101
0101
0010
1001
1101
1111
1110
1010
,  // measure 205
1000
1100
1101
1111
0111
0110
1000
1001
0111
1111
1110
1010
0001
1100
1110
1111
1011
1100
0100
1001
1110
1111
1011
0101
0001
0110
1110
1111
1101
1100
0010
1100
1011
1111
1101
0011
0001
0101
1110
1111
1110
0101
0001
0011
1011
1111
1110
1010
1000
1010
1110
1111
0111
0101
1000
0101
1110
1111
0111
1010
0100
1100
1110
1111
1110
1010
0010
1100
0111
1111
1110
0101
0001
0110
1110
1111
0111
1100
1000
1100
1110
1111
1101
0101
1000
1010
0111
1111
1110
1001
1000
1100
1110
1111
1110
1010
0010
1010
1110
1111
1101
0110
1000
0101
1110
1111
1101
0110
1000
1001
0111
1111
0111
1100
0100
1100
1011
1111
1110
1100
1000
1010
1110
1111
0111
1010
1000
0110
1011
1111
1110
1001
1000
0110
1101
1111
0111
0011
0100
1010
0111
1111
1011
1010
0010
0110
1110
1111
1011
1100
0010
1001
1011
1111
1110
1010
0010
0011
1110
1111
1101
1100
0100
0110
1110
1111
1101
1010
0010
1100
0111
1111
0111
0011
0100
1010
1110
1111
0111
1001
1000
0011
1110
1111
1101
1001
1000
0110
1101
1111
0111
1010
,  // measure 206
1000
1001
1011
1111
1110
0011
1000
1001
1101
1111
1101
0011
0010
1100
1011
1111
1101
1010
0100
1010
1101
1111
1101
0101
1000
1010
1110
1111
0111
1100
0010
0110
1110
1111
1110
0101
0100
1100
1110
1111
1011
1100
1000
0101
1110
1111
0111
0011
0100
1100
1011
1111
0111
1001
0100
0011
1110
1111
0111
1010
0010
0110
1110
1111
1101
0011
0100
0110
1101
1111
1011
1100
1000
0011
0111
1111
1011
1100
0010
0110
1011
1111
1011
0011
1000
1100
1110
1111
1011
1100
0100
1010
1110
1111
1110
0110
1000
0110
1101
1111
1101
1010
0001
0110
1110
1111
0111
1010
0010
1010
0111
1111
0111
0101
1000
1100
1101
1111
1110
1100
0010
1010
1101
1111
0111
0110
0001
0101
1110
1111
0111
0110
0100
1010
1011
1111
1011
0110
0100
0101
1011
1111
1101
1010
1000
1001
1110
1111
1011
0110
0100
1100
1011
1111
1110
0011
0100
0011
1110
1111
0111
0110
0010
1001
0111
1111
1101
1010
0001
1100
0111
1111
1110
0110
1000
1010
1110
1111
1011
1001
0001
1100
0111
1111
0111
1010
0100
1001
1110
1111
1110
1001
,  // measure 207
0010
1010
0111
1111
0111
1001
1000
0101
1110
1111
1101
1100
1000
0110
1101
1111
1101
1100
1000
0110
0111
1111
1110
1001
1000
1100
1110
1111
0111
0110
1000
0011
0111
1111
1110
1010
1000
1100
0111
1111
1110
1010
0010
0110
1110
1111
1011
1010
1000
1010
1110
1111
1011
0101
1000
0101
1011
1111
1101
0011
1000
1010
1101
1111
1101
1100
1000
1100
1110
1111
1110
1100
1000
1100
1110
1111
1110
0011
1000
1100
0111
1111
0111
1001
1000
1001
1110
1111
1110
1010
1000
0011
1101
1111
1110
0101
0010
0110
1101
1111
1011
1010
0100
1010
0111
1111
1110
0011
0010
1001
1110
1111
0111
1001
0001
0101
1101
1111
1110
1100
0001
1010
1110
1111
1011
1100
1000
1100
1110
1111
1110
1010
0100
1100
1101
1111
1011
1100
0100
1010
1110
1111
0111
0110
1000
1010
1011
1111
1011
1010
0100
1001
1110
1111
1011
0101
0001
1010
1110
1111
1101
0101
0010
0110
1011
1111
0111
0110
0100
0110
1101
1111
1011
0101
0001
0101
1011
1111
1110
1010
0100
1010
1011
1111
1101
1001
0100
1100
1110
1111
1011
1010
,  // measure 208
1000
0011
1110
1111
1011
1010
0010
1100
1011
1111
1011
1010
0001
0011
1101
1111
1110
1001
1000
1010
1110
1111
1011
0110
1000
0101
1011
1111
1110
0101
0010
1100
1110
1111
1110
0011
0010
0110
1110
1111
1101
1100
0010
1001
1101
1111
1101
0110
0001
1100
1011
1111
0111
0011
0010
0011
1110
1111
0111
0011
0010
1100
1101
1111
1110
1100
0001
0110
1110
1111
0111
0011
0100
1100
1110
1111
0111
0101
0100
1010
1101
1111
0111
0110
0100
1001
1011
1111
0111
0101
1000
1100
1110
1111
1101
0101
0100
1010
1110
1111
0111
1010
1000
1100
1011
1111
1110
1100
1000
1100
1110
1111
1011
0101
1000
1001
1011
1111
0111
1010
0100
1010
1011
1111
1110
0011
0100
1010
0111
1111
1011
1010
0010
0011
1110
1111
1110
1100
0100
1100
1110
1111
1110
1001
1000
0110
1011
1111
1011
1001
0001
1001
1011
1111
1110
1001
0100
1010
1110
1111
1110
1100
1000
1100
1101
1111
1110
0110
1000
0011
1101
1111
1110
1100
0010
1010
0111
1111
0111
1001
0100
0110
1101
1111
1110
0101
1000
0110
1011
1111
1011
1010
,  // measure 209
0010
1100
1110
1111
1110
1001
0010
1001
1110
1111
1110
0011
0100
1010
1110
1111
1110
1001
1000
1010
1101
1111
1110
0011
0001
0101
1101
1111
1101
1100
0010
1010
0111
1111
0111
1010
0010
1100
0111
1111
1110
1010
0100
1001
1011
1111
1011
1001
1000
1001
1101
1111
1011
0101
0001
1100
0111
1111
1110
0011
0001
0110
1101
1111
1101
1010
1000
0101
1110
1111
1011
1010
0100
1001
0111
1111
1110
1100
0100
1001
1110
1111
0111
1100
0100
1010
1110
1111
0111
0011
1000
1001
1110
1111
1011
0011
1000
0110
0111
1111
1011
1010
0001
1100
1101
1111
0111
0011
0100
0110
0111
1111
1101
1100
0100
1001
1110
1111
1110
1100
1000
1010
1011
1111
1101
1100
0010
0011
1101
1111
1110
1001
1000
0101
1110
1111
1011
0101
0010
1100
1011
1111
1110
1001
0001
1100
1011
1111
1110
1010
0001
1100
1110
1111
0111
1001
1000
1001
0111
1111
1110
1010
0100
0110
1011
1111
1011
1100
0001
1100
1110
1111
1110
1100
1000
1100
1110
1111
1101
1100
0010
1100
1101
1111
1110
0101
1000
1001
0111
1111
1110
0110
,  // measure 210
1000
0101
0111
1111
1101
1100
1000
1001
1110
1111
1101
0110
0100
1001
1110
1111
1101
1010
1000
1010
1110
1111
1011
1010
1000
0011
1101
1111
1011
0110
0100
1100
1110
1111
0111
0110
1000
1010
1101
1111
1011
1001
1000
1010
1110
1111
0111
1001
0010
1001
1110
1111
1101
1001
0100
1001
0111
1111
1011
1010
1000
1010
0111
1111
1011
1010
1000
0101
1110
1111
0111
1010
1000
1001
1011
1111
1011
1010
0010
0110
1101
1111
1101
0110
1000
1001
1110
1111
0111
1100
0001
1010
0111
1111
0111
0110
1000
1001
1101
1111
1011
1010
0100
1010
0111
1111
1011
1001
1000
0011
0111
1111
1101
1010
0010
1010
1101
1111
1110
1010
0010
1100
1110
1111
1011
1010
0010
1100
0111
1111
1110
1100
0001
0110
1110
1111
1011
0011
1000
1001
1110
1111
1101
1100
1000
1010
1110
1111
1110
0011
0010
0110
0111
1111
1110
1010
0100
1001
1110
1111
1011
1100
0001
0110
1101
1111
1110
1100
0100
1001
1101
1111
0111
0101
1000
0110
1110
1111
1110
0011
0001
1010
1101
1111
0111
1010
0100
1100
1110
1111
0111
1010
,  // measure 211
0100
1001
1110
1111
1110
1010
0001
1010
1101
1111
1011
1001
0100
1010
1110
1111
1011
1100
0100
1010
1011
1111
1110
1001
1000
1100
0111
1111
0111
0101
0100
0110
1011
1111
1011
1001
0100
0011
1110
1111
0111
1010
0010
0110
0111
1111
0111
0011
1000
0011
1011
1111
1110
1010
0010
0011
1011
1111
1101
1010
0100
0110
1101
1111
1101
1100
0010
1001
1110
1111
1110
1100
1000
1010
1101
1111
0111
0101
0001
0011
0111
1111
1011
1001
0100
1010
1110
1111
1110
1010
0001
1010
1110
1111
1101
0011
0100
1100
0111
1111
0111
0110
1000
1010
1110
1111
1110
1010
1000
0011
1011
1111
0111
1100
0100
1100
1011
1111
1011
0110
0010
1100
1101
1111
1011
1100
0100
1100
1110
1111
1011
1010
1000
1100
1110
1111
1101
0110
0010
1100
1110
1111
0111
0011
0001
1010
0111
1111
1110
1100
0010
0110
1011
1111
1011
1100
0100
0011
0111
1111
0111
1100
0100
0101
1110
1111
1110
0110
0010
1010
1011
1111
1011
1100
0001
0110
1011
1111
1011
1100
1000
1001
1011
1111
1101
1100
0010
1100
1110
1111
1110
1001
,  // measure 212
0100
0101
1101
1111
1011
1100
0010
1100
1011
1111
1110
1010
1000
1001
1110
1111
0111
1010
1000
0110
1110
1111
1011
0101
0100
1001
1101
1111
1110
0011
1000
1010
1011
1111
1101
1001
1000
1001
1011
1111
0111
0011
1000
1010
1110
1111
1101
1100
0100
1100
0111
1111
1011
1010
0100
1100
1110
1111
1110
1100
0100
1010
1110
1111
1011
1010
0100
1100
0111
1111
1110
0101
1000
1100
1110
1111
1011
1100
1000
1010
1101
1111
0111
1010
1000
1100
1011
1111
1110
1100
0010
0011
1110
1111
0111
1001
0100
0101
1101
1111
1101
0011
1000
1010
1101
1111
1110
1001
0010
1100
1101
1111
1110
1100
0010
0110
0111
1111
0111
1100
0001
0101
1011
1111
1110
0011
1000
1100
1110
1111
1101
1001
0010
0110
1101
1111
1110
1010
0100
1100
1101
1111
0111
1010
0001
1100
1101
1111
1110
1100
0001
1100
1110
1111
1101
1010
1000
1010
0111
1111
0111
1100
0100
0101
1110
1111
1011
1010
0001
1100
1011
1111
1101
1001
0100
0110
1101
1111
1110
0011
0100
0011
1110
1111
1101
1001
0001
1010
1101
1111
0111
1001
,  // measure 213
0100
1100
1110
1111
1110
0101
0100
0101
1110
1111
1110
1010
1000
1010
1110
1111
1110
1010
0001
0110
1101
1111
0111
1010
1000
0110
1011
1111
0111
0011
1000
1001
1110
1111
1011
0110
1000
1100
1101
1111
1110
1010
0100
1100
1110
1111
1011
0110
0100
1001
1101
1111
1101
0110
0100
1010
1110
1111
1011
0101
0010
0110
1110
1111
1011
1010
0100
1100
0111
1111
1110
1100
0010
0110
0111
1111
1011
1100
1000
0110
1101
1111
1011
1010
0010
1100
0111
1111
1011
0110
1000
1001
1110
1111
1101
1100
0010
0110
1011
1111
0111
1100
0001
0110
1110
1111
1011
0011
1000
1001
1110
1111
1110
1010
0010
1100
1011
1111
0111
0110
0100
0011
1011
1111
1110
0011
0100
1001
1110
1111
1011
1010
1000
0101
1011
1111
1110
1100
0100
1010
0111
1111
0111
0011
1000
0011
1101
1111
0111
1010
0010
1001
1110
1111
1101
1010
1000
0101
1011
1111
1101
1010
0100
1100
1101
1111
1110
0101
0001
0110
1110
1111
1101
1010
0010
0110
1110
1111
1011
1010
1000
1100
1110
1111
1011
1100
0100
0011
1011
1111
1110
0110
,  // measure 214
0010
1100
1110
1111
1110
1100
1000
1100
1101
1111
1101
0110
0001
0110
1110
1111
1101
1100
1000
0101
1101
1111
1011
1010
1000
1100
1110
1111
1101
1100
0100
1010
1101
1111
1110
0011
1000
0110
1011
1111
1110
1010
0001
1010
1110
1111
0111
1010
0001
0110
1101
1111
1011
0011
0010
1100
1110
1111
1101
0110
0010
0110
0111
1111
1011
1001
0100
1100
0111
1111
1101
1010
1000
0101
1110
1111
1110
0011
0100
1010
1101
1111
0111
0110
0010
1010
1110
1111
1101
0110
1000
1010
1011
1111
1011
1100
1000
1001
1110
1111
1110
0110
0100
1001
1110
1111
1110
1010
0100
1100
1011
1111
1110
1001
0100
1100
1110
1111
0111
1010
1000
1010
1101
1111
1101
1100
0100
1010
0111
1111
1110
0011
0010
0110
1110
1111
1110
1001
0010
1001
1110
1111
1011
1010
0010
1100
1110
1111
0111
1010
0100
0110
1011
1111
1011
0110
0100
0110
1011
1111
0111
1100
1000
0011
1101
1111
0111
0011
0100
1010
1101
1111
1101
1100
0010
1010
0111
1111
0111
1010
0010
1010
0111
1111
1011
1010
1000
1100
1011
1111
1011
0110
,  // measure 215
1000
1010
1101
1111
1110
1010
0001
0110
1110
1111
0111
1100
1000
1010
1011
1111
1101
1001
0100
1001
1011
1111
0111
1001
0001
0110
1101
1111
1101
1010
1000
0101
1101
1111
1011
1001
1000
1100
1011
1111
1110
1100
0010
0110
1101
1111
1011
1010
0010
1100
1101
1111
0111
0110
0001
0101
1101
1111
1011
0110
1000
0110
1110
1111
1101
0011
1000
1100
1011
1111
1011
1010
1000
0011
1110
1111
1110
1010
0001
1100
1101
1111
1011
0110
1000
1001
1101
1111
1101
1010
0001
1001
0111
1111
1110
1100
0100
0110
1110
1111
1110
1010
1000
1100
0111
1111
1110
1100
1000
0110
1110
1111
1110
1010
0010
0110
1110
1111
1110
0110
0100
1001
1011
1111
1110
0101
1000
1100
1110
1111
1011
0101
0010
0110
1110
1111
0111
0110
1000
1010
1110
1111
1011
1100
0100
0101
1101
1111
0111
0101
1000
0101
1110
1111
1011
1001
0001
0110
1110
1111
1101
0011
0010
1010
1110
1111
1110
1010
0010
1100
1011
1111
1011
1100
1000
1100
1101
1111
0111
0110
1000
1100
0111
1111
1011
0011
0001
1100
1110
1111
1011
0011
,  // measure 216
0100
0011
1110
1111
1110
1001
1000
1100
1101
1111
1101
0011
1000
1010
1110
1111
1110
1010
0010
0101
1011
1111
1011
1001
0100
1001
1110
1111
1110
1010
0100
1001
1110
1111
0111
0011
1000
1100
1110
1111
0111
1100
0100
1010
1110
1111
1110
1001
1000
0110
1110
1111
1011
0110
1000
0011
1110
1111
1110
1010
0010
0110
0111
1111
1110
1010
1000
1001
1110
1111
1011
1010
1000
1100
1110
1111
1011
0011
0010
0110
0111
1111
1011
0011
0100
0011
1110
1111
1011
1100
0100
1001
1110
1111
1011
0011
0010
1100
1011
1111
1110
1100
0001
0110
1101
1111
1110
1001
0100
0101
1011
1111
1110
0101
0100
1010
1110
1111
1110
0011
0010
1100
1011
1111
1110
0011
0100
1001
1110
1111
0111
1010
0010
1001
1110
1111
1101
0011
0001
1100
1110
1111
1011
1100
0001
0110
1011
1111
0111
1010
0001
1100
1110
1111
1011
0101
0010
1010
1110
1111
0111
1100
0100
0101
0111
1111
1011
1010
1000
0101
1101
1111
0111
1001
1000
1100
1110
1111
0111
0110
0001
1010
1110
1111
1101
1001
1000
1010
1110
1111
1110
1001
,  // measure 217
1000
0101
1110
1111
1011
1010
0100
1010
1011
1111
1110
0110
0010
1100
1110
1111
1101
1010
0010
1010
1101
1111
1011
0011
0010
1001
1011
1111
1011
0101
0100
1001
1011
1111
1011
1010
0010
0110
1110
1111
0111
1010
0010
1100
1110
1111
1101
1010
1000
1100
0111
1111
1101
0101
0100
1010
1110
1111
1110
1100
0010
0110
1011
1111
1101
1100
0001
1010
1101
1111
1101
0110
0010
1010
1101
1111
1110
1001
0001
0101
1110
1111
1011
0011
0010
0110
1101
1111
1110
1010
1000
1001
1101
1111
1011
1010
1000
1100
1110
1111
1101
0110
0010
1001
1110
1111
1101
1100
0010
1010
1101
1111
1101
1010
1000
1010
1110
1111
1011
0011
1000
1100
1110
1111
1110
1001
0010
0101
1011
1111
1110
0101
0010
1100
1110
1111
0111
0011
0100
0110
1110
1111
1110
0101
0010
1100
1011
1111
1011
1001
0100
1010
1110
1111
1011
1100
0010
1001
1110
1111
1110
0110
1000
0011
1011
1111
1110
1001
0001
0011
1110
1111
1011
1010
0010
0110
1011
1111
1011
1001
0100
1100
1110
1111
1101
1001
0001
1010
1011
1111
0111
1010
,  // measure 218
1000
1100
1011
1111
1110
1010
1000
1100
1110
1111
1101
0110
0010
1100
0111
1111
1011
1100
0010
0011
1110
1111
0111
1001
1000
0110
1101
1111
1011
1001
0010
1001
1110
1111
1110
1001
0010
1100
1011
1111
1011
1100
0100
1001
1110
1111
0111
1100
0010
0011
0111
1111
1110
1010
0100
1100
1011
1111
1110
0110
1000
1010
1101
1111
0111
0101
0100
1001
1101
1111
1110
0110
0001
0110
1101
1111
1110
1001
0100
1100
1101
1111
0111
1010
0010
0101
1101
1111
0111
0101
0010
0011
1110
1111
1101
1010
1000
0110
0111
1111
1101
0011
0001
0011
1011
1111
0111
0101
0010
0110
1110
1111
1110
1010
0010
1001
0111
1111
1101
1100
0100
1001
1110
1111
0111
1010
0010
0110
1110
1111
1110
1100
0100
1001
1110
1111
1101
1010
1000
1100
1110
1111
1110
0011
0100
0011
1110
1111
1110
1100
1000
1001
1110
1111
1110
0101
0100
1001
1110
1111
1110
1001
1000
1001
1011
1111
1101
1010
0010
0011
0111
1111
1110
1100
0001
0110
1101
1111
1110
1001
0010
0011
1101
1111
1011
1010
0001
1010
1011
1111
1101
1010
,  // measure 219
1000
1010
0111
1111
1101
0110
1000
1001
1110
1111
0111
0110
0001
1100
0111
1111
0111
1010
0010
0110
1101
1111
0111
1001
1000
0101
1110
1111
1011
0011
0100
1100
1110
1111
1110
0101
0100
1100
1011
1111
1110
1100
1000
0101
1101
1111
1101
0110
0001
1100
0111
1111
1011
1010
0100
1001
1110
1111
1011
1100
1000
1001
1101
1111
1110
0110
0001
1100
0111
1111
1011
0110
1000
1001
1110
1111
1101
1100
1000
0011
0111
1111
1011
1100
0100
1100
1110
1111
1110
1010
0010
1100
0111
1111
1011
1100
0001
1010
1101
1111
1101
0011
0010
1100
1011
1111
1110
0101
0100
1010
1101
1111
1011
1001
0100
0110
1011
1111
1110
1010
1000
0101
1110
1111
0111
0110
1000
1100
1110
1111
1011
0011
0010
1100
1110
1111
1110
0101
0010
1100
1101
1111
1101
1100
0100
1001
1110
1111
1110
1010
0010
1100
1110
1111
0111
0101
0010
1010
0111
1111
1110
0110
0100
1100
1011
1111
1011
0110
1000
1001
1101
1111
1011
1010
0100
1001
1101
1111
1011
1100
1000
1010
1101
1111
0111
1010
0100
1100
1101
1111
1011
1100
,  // measure 220
0100
1001
1011
1111
0111
1001
0100
1001
1110
1111
1110
0110
0100
1100
1110
1111
0111
1010
0100
0101
1101
1111
0111
1010
0001
1010
1011
1111
1110
1010
1000
1010
1110
1111
1110
1010
0100
1100
1110
1111
0111
1010
1000
1100
0111
1111
1101
0110
0100
1100
1101
1111
1101
1010
0100
0101
1110
1111
1110
1100
0001
1001
0111
1111
1011
1100
0010
1010
1110
1111
1101
0101
0100
0101
1101
1111
1110
1010
1000
0011
1110
1111
1101
1100
0001
0101
1011
1111
1011
1100
0010
1001
1110
1111
1101
1100
0100
0101
1101
1111
1110
0101
1000
1010
1110
1111
1011
1100
0010
1001
1110
1111
0111
0101
0010
1001
1101
1111
0111
1100
0100
1010
1101
1111
0111
1010
0010
0101
1110
1111
0111
0110
1000
1010
1011
1111
1101
1010
0010
0110
1011
1111
0111
1010
1000
1001
1011
1111
1110
0011
0100
0110
1011
1111
1101
1001
1000
0101
1101
1111
0111
1100
1000
1001
1110
1111
1110
0110
0010
1001
1101
1111
1101
1010
0010
1001
1011
1111
1011
0011
0010
1010
1110
1111
0111
0110
0100
0101
0111
1111
1101
1100
,  // measure 221
1000
1100
1011
1111
1011
1010
1000
1100
1110
1111
1110
1010
1000
0011
0111
1111
1110
1001
0010
1001
1011
1111
1110
0110
0010
1010
1101
1111
1011
0110
1000
1010
1110
1111
1101
1010
0001
1010
1110
1111
0111
1010
1000
1100
1110
1111
1101
1100
0010
0101
1011
1111
0111
0110
0100
1001
1110
1111
1110
0110
0001
1010
1110
1111
0111
1100
0100
1100
1110
1111
1101
1001
1000
0110
1110
1111
1110
0101
0100
1010
1110
1111
1011
0110
1000
1100
1110
1111
1101
1010
1000
1100
1110
1111
0111
1010
0100
1010
1101
1111
1011
1001
1000
0101
1110
1111
1110
0110
1000
0110
1101
1111
1011
1100
0100
0110
1101
1111
1101
1100
1000
1001
1110
1111
0111
1010
0100
1001
1110
1111
1101
0110
1000
1100
0111
1111
1110
1100
0100
0101
1011
1111
1110
0011
0010
1100
1101
1111
1011
0011
1000
1010
1011
1111
1011
1100
0001
1001
0111
1111
1110
0101
0010
1010
1101
1111
1101
0011
1000
1010
1110
1111
1101
0011
1000
0110
1011
1111
1110
1001
1000
1100
1110
1111
1011
0101
1000
1100
0111
1111
1011
1010
,  // measure 222
1000
1010
1110
1111
1110
1100
1000
1100
1110
1111
1110
0011
0010
0011
1110
1111
1110
0101
1000
1010
1110
1111
1110
0011
0010
1010
1110
1111
1110
1001
0100
0110
1110
1111
0111
1100
0010
1100
1011
1111
1110
1100
0010
1001
1110
1111
1011
0110
1000
1001
1011
1111
1101
0011
0010
1100
1110
1111
0111
1010
0100
1100
1011
1111
1101
0011
0100
1100
1011
1111
1110
1001
0100
0110
1101
1111
1101
1100
0010
1010
0111
1111
1101
0011
1000
1100
0111
1111
1101
0110
0010
1001
1101
1111
0111
0101
1000
1010
0111
1111
1110
0101
0100
1001
1011
1111
0111
1100
0010
1100
1011
1111
1110
1100
0001
1001
1110
1111
0111
1100
1000
0011
1110
1111
1110
0101
0010
0110
1110
1111
1110
1010
0010
1100
1011
1111
1110
1100
0001
1100
1110
1111
1110
1100
1000
1001
0111
1111
1110
0110
1000
0101
0111
1111
1011
1010
0100
0011
1101
1111
1110
1100
0001
1100
1011
1111
0111
0101
0010
1100
1011
1111
1110
1010
0010
0101
1011
1111
1101
0110
0100
1010
1110
1111
0111
1010
1000
0101
1110
1111
1110
1100
,  // measure 223
1000
1001
1110
1111
1011
0101
1000
1100
1110
1111
1110
1010
1000
0110
1110
1111
1110
0011
0010
0110
1110
1111
0111
0110
0001
1100
1101
1111
1011
0110
0001
0110
1101
1111
1110
0110
1000
0011
1011
1111
1101
0110
1000
1001
1011
1111
1110
1010
0010
0110
1110
1111
1011
1100
0100
1100
1110
1111
1101
0110
1000
1010
1110
1111
1011
1100
0100
1100
1011
1111
0111
1010
0100
0011
1101
1111
1011
0110
0001
1100
1011
1111
0111
0011
0001
1100
1110
1111
0111
1100
1000
1100
1110
1111
1110
1100
0001
1001
1110
1111
1110
1100
1000
1001
0111
1111
1011
1001
0100
1100
1011
1111
1101
0101
1000
1001
1101
1111
1110
0101
0100
1010
0111
1111
0111
0110
0001
1001
1011
1111
1110
1100
0100
1100
1101
1111
0111
1100
1000
0110
1101
1111
1110
1001
1000
1010
1110
1111
1110
1100
0010
1100
1011
1111
1110
1100
1000
1010
1110
1111
0111
1010
0100
0101
1101
1111
1110
1100
0010
1100
1011
1111
1110
1010
0010
0110
1011
1111
1101
1100
0001
1100
1011
1111
1011
1010
0010
1010
1110
1111
1101
1001
,  // measure 224
1000
1100
0111
1111
0111
1001
0100
1001
1110
1111
1110
0011
0010
1010
1011
1111
1110
1100
0001
1100
1011
1111
1110
0110
0100
1100
1101
1111
0111
0011
0100
1010
0111
1111
1101
1100
1000
0110
1101
1111
0111
1100
1000
1100
1011
1111
1011
1010
1000
1001
0111
1111
0111
1100
0010
0110
1011
1111
0111
1010
0010
1010
1011
1111
1011
1010
0100
1001
1110
1111
1011
1001
1000
1010
1110
1111
1110
1100
0010
1001
1011
1111
1011
1010
1000
1010
1101
1111
1110
1010
0001
1001
1101
1111
0111
0110
0100
1100
1110
1111
1011
0011
0100
1001
1110
1111
1101
1010
0001
1100
1110
1111
1110
0110
0100
1100
1101
1111
1011
1100
0010
1100
1110
1111
0111
1010
1000
1100
1011
1111
1110
1001
1000
0101
1110
1111
1011
1100
0100
1100
1110
1111
0111
1100
0001
0011
1101
1111
1110
1100
0001
0110
0111
1111
0111
0011
0001
1010
0111
1111
1011
1100
0001
1100
1110
1111
1110
1001
0100
1010
1110
1111
1110
0011
0001
0101
1110
1111
1110
1100
0100
0101
0111
1111
1011
1001
0100
1010
1101
1111
1101
1001
,  // measure 225
1000
1010
1101
1111
1110
1010
0100
1100
1011
1111
1110
0011
0100
0110
1011
1111
1110
0011
1000
1010
1101
1111
1011
1100
0001
1100
1101
1111
1110
1010
1000
0110
1110
1111
1011
0011
0100
1001
1110
1111
1110
1001
0100
1100
0111
1111
0111
0110
0100
1010
1101
1111
1101
1001
0100
1010
1011
1111
1011
1010
0100
1100
1110
1111
1101
1010
0010
0110
0111
1111
1101
1100
1000
1100
1110
1111
1101
0110
0010
1100
1101
1111
0111
0011
1000
0101
1110
1111
1110
1100
0001
1100
1110
1111
1101
1100
1000
1010
1011
1111
0111
0101
1000
1010
1101
1111
1011
1010
0010
0101
1011
1111
1101
0101
0100
0110
1110
1111
1101
0101
1000
1001
1101
1111
0111
0011
0100
0101
1110
1111
1011
1100
1000
1100
0111
1111
1011
0011
1000
1010
0111
1111
0111
0101
0010
1100
1101
1111
1011
0011
0100
0110
1110
1111
0111
0101
0100
0011
1011
1111
0111
1100
0100
1100
1110
1111
0111
1100
1000
1100
1110
1111
1110
1100
0100
1010
1011
1111
1110
1001
1000
1100
1101
1111
0111
1100
1000
1010
1110
1111
0111
0101
,  // measure 226
0100
1010
1110
1111
1011
1010
1000
0110
1110
1111
1110
1010
0100
1010
0111
1111
0111
1010
1000
0110
1110
1111
1011
1001
0100
0110
1110
1111
1011
1010
1000
1100
1110
1111
1011
0101
1000
1001
1011
1111
1101
1010
1000
0110
1110
1111
0111
1001
0100
0101
1101
1111
1110
1010
1000
0101
1011
1111
1011
1010
1000
1100
1011
1111
1110
1001
1000
0011
0111
1111
1110
0011
0010
0110
1011
1111
1101
1010
0001
1100
1110
1111
1110
1100
0100
1010
1101
1111
0111
0101
0100
1010
1110
1111
0111
0011
1000
1100
1110
1111
1110
1100
0010
1100
1101
1111
1110
1010
1000
1010
1101
1111
1101
1010
0010
0101
1101
1111
1110
1001
1000
0101
0111
1111
0111
1100
1000
1100
1110
1111
1110
0110
0100
0011
1101
1111
1011
1010
0001
1001
1110
1111
1110
1001
1000
0110
1101
1111
1101
0101
0010
1100
1011
1111
1110
1001
0100
1001
1101
1111
1110
1010
0010
0011
1110
1111
1110
1010
0010
0110
1101
1111
1101
0011
0100
0110
1110
1111
1110
0101
0010
0011
1110
1111
1110
0110
0001
0110
1110
1111
1101
1100
,  // measure 227
0001
1100
1101
1111
1011
0110
0100
1001
1101
1111
1011
1100
0100
0101
1110
1111
1101
1100
0100
1100
1110
1111
1110
0011
0010
0110
1011
1111
1011
1100
0100
1010
1110
1111
1101
0101
0010
0110
1011
1111
1101
0011
0010
0110
0111
1111
1011
1010
0001
1010
1110
1111
1011
1010
0001
1010
1011
1111
0111
0011
0100
1001
1110
1111
1011
0110
0001
1100
0111
1111
1101
0101
0010
0110
1011
1111
1101
0110
0010
0101
1011
1111
1110
1010
0100
0110
1110
1111
0111
1100
0001
1010
1110
1111
1101
0101
0100
1100
1110
1111
1101
0101
0001
1001
1101
1111
1110
1010
0010
0110
1110
1111
1110
0110
0010
0011
1011
1111
1101
1010
0010
0110
0111
1111
1101
1010
0001
1100
1110
1111
1101
0011
1000
1010
0111
1111
1101
0101
0001
1001
1011
1111
1011
1010
1000
0101
0111
1111
1101
0101
0100
0101
1110
1111
1110
0110
1000
1001
1011
1111
1101
1010
1000
1100
1110
1111
1110
1001
1000
1010
0111
1111
1101
1001
0001
1001
0111
1111
0111
1100
0100
0101
1110
1111
1011
1001
0010
1010
1110
1111
1101
0101
,  // measure 228
1000
0110
1110
1111
1110
1010
1000
1100
1101
1111
1101
1100
0010
1010
1011
1111
1101
1010
0001
0011
1110
1111
1011
1001
0100
0101
1101
1111
1101
1100
0010
1100
1110
1111
0111
0011
1000
0101
1110
1111
1101
1010
1000
1010
1110
1111
1110
1001
0100
1100
0111
1111
1110
1010
0100
0110
1110
1111
1011
1100
1000
1100
1011
1111
1110
1100
1000
1010
1110
1111
1011
1100
0100
1010
1011
1111
1101
1010
0100
1100
1011
1111
1011
0011
1000
1010
1011
1111
0111
0101
1000
1100
1101
1111
1011
1010
0010
1100
1101
1111
1110
1001
0010
1010
1101
1111
0111
1100
0010
1010
1110
1111
1011
1100
0010
1100
1101
1111
1110
1010
1000
1010
1011
1111
1011
0101
0100
1001
1011
1111
1011
0110
1000
0011
1110
1111
1101
1010
0010
0101
1110
1111
1011
1100
1000
1100
1110
1111
0111
1100
0100
1100
1110
1111
0111
0110
0100
1100
1101
1111
1110
1010
0010
0110
1110
1111
1110
0011
0010
1010
1110
1111
0111
0110
0100
1010
1101
1111
1101
0101
0100
1100
1110
1111
0111
1010
0100
1001
1011
1111
1101
1100
,  // measure 229
0001
1100
0111
1111
1110
1010
1000
1010
1110
1111
1110
1001
0010
1010
1110
1111
1110
0101
0010
1100
1011
1111
0111
1100
1000
0110
1101
1111
1110
1001
0100
1010
1110
1111
0111
1001
1000
1001
1110
1111
1101
0101
1000
1100
1101
1111
0111
1010
1000
0110
1110
1111
0111
0101
1000
1010
1110
1111
1110
0011
1000
1010
1011
1111
0111
1100
0010
1001
0111
1111
1011
0011
1000
1100
0111
1111
1101
0011
1000
0110
1110
1111
1101
0011
0100
1100
0111
1111
1101
0110
1000
1010
1110
1111
1110
1010
1000
1001
1101
1111
0111
0110
0100
1100
1101
1111
1011
1010
0001
0011
1110
1111
1110
0101
1000
1010
1110
1111
0111
0110
1000
1100
1110
1111
1011
0011
0010
1100
1101
1111
0111
1010
0010
1010
1101
1111
1110
1010
1000
1001
1101
1111
1110
1001
1000
1010
0111
1111
1101
1010
1000
1100
1011
1111
1110
1100
0010
1001
1110
1111
1011
0110
0001
1010
1011
1111
1110
1100
0001
1100
1011
1111
1110
0110
0100
0110
1011
1111
0111
0110
0100
0110
1011
1111
1011
1100
1000
1010
1110
1111
1011
1001
,  // measure 230
1000
1100
1110
1111
1110
1100
1000
1010
1011
1111
1101
0110
0001
0101
1011
1111
1110
0110
0001
1010
1101
1111
1011
0011
0100
1010
1110
1111
1110
0101
1000
0101
1011
1111
1110
1010
0010
1010
0111
1111
1011
1001
1000
1010
1011
1111
0111
1001
0010
0110
1110
1111
1110
0110
1000
1100
1110
1111
0111
1100
0010
0110
1110
1111
1101
1001
1000
0110
1101
1111
0111
0101
0010
1001
1110
1111
1101
0110
0001
0110
1011
1111
1110
1100
0100
0101
0111
1111
0111
1100
1000
1100
0111
1111
0111
0011
1000
1010
1110
1111
1110
1010
1000
1100
0111
1111
1110
1100
0001
1100
1011
1111
1110
0110
0100
1100
1101
1111
1011
1010
1000
1010
1110
1111
1110
1100
1000
0110
1110
1111
1101
1001
1000
1010
1101
1111
1101
0110
0100
1001
1101
1111
1101
0110
1000
0101
1110
1111
1101
1010
1000
0101
1011
1111
1011
1001
1000
0110
1011
1111
0111
0110
1000
0110
1110
1111
0111
1001
0100
1010
1110
1111
1011
1010
1000
0101
0111
1111
1011
0011
0100
1010
1011
1111
1101
1100
0100
1010
1110
1111
1110
0011
,  // measure 231
0001
1100
1101
1111
1101
1010
0010
1001
1011
1111
0111
0101
0010
1001
1011
1111
0111
1001
1000
0101
1110
1111
1110
1100
0010
0101
1110
1111
1011
0110
0100
1100
1011
1111
1110
1001
0010
0110
1101
1111
1110
1010
0100
0011
1110
1111
1011
0110
0001
1100
1110
1111
1110
0101
1000
0101
1101
1111
1101
0101
1000
1010
1110
1111
1101
1001
0100
1100
1101
1111
0111
0101
1000
1100
1110
1111
1110
0011
1000
1001
0111
1111
1110
1010
0010
0110
1110
1111
1110
0101
1000
1010
1011
1111
0111
1001
0010
1001
1110
1111
1110
0110
0100
0011
1110
1111
0111
0101
0010
1100
1110
1111
0111
1010
0010
1100
1110
1111
1011
1010
0100
1010
1110
1111
1101
1001
1000
1100
1110
1111
1101
1100
0100
1100
0111
1111
1101
0110
0001
1010
1110
1111
1011
0101
1000
0110
1110
1111
1011
1010
0100
1100
1011
1111
0111
1001
0100
1010
1110
1111
1011
1010
0010
0011
1101
1111
1101
1010
0100
0110
1101
1111
1011
1010
0001
1001
1101
1111
1101
0011
0100
1010
1011
1111
0111
1010
1000
1100
1101
1111
0111
1100
,  // measure 232
0010
1100
1101
1111
1110
1001
0010
1100
1101
1111
1110
1100
1000
0110
1101
1111
1110
1100
0001
1100
1011
1111
1011
1010
0001
1100
1011
1111
1110
1010
0010
1100
0111
1111
1110
0011
0100
1100
0111
1111
0111
0101
0010
1001
1110
1111
1110
1001
0100
0110
0111
1111
1101
1100
0010
0011
1110
1111
1110
1010
0100
0110
1110
1111
1110
1010
1000
1001
1011
1111
1011
0101
0100
1100
0111
1111
1101
1010
1000
1001
1011
1111
1101
0101
1000
1010
1011
1111
1110
1100
0100
1010
1011
1111
0111
0011
0100
1001
0111
1111
1101
0101
0010
1010
1011
1111
1011
1100
0100
1010
1011
1111
1110
0110
0010
1001
1011
1111
1101
0110
0010
1010
0111
1111
0111
0110
1000
0110
0111
1111
1101
1100
0100
1100
1110
1111
1011
1100
1000
0110
0111
1111
1110
1010
0001
1100
1101
1111
1011
1100
0100
1001
1101
1111
1011
0101
0010
1010
1110
1111
0111
1100
1000
1001
1011
1111
1101
0101
1000
1010
1011
1111
0111
1010
1000
1100
1110
1111
1011
1010
0010
1100
1110
1111
1110
0101
0010
1010
1110
1111
1110
1100
,  // measure 233
0001
1010
0111
1111
1011
0110
1000
1001
0111
1111
1110
0110
0001
1010
1101
1111
1011
1001
0100
1100
1011
1111
1101
1001
0100
1100
1011
1111
1101
1001
1000
1100
1101
1111
1011
0011
0100
1010
1011
1111
1110
1010
0010
0101
1101
1111
1101
0011
0010
1010
1011
1111
1110
1100
0100
1001
1011
1111
1110
1010
0001
0110
1011
1111
0111
1100
0001
1001
1101
1111
1011
0011
1000
1100
1110
1111
1011
1010
0010
1001
1110
1111
1011
1010
0100
0110
1101
1111
1110
1100
0100
1010
1011
1111
1110
1001
1000
0101
1101
1111
1110
1001
0100
1001
1101
1111
0111
1010
0100
1010
1101
1111
1011
1100
0010
1010
1011
1111
1110
1100
0010
1100
1011
1111
1110
0101
1000
1100
1110
1111
1101
1100
1000
1100
1110
1111
0111
0101
1000
1001
1101
1111
1110
0101
0100
1010
1101
1111
0111
1100
0010
1100
0111
1111
1011
1010
0010
1100
1110
1111
1011
1001
1000
0101
1110
1111
1110
0110
1000
0110
1011
1111
1110
0110
0001
1100
1110
1111
1101
0110
0100
1100
1101
1111
1101
0110
1000
1001
1011
1111
1011
1100
,  // measure 234
0001
1100
1101
1111
1101
0110
0100
1001
1101
1111
0111
1010
1000
0110
1011
1111
1110
0011
0001
0110
0111
1111
1110
1010
0001
0011
1110
1111
1101
1010
0100
1100
1011
1111
0111
1001
0010
0110
1101
1111
1110
0101
1000
1100
0111
1111
1110
0101
1000
1100
1011
1111
1011
0101
1000
1100
1101
1111
1101
0110
0010
0110
1110
1111
1011
0110
0010
1100
1101
1111
0111
0011
0001
0011
1101
1111
1110
1010
1000
0101
1011
1111
0111
0110
0100
1010
0111
1111
1110
0101
0001
1001
1101
1111
1101
1100
1000
0110
1110
1111
1110
0011
1000
0101
1110
1111
1110
0110
0010
1010
1011
1111
0111
0110
0100
1010
0111
1111
1011
1001
0100
1001
1011
1111
1101
1001
1000
1100
1011
1111
0111
1100
0001
0011
1101
1111
1011
1100
1000
0110
1110
1111
1101
1001
0100
1010
1110
1111
1110
1001
1000
1100
1110
1111
1101
1010
0001
0101
1011
1111
0111
0011
0010
0011
1110
1111
0111
1001
1000
0101
1101
1111
0111
1010
0100
1100
1101
1111
0111
0011
1000
1010
0111
1111
0111
1100
1000
1010
0111
1111
1101
1001
,  // measure 235
1000
1010
1011
1111
0111
1010
0010
1001
1110
1111
1110
1010
0001
1010
1011
1111
0111
1100
0010
1001
1011
1111
1101
1010
0100
1010
1011
1111
1110
0101
0001
1010
1110
1111
1101
1010
0001
1001
1101
1111
1110
0101
0100
1100
1101
1111
1011
1010
0100
0110
1101
1111
0111
0101
0001
1001
0111
1111
0111
0101
0100
0110
1101
1111
1110
0110
1000
1001
1110
1111
1011
1010
0010
0101
0111
1111
0111
1100
1000
0110
1110
1111
1101
0011
0100
1100
1101
1111
0111
1010
0010
1100
1101
1111
0111
1010
1000
1100
0111
1111
1011
1001
0010
1100
1011
1111
1110
1010
1000
0011
1101
1111
1011
1100
0100
1001
1110
1111
1110
1100
1000
1010
1101
1111
1011
0101
0100
0110
1101
1111
1110
1010
1000
1100
0111
1111
1101
1010
1000
1100
0111
1111
1110
1100
0010
1001
1110
1111
1011
1001
1000
1100
1101
1111
1011
0011
0010
0110
1011
1111
1101
0011
0100
1100
1101
1111
1110
0011
1000
0110
1110
1111
1110
1001
0001
1010
1101
1111
0111
1100
1000
0011
1110
1111
0111
1100
1000
1100
1110
1111
0111
0110
,  // measure 236
1000
1100
0111
1111
1101
1010
1000
1001
1011
1111
1101
0110
0010
1001
1110
1111
0111
0110
0100
1100
1101
1111
1110
0110
0001
1100
1110
1111
1011
0101
1000
1100
1110
1111
1011
1100
1000
0110
1101
1111
0111
1100
1000
0110
1011
1111
0111
1010
0100
0110
1110
1111
1110
1010
0100
0110
1110
1111
1101
1001
0010
1100
1101
1111
1110
0101
0010
0110
1011
1111
0111
1100
0010
1010
1110
1111
1110
1010
1000
0011
1011
1111
1011
0101
0010
1010
1110
1111
1011
1010
0100
0101
1101
1111
1110
1100
0100
0110
0111
1111
1110
0011
0100
1100
1110
1111
0111
1100
0001
1010
1110
1111
1011
1100
1000
0110
1101
1111
0111
1100
1000
1100
1101
1111
1110
1010
0100
1001
1101
1111
1011
1010
0100
1001
1110
1111
1101
0110
1000
1100
1011
1111
0111
1100
0100
1010
1011
1111
1101
0101
1000
1100
1110
1111
0111
1001
1000
0101
1011
1111
1101
1010
0100
1100
1110
1111
1110
0011
0100
1001
1011
1111
1011
1001
0010
1001
1101
1111
1101
0110
0010
1001
1101
1111
1110
1100
0001
1100
1101
1111
1101
0101
,  // measure 237
0001
0101
0111
1111
1110
1100
1000
1001
1110
1111
1110
1100
0001
1001
1101
1111
0111
1001
0010
0110
1110
1111
1011
1010
0100
0110
1011
1111
1101
0011
0100
1001
1110
1111
1011
0110
0010
1010
1110
1111
1101
1100
1000
0011
1110
1111
1101
1010
1000
1100
0111
1111
1110
1001
1000
1100
1101
1111
1011
1010
0001
0011
1110
1111
1110
1100
1000
0011
0111
1111
1110
1100
0010
1010
1110
1111
1101
1010
0010
1100
1101
1111
1110
1010
0010
1100
1110
1111
1011
1001
1000
1010
0111
1111
1110
0011
0010
1001
1110
1111
0111
0101
0010
0110
1101
1111
1110
1001
1000
1001
1110
1111
1101
0011
1000
1100
1101
1111
1101
0101
0100
1100
0111
1111
1101
1010
0100
0011
1110
1111
1011
1010
1000
1100
1011
1111
1011
0101
0010
1100
1011
1111
1101
1010
1000
1100
0111
1111
1011
1010
1000
1100
1110
1111
1011
1001
0100
1100
1101
1111
1011
1100
0001
1100
1011
1111
1110
1100
1000
1001
1110
1111
1011
0101
0010
0101
1110
1111
1011
1010
0100
1001
1101
1111
0111
1010
0100
1100
1101
1111
0111
1001
,  // measure 238
1000
1010
1011
1111
1101
0011
0010
1100
0111
1111
1110
0101
1000
0110
1110
1111
0111
1010
0100
1001
1101
1111
1101
1100
1000
0110
0111
1111
0111
1001
0100
1100
1101
1111
1110
0011
0100
1010
1110
1111
1101
1010
0100
1100
1011
1111
1110
1010
1000
1010
1110
1111
1110
1010
1000
1010
1110
1111
0111
1010
1000
0101
0111
1111
1101
1001
1000
1001
1101
1111
0111
1010
0001
1010
1011
1111
1110
0101
1000
1010
1110
1111
0111
1100
0010
0110
1101
1111
1110
1001
0100
1100
1110
1111
1011
0110
1000
1100
1101
1111
1110
1100
0010
0011
1011
1111
1110
0110
1000
1010
0111
1111
1110
1100
0010
1010
1110
1111
1011
1100
1000
1100
1011
1111
1110
1100
1000
0110
1110
1111
1110
1010
0010
1001
1101
1111
1110
1100
1000
0101
1110
1111
0111
0110
0010
0110
0111
1111
1011
0101
0001
1001
1101
1111
0111
1010
0010
0101
1110
1111
1101
1010
1000
1100
1110
1111
1011
1100
0001
0011
1110
1111
1011
1100
0001
1100
1110
1111
0111
1010
0100
1010
1110
1111
1101
1010
0100
0101
1101
1111
1101
1010
,  // measure 239
1000
1010
1011
1111
1110
1001
0010
1100
1101
1111
0111
1100
0100
1001
1110
1111
1011
1010
0100
0011
1011
1111
1110
0101
0100
1100
1110
1111
1101
1001
0001
1100
1011
1111
1011
1100
1000
1001
1101
1111
1011
1100
1000
0110
1101
1111
1101
1100
1000
1100
1110
1111
1110
0110
1000
0011
1011
1111
1110
0011
1000
1001
1110
1111
1110
1100
1000
0110
0111
1111
0111
0110
0100
1100
1110
1111
1110
1010
1000
1010
1011
1111
1110
0110
0100
1100
1110
1111
1110
0101
1000
1001
1110
1111
1110
0011
0100
1001
1110
1111
1110
1001
0010
0011
1101
1111
0111
1100
1000
1100
0111
1111
1011
1100
1000
0110
1110
1111
1101
0110
0010
1001
1110
1111
1101
1001
0001
1001
1110
1111
1011
1001
0100
0110
1011
1111
1110
0011
0010
1010
0111
1111
1110
0101
0010
1100
0111
1111
1110
1100
1000
1001
1110
1111
0111
1010
0100
1010
1110
1111
0111
0110
0100
1100
0111
1111
0111
0011
0100
1100
1110
1111
1110
1001
0010
1010
1110
1111
0111
1010
0100
0110
1110
1111
1110
1100
1000
0101
1101
1111
0111
1001
,  // measure 240
0001
1010
1110
1111
1011
0101
0100
0110
1011
1111
1101
1010
1000
1100
1011
1111
1101
1010
0010
1010
1011
1111
0111
1001
0100
1001
1110
1111
0111
1010
0100
0011
1101
1111
0111
1010
1000
1010
0111
1111
1101
1100
0100
1010
1101
1111
0111
0101
1000
0101
0111
1111
0111
0110
1000
0110
1101
1111
1110
1010
0001
1010
1011
1111
1110
1010
1000
1001
1011
1111
0111
1010
1000
1100
1110
1111
0111
1100
0100
1001
1110
1111
1110
1100
0010
1010
1011
1111
1110
1100
0100
1100
1110
1111
1110
0011
0100
1100
1101
1111
0111
0101
0100
1100
1101
1111
1101
0101
0010
1001
1011
1111
1110
1100
0010
1010
1110
1111
0111
1010
0010
1100
1101
1111
0111
1010
1000
0101
1110
1111
1110
1001
0010
1100
1101
1111
0111
0101
1000
1010
1101
1111
1110
1010
0100
1001
1110
1111
1110
1001
0100
0110
1110
1111
1011
1001
1000
1001
1011
1111
0111
1001
0100
0011
1110
1111
0111
1100
0100
0110
1101
1111
0111
1100
1000
1100
1101
1111
0111
0110
1000
0011
1011
1111
1110
0110
1000
1100
1011
1111
1011
1001
,  // measure 241
1000
0110
1101
1111
1011
0110
0100
0110
1110
1111
1110
0110
1000
1100
1101
1111
1101
0110
1000
0110
1101
1111
1101
0110
0100
1001
1110
1111
1110
0110
1000
0110
1011
1111
1110
0110
0010
1010
1110
1111
0111
0110
1000
1100
1110
1111
0111
0011
0010
1010
1110
1111
0111
0101
0010
1010
1101
1111
1101
0011
0010
0110
1011
1111
1110
1010
1000
0110
1110
1111
1110
1010
1000
0101
1011
1111
1101
0110
0100
0101
1110
1111
0111
1010
0010
0101
1011
1111
1101
1001
0010
1100
1011
1111
1011
0011
1000
1010
1101
1111
1110
1100
0010
0101
1101
1111
1110
0011
0001
1100
1110
1111
1101
1010
1000
0101
1110
1111
1110
0101
1000
1010
1110
1111
1110
0110
1000
1010
0111
1111
1101
1010
1000
1100
1101
1111
1011
1100
0010
1010
1101
1111
0111
0011
1000
1010
1110
1111
0111
0110
1000
0110
1110
1111
1110
1100
1000
1010
1110
1111
1011
1100
0100
1100
1011
1111
1011
0101
0100
0011
1110
1111
0111
1001
0001
0110
1110
1111
1110
0011
0010
1100
1101
1111
1011
0011
0100
1010
1011
1111
1110
0110
,  // measure 242
1000
1100
1110
1111
1011
1100
0010
1010
1011
1111
1110
0011
0100
1010
1011
1111
1011
1001
0010
0110
1110
1111
0111
1100
0001
1100
1011
1111
1101
0101
0100
1100
1011
1111
1011
0110
1000
0101
1101
1111
1101
0110
0100
1100
1110
1111
1011
0101
0100
1010
1110
1111
1101
1100
0010
0011
0111
1111
0111
1010
0010
1010
1110
1111
0111
1100
0100
0101
1011
1111
1101
0011
0001
1001
1110
1111
1110
0011
0001
1010
1011
1111
1110
1100
0100
0011
1011
1111
1101
0101
1000
0011
1110
1111
0111
0011
0100
0101
1011
1111
1011
1100
0010
1010
1110
1111
1101
0110
1000
1001
1110
1111
0111
0011
0100
1001
1011
1111
1110
1001
0001
0110
1110
1111
1101
1010
0100
1010
1110
1111
1011
0110
0010
1001
1110
1111
0111
1010
1000
1010
1110
1111
1011
1001
1000
1100
0111
1111
1101
0110
0100
1100
1011
1111
0111
1010
0001
1010
1110
1111
0111
0110
1000
0110
1110
1111
1101
1010
0010
0101
1101
1111
1110
1100
0100
1010
1110
1111
1110
1100
0100
1010
1101
1111
1101
1010
0010
1100
1110
1111
1101
0110
,  // measure 243
1000
1001
1101
1111
1110
1001
1000
1100
1110
1111
0111
0011
0001
1001
1011
1111
1101
1010
0100
1010
1101
1111
1011
0101
0100
1010
1110
1111
1011
0110
0010
1001
1101
1111
1101
0101
1000
1100
1011
1111
1011
0110
0010
1100
1110
1111
1110
0101
1000
0101
1101
1111
1110
1010
0100
1100
1110
1111
1011
1100
0010
1100
0111
1111
1110
0011
0100
1100
1101
1111
1011
0011
1000
1010
1011
1111
0111
1010
0100
1001
0111
1111
1101
0011
1000
0110
1101
1111
1101
0110
0100
1100
0111
1111
0111
1010
0001
0110
1101
1111
1110
1100
1000
1100
1110
1111
1011
1001
0100
1100
1101
1111
1110
1100
0001
1100
1110
1111
1011
0101
1000
1100
1110
1111
1110
1001
0100
1010
1110
1111
1101
1010
1000
0110
1011
1111
0111
1010
1000
0101
1110
1111
1011
0011
0001
0110
1011
1111
1011
0101
1000
0011
0111
1111
0111
1100
1000
0110
1011
1111
1011
0011
0100
0110
1110
1111
1110
0110
0100
1100
1110
1111
1110
1100
1000
0101
1011
1111
1101
1010
1000
0101
1110
1111
1011
0110
0100
0110
1110
1111
1011
1100
,  // measure 244
1000
0110
1011
1111
1011
1010
0100
0101
1011
1111
1110
1100
0001
1100
1110
1111
1101
1010
1000
1010
0111
1111
1110
1010
0010
1010
1101
1111
0111
0110
1000
0101
1110
1111
0111
0110
1000
1100
1011
1111
1101
1010
0001
1100
1110
1111
0111
1001
0100
1100
1110
1111
1110
0101
1000
1010
1110
1111
1110
1001
0010
1010
1110
1111
0111
1010
0010
0110
1101
1111
0111
1100
1000
1001
1101
1111
1101
0110
1000
0011
0111
1111
1110
0011
1000
1010
1110
1111
1110
1001
1000
1100
1101
1111
1110
1100
1000
1100
1110
1111
1011
0011
0100
1100
1101
1111
1110
0011
0001
1100
1101
1111
0111
0101
0100
1010
0111
1111
0111
0101
0010
1010
1101
1111
1110
1100
1000
1100
1011
1111
0111
1100
1000
0011
1101
1111
1011
0110
0001
0101
1110
1111
1011
1001
1000
0101
1110
1111
1101
1001
0010
1100
1011
1111
1110
1001
1000
1100
1011
1111
1101
1001
0010
0101
1110
1111
1110
1001
1000
1100
1110
1111
0111
0011
0100
1010
1110
1111
1110
0011
1000
0101
1110
1111
1011
1001
1000
0110
1110
1111
1110
0011
,  // measure 245
1000
1010
1110
1111
1110
1001
0001
1010
0111
1111
0111
0110
1000
1010
1011
1111
0111
1100
0100
1100
1110
1111
0111
0101
1000
0101
0111
1111
1101
1010
1000
0011
1110
1111
1011
1001
1000
1010
1110
1111
1101
0101
0100
1010
1110
1111
1110
1100
1000
1010
1101
1111
1011
1100
0010
0101
1101
1111
1101
1100
1000
1010
1110
1111
0111
1001
1000
0011
1011
1111
1011
1100
0010
1100
1110
1111
1101
1010
1000
0011
0111
1111
1110
0110
0100
0110
1110
1111
1110
1010
0100
1100
0111
1111
0111
1100
0001
1100
1011
1111
1011
1010
1000
1100
1101
1111
1011
0101
1000
1100
1101
1111
0111
0110
0010
1100
1110
1111
1011
0110
0100
1010
1110
1111
1110
0011
1000
1010
1110
1111
0111
1100
0100
1100
0111
1111
1101
1100
1000
1001
1101
1111
0111
0110
0100
1010
1011
1111
0111
1010
0010
0101
1110
1111
0111
0110
0010
1001
1011
1111
1011
1010
0001
1010
1110
1111
1110
0101
1000
0011
1011
1111
0111
1100
1000
1001
1101
1111
0111
1010
1000
1100
1110
1111
1110
0011
1000
1010
1011
1111
1110
0110
,  // measure 246
1000
1100
1101
1111
1101
1001
1000
1100
1011
1111
1101
1010
0100
0110
0111
1111
0111
0101
0100
1010
1110
1111
1101
0110
1000
1100
1011
1111
1110
1010
0010
0110
1011
1111
1011
1010
1000
1001
1110
1111
0111
1010
0100
1001
1011
1111
1110
1100
0100
1100
1101
1111
0111
1100
0010
1010
1110
1111
1110
0011
0010
1100
1101
1111
1101
0110
1000
1010
1110
1111
1101
1001
0100
1010
1101
1111
1011
0011
0100
1001
0111
1111
1101
0110
0001
1010
1101
1111
1110
0011
0100
0101
0111
1111
1011
0110
1000
0101
1110
1111
1011
1010
0100
0101
1011
1111
1011
0101
1000
0110
0111
1111
1011
1001
1000
1010
1110
1111
0111
0011
0001
1010
1011
1111
0111
0101
0100
1100
0111
1111
0111
1001
0001
1100
1101
1111
1110
1100
0010
1100
1110
1111
1110
1010
1000
1010
1110
1111
1110
1010
0100
0011
1011
1111
0111
1001
1000
1100
1110
1111
0111
0110
1000
0110
1011
1111
1110
1100
1000
1010
1110
1111
1101
1100
0010
1100
1110
1111
1011
0101
1000
1100
1011
1111
1110
0110
0010
1100
1110
1111
1011
1010
,  // measure 247
0100
1100
1110
1111
1110
1001
1000
0110
1101
1111
1101
1010
0010
0110
1110
1111
1011
0101
0100
0110
1110
1111
1101
0110
1000
1010
1011
1111
0111
0110
1000
0101
1110
1111
1101
0110
0010
0011
1110
1111
1101
1100
0100
1001
1101
1111
1101
1010
0100
1010
1110
1111
1101
0011
0010
1010
1110
1111
1101
1100
0010
1100
0111
1111
1101
0110
0100
1100
1110
1111
1101
1001
0010
1001
1110
1111
1110
1010
1000
1100
1011
1111
1110
1001
0001
1001
0111
1111
1011
1001
0010
1100
1101
1111
1011
0110
1000
0110
1011
1111
1110
1001
0100
1100
1110
1111
1101
0101
0001
1010
1110
1111
1110
1100
1000
0110
1101
1111
0111
0011
0001
0110
1101
1111
1011
0011
1000
1100
1011
1111
0111
0110
0100
1001
1011
1111
1110
1100
0100
0011
1011
1111
0111
1001
0001
0101
0111
1111
1110
1100
0010
0110
0111
1111
1011
0110
1000
1001
1110
1111
1110
1100
0100
1010
1101
1111
1011
1001
0100
1010
1110
1111
1011
1010
0010
1100
1110
1111
1011
1010
0010
1100
1110
1111
0111
0110
0100
1100
1011
1111
0111
1100
,  // measure 248
1000
1100
1110
1111
1110
1010
0010
1100
1101
1111
1101
1010
0100
1010
1110
1111
1110
1100
0100
1100
0111
1111
0111
0110
1000
0011
0111
1111
1110
0011
0010
1001
1101
1111
1110
1001
0100
0110
1011
1111
0111
0011
0100
1100
1101
1111
1011
1100
0100
0101
1110
1111
1110
1001
1000
1010
0111
1111
1110
1010
0010
1010
1110
1111
0111
1100
0100
1010
1110
1111
1110
1001
0001
0011
1110
1111
0111
1010
1000
0101
1110
1111
1011
1001
0010
1100
0111
1111
0111
1001
0010
1100
1110
1111
1011
0101
1000
1010
0111
1111
1101
0011
0001
1100
0111
1111
1011
0011
0100
0110
1101
1111
1110
1010
1000
1001
1110
1111
1110
1010
0001
1010
1110
1111
1110
0011
1000
1100
1011
1111
1110
1010
1000
1010
1101
1111
1011
0101
0001
1001
1101
1111
0111
1010
1000
0011
1110
1111
1110
0011
0001
0011
1011
1111
1110
1100
0010
1100
1110
1111
1011
1010
0010
1100
0111
1111
1101
0011
1000
1100
1110
1111
0111
1100
1000
1010
0111
1111
1110
1100
0100
1100
0111
1111
1101
0101
0001
1010
1110
1111
1110
0011
,  // measure 249
1000
1010
0111
1111
0111
1001
1000
0011
1110
1111
0111
1001
0010
1100
1101
1111
1101
1001
0100
1010
1101
1111
1011
1001
0100
0110
0111
1111
1110
0101
0010
1010
1101
1111
1110
1100
0010
1001
1011
1111
1011
0101
0100
0101
1110
1111
1110
1010
0100
1001
1110
1111
0111
1001
0001
1010
1110
1111
1011
1001
0100
1100
1011
1111
0111
1100
1000
0110
1011
1111
1011
0011
0001
0011
1101
1111
1110
1010
0010
1100
1011
1111
1101
1100
1000
1100
1011
1111
1110
1010
0010
1100
0111
1111
0111
0110
0100
1010
1011
1111
1011
0110
0010
0110
1101
1111
1101
0110
0010
1100
1110
1111
1110
1001
1000
1010
1101
1111
0111
0101
0010
0101
1101
1111
1101
1100
0001
1001
1101
1111
1101
0110
0010
1100
0111
1111
1110
1100
0100
1100
1011
1111
1110
0011
0100
1010
0111
1111
1101
1100
0001
1100
1011
1111
1110
0110
1000
1100
1110
1111
1101
1010
0100
0110
0111
1111
1011
1100
1000
1100
1011
1111
0111
1001
0100
1001
0111
1111
0111
1010
1000
1001
1011
1111
1101
1010
0100
1010
1110
1111
1110
1100
,  // measure 250
0100
1100
1011
1111
1110
1010
0001
0110
1011
1111
1110
0011
0001
1100
0111
1111
1110
1010
0100
0110
1110
1111
1011
0110
0001
1100
0111
1111
1101
0011
1000
1010
1011
1111
1101
1010
0100
1010
1110
1111
0111
1010
1000
0110
1101
1111
1110
0110
0001
0101
1110
1111
1101
1001
0010
1001
1110
1111
0111
1010
1000
1100
1101
1111
1011
1010
0010
0110
1101
1111
1101
1010
0010
1100
0111
1111
1011
1100
0100
1100
1011
1111
1110
1001
0001
0011
1101
1111
1110
0110
0100
1100
1101
1111
1110
0011
1000
1001
1011
1111
0111
1100
1000
1100
1101
1111
1110
1010
1000
1001
1101
1111
0111
1100
1000
1100
1110
1111
0111
1010
1000
0011
1110
1111
1110
0011
0100
1010
1101
1111
1011
1010
0001
1100
0111
1111
1011
1001
1000
1100
1011
1111
0111
0011
1000
0110
1110
1111
1110
0101
0010
1001
1110
1111
1110
1001
1000
0101
1110
1111
1110
1010
1000
0110
1011
1111
0111
1100
0100
1010
1011
1111
0111
0011
1000
0011
1101
1111
1110
0110
0100
0011
1011
1111
1011
0101
0010
1100
1110
1111
1011
0110
,  // measure 251
1000
0101
1110
1111
0111
0110
0010
1100
1110
1111
0111
0110
1000
0101
1101
1111
1011
0110
0001
0110
1110
1111
1011
0101
1000
1100
1110
1111
1110
1010
0010
0110
1101
1111
1011
0101
0010
1010
1110
1111
1101
0101
1000
0011
1110
1111
1011
1100
1000
1100
1011
1111
1110
0011
1000
1010
1110
1111
1101
0101
1000
0101
1110
1111
1011
1010
0100
1100
1101
1111
0111
0110
1000
1100
1101
1111
1110
1010
0010
1001
1110
1111
0111
1100
1000
0110
1110
1111
1110
0110
1000
1100
1101
1111
1101
1100
0100
0011
1110
1111
1011
1010
0100
0101
1110
1111
1110
1010
0010
1100
1101
1111
1110
0110
0001
0110
1110
1111
1101
1001
1000
0101
1110
1111
1011
1010
1000
1010
1011
1111
1101
0011
0010
1100
1110
1111
1110
0101
0100
0101
1101
1111
0111
1010
1000
0110
1110
1111
1110
1010
0100
0011
1110
1111
0111
1010
1000
0101
1101
1111
1101
1001
1000
0110
0111
1111
1101
0011
1000
0110
1011
1111
1101
1100
1000
0101
1011
1111
0111
1001
1000
0101
1101
1111
1011
0011
0010
1100
1011
1111
0111
1010
,  // measure 252
0010
1001
0111
1111
1101
1010
1000
0110
1110
1111
0111
0101
0001
1100
1110
1111
1101
1010
1000
1001
1110
1111
0111
0011
0001
1001
1011
1111
0111
0011
1000
1010
1101
1111
1101
1100
1000
0110
1110
1111
0111
1100
1000
1001
1110
1111
0111
1001
0100
0110
1110
1111
1110
1010
0100
1100
1011
1111
0111
0101
0100
0101
1110
1111
0111
1100
0100
1010
1110
1111
1110
0011
0100
0101
1011
1111
0111
0101
0010
1001
1110
1111
1011
1001
1000
1010
1110
1111
1101
0110
1000
1010
1011
1111
1110
0011
0100
1010
1101
1111
1101
1010
0010
1001
1110
1111
1101
0110
0100
1010
1011
1111
0111
0011
1000
1001
0111
1111
0111
0101
0001
1010
1110
1111
1101
0110
0001
0011
1101
1111
0111
0101
0010
0110
1011
1111
0111
1010
0100
1001
0111
1111
1110
1010
0100
1010
1110
1111
0111
0110
0100
0011
1011
1111
1101
1100
1000
1100
1110
1111
1110
1010
0010
1010
1101
1111
1110
1010
1000
1010
1101
1111
1101
1001
0010
1010
1110
1111
1101
1010
0010
1001
1110
1111
1011
1100
0100
1010
1101
1111
1110
0110
,  // measure 253
1000
1001
1011
1111
1101
0011
1000
1010
1110
1111
1110
0011
0001
1001
1011
1111
1110
0011
0010
1100
1110
1111
1110
1100
0010
1100
1101
1111
1101
1010
1000
1100
1101
1111
1110
1010
0010
0110
1011
1111
1011
1100
0001
0110
1011
1111
0111
0101
1000
1010
1110
1111
1110
1001
0100
1010
1110
1111
1101
0101
1000
0101
1110
1111
1011
1010
0100
1100
1101
1111
1110
1001
1000
0101
1011
1111
1011
1010
1000
1100
1110
1111
1101
0110
0100
1001
0111
1111
0111
1001
0100
1010
1101
1111
1110
0101
0001
1010
0111
1111
0111
1001
1000
1001
1110
1111
1110
0101
0100
0110
1011
1111
1101
1001
0100
1001
0111
1111
1011
1100
0100
1100
1101
1111
1101
1001
0010
0110
1110
1111
1101
1100
1000
1100
1101
1111
1110
1100
0001
1001
1110
1111
1110
1001
0100
0110
1110
1111
1011
1001
0010
1100
1110
1111
1101
0101
0010
1001
1101
1111
1110
1010
1000
1010
1110
1111
1110
0101
0100
0101
1110
1111
1110
0110
0100
1010
1011
1111
1011
0011
0100
1100
0111
1111
1101
0110
1000
0011
1101
1111
1110
1001
,  // measure 254
0001
0011
1011
1111
1110
0101
1000
1100
1101
1111
1110
1010
0100
1010
1110
1111
0111
1100
0100
1010
1011
1111
1110
1100
0100
1010
1011
1111
0111
0110
0100
0101
1110
1111
0111
0101
0100
1001
1101
1111
1011
0011
0010
1001
1011
1111
1011
1100
0010
1010
1110
1111
1101
0101
0100
1100
0111
1111
0111
1100
1000
1010
1011
1111
1011
0011
1000
1100
1110
1111
0111
0110
0010
0101
1011
1111
1110
1010
0010
1010
1101
1111
0111
1010
0010
1100
1110
1111
1011
0011
0001
1001
1011
1111
1101
0110
1000
1010
1011
1111
1011
1100
0010
1001
1110
1111
0111
0110
0100
1010
1011
1111
1101
1010
1000
0110
0111
1111
1110
0110
1000
1001
1110
1111
1101
1100
0001
0011
1011
1111
1011
1010
1000
0110
0111
1111
0111
1001
0100
1010
1110
1111
1011
1001
0001
1100
1101
1111
1011
0110
0010
1010
1110
1111
1110
1100
1000
1100
1110
1111
1101
1001
0100
1010
1110
1111
1110
1010
1000
0101
1110
1111
1011
1100
1000
1100
1101
1111
1110
0011
0100
0011
1101
1111
1101
0110
0010
0110
1101
1111
0111
1100
,  // measure 255
0001
1010
1011
1111
1110
1001
0100
1010
1011
1111
1110
1010
0010
0011
1110
1111
1110
1010
0100
0101
1110
1111
1110
1100
0010
1010
1110
1111
0111
1001
0100
1010
1011
1111
1110
0011
1000
0110
1011
1111
0111
1100
0010
0011
1110
1111
1011
1010
1000
1100
1011
1111
1110
0101
0010
1100
1110
1111
1110
1010
1000
1100
0111
1111
1110
1001
0010
1010
1011
1111
1011
0110
1000
0110
1011
1111
1011
0101
1000
1001
1110
1111
1110
0101
0010
1010
1011
1111
1110
1010
0001
0110
1110
1111
1011
1010
0010
1001
1110
1111
1101
0110
1000
1010
1011
1111
0111
1010
0100
1010
1110
1111
1101
0110
1000
1100
1110
1111
1011
0011
0010
0101
1101
1111
1110
1100
0100
0110
1110
1111
1101
0011
0010
1100
1011
1111
1011
1100
1000
1001
1110
1111
1101
0011
1000
1100
0111
1111
0111
1001
1000
0101
1101
1111
0111
0110
0010
0110
1110
1111
1110
0110
0100
1001
1110
1111
1101
0110
0010
1100
1101
1111
1110
0011
0010
1010
1101
1111
1011
0110
0010
1100
0111
1111
1101
0110
0010
0101
0111
1111
1011
0110
,  // measure 256
0010
0101
1011
1111
0111
1100
1000
1100
1011
1111
1110
1010
0100
1001
1110
1111
1101
0110
1000
0110
1101
1111
1101
1010
0010
1001
1101
1111
1101
1010
0010
0110
1110
1111
1011
0101
0010
1001
1101
1111
1011
0110
1000
1010
1110
1111
1110
0101
1000
1100
1011
1111
1101
1100
1000
0101
1110
1111
1101
1010
0100
1100
1110
1111
1011
0110
0001
1100
1110
1111
0111
0011
0010
1100
1110
1111
1101
1100
1000
1100
0111
1111
0111
0011
0001
1001
1101
1111
1011
1100
1000
0101
1101
1111
0111
0110
0100
1100
0111
1111
1110
1010
1000
0110
0111
1111
0111
1010
0010
0011
1011
1111
0111
0110
0001
1010
1110
1111
1110
0110
0100
0110
1101
1111
1110
1001
1000
1001
1110
1111
0111
0101
0100
1100
1110
1111
0111
1001
1000
0110
1110
1111
1101
1100
1000
1010
1110
1111
0111
1010
0100
1100
1110
1111
0111
1010
0100
0110
0111
1111
1101
1100
1000
1100
1110
1111
1101
1001
0010
0110
1110
1111
1110
1001
1000
1100
1110
1111
1011
0110
1000
1100
1110
1111
1110
1010
1000
1100
1101
1111
0111
0110
,  // measure 257
0100
0110
1110
1111
1110
1010
1000
1010
1110
1111
1110
1100
0100
1010
1110
1111
1101
0101
0001
1010
1110
1111
0111
0101
0010
1100
1110
1111
0111
1001
1000
0101
0111
1111
0111
1010
0100
0011
1110
1111
1101
1001
0010
0011
1110
1111
1101
0110
0100
1010
1101
1111
1110
0110
1000
0011
1011
1111
1011
1001
0100
0110
1011
1111
1011
0101
0001
1010
1011
1111
0111
0101
1000
1100
1101
1111
1110
0011
1000
0011
1110
1111
1110
0110
0100
1100
1110
1111
0111
1010
0010
1010
1101
1111
1101
1100
0010
1100
0111
1111
0111
1001
1000
1100
1110
1111
1110
1010
0001
1010
1110
1111
0111
0101
0001
1010
1011
1111
1011
1001
0010
0101
1101
1111
1110
0101
0010
0101
1110
1111
0111
1100
0100
0011
0111
1111
1011
0011
1000
1010
1110
1111
1110
1001
1000
1100
1011
1111
1011
1010
0010
0101
1110
1111
1101
0110
0010
1010
1011
1111
0111
0101
0100
1010
1011
1111
1011
1001
0100
1100
1101
1111
1110
0110
0100
0110
1110
1111
1101
1001
1000
1100
1011
1111
1110
1010
0010
1100
1110
1111
1101
1010
,  // measure 258
0001
0101
1110
1111
1110
0110
0100
0101
1110
1111
0111
0110
0100
1001
1011
1111
1101
1100
1000
0101
0111
1111
1101
1100
1000
1100
1011
1111
1101
1001
1000
1100
0111
1111
1101
1100
1000
1100
0111
1111
1011
1001
1000
1001
1110
1111
1101
1100
0100
1010
0111
1111
1011
0110
0100
1010
1011
1111
1101
0101
1000
1100
1110
1111
1101
0101
0100
1100
1101
1111
0111
1100
0001
1010
1101
1111
0111
1001
0100
1001
1101
1111
1110
1100
0010
1010
1110
1111
1011
1001
0100
0110
1110
1111
0111
1001
1000
1010
0111
1111
0111
1010
0100
0110
1110
1111
1110
1010
0010
1100
1011
1111
0111
1100
0010
1001
1110
1111
1011
1001
0010
1100
0111
1111
1110
1010
0001
1010
1110
1111
1110
0110
0100
1100
1110
1111
1101
1001
1000
1100
1101
1111
1110
1010
1000
0110
1011
1111
1110
1010
0100
1010
1101
1111
0111
1010
0010
0101
1011
1111
1101
1001
0100
1010
1101
1111
1110
1100
0010
1100
0111
1111
1110
0110
0100
1010
1110
1111
1110
0110
0100
1100
1101
1111
1011
1100
0010
1001
1110
1111
0111
1010
,  // measure 259
1000
0101
1101
1111
0111
1010
0100
1100
1101
1111
1011
1010
0010
1010
1101
1111
1011
0101
0010
0101
1110
1111
0111
0011
0100
1010
0111
1111
1101
1010
0001
0110
1110
1111
1011
1010
0010
1010
0111
1111
1011
1010
0100
0101
1011
1111
0111
1001
1000
1010
1110
1111
1110
1010
0100
1001
1110
1111
1011
0011
1000
1001
1110
1111
0111
0011
1000
1100
1101
1111
1110
1100
0100
1010
1101
1111
0111
0011
0010
1100
1101
1111
1110
1100
0100
1100
0111
1111
1011
1010
0010
0101
1110
1111
1110
1100
0100
1001
1011
1111
1011
1001
1000
1100
1110
1111
1011
1100
1000
1010
1110
1111
1101
1001
0001
0110
1101
1111
1011
1001
0100
0011
1011
1111
1110
1100
1000
0110
1101
1111
1101
1001
0010
1010
1110
1111
1101
1001
0001
1010
1011
1111
1110
1100
0010
0110
1101
1111
1110
1010
1000
1010
1110
1111
1101
1010
1000
1100
1101
1111
1101
0011
0010
1100
1110
1111
1101
1001
0100
1001
1101
1111
1110
0110
1000
0101
1011
1111
1110
0101
0100
0110
1110
1111
1110
0011
0100
1010
1110
1111
1011
0011
,  // measure 260
0100
1010
1110
1111
1110
0101
1000
1001
1110
1111
1011
1010
1000
1100
0111
1111
0111
1010
0010
1010
1110
1111
1110
1001
0100
1100
1011
1111
0111
1100
0001
1100
1011
1111
1110
1001
0100
1001
0111
1111
1110
1010
0010
1001
1110
1111
1011
1010
0100
1010
1101
1111
0111
0011
1000
0110
1101
1111
1011
0011
0010
0110
1011
1111
1101
1001
1000
1100
0111
1111
1011
1100
0100
1100
1011
1111
1101
1100
1000
1100
1110
1111
1011
1100
0100
1010
1110
1111
0111
1100
0010
1010
1101
1111
1110
1100
0010
1010
1101
1111
1011
1100
0100
1100
1110
1111
0111
1010
0100
1001
1101
1111
1011
0110
0100
1100
0111
1111
1011
0101
1000
1001
1110
1111
1110
1010
0001
1010
1011
1111
0111
0101
0010
1100
1101
1111
1110
1010
1000
0101
0111
1111
1110
1001
0001
1010
0111
1111
0111
1100
0010
1100
1110
1111
1011
1001
1000
0110
1101
1111
0111
1010
0100
1001
1011
1111
1110
0011
0100
1100
0111
1111
1101
0011
1000
0110
1110
1111
0111
1001
0010
1100
0111
1111
1110
1100
0100
0101
1011
1111
1110
0101
,  // measure 261
1000
1100
1011
1111
0111
0110
1000
1010
1110
1111
1101
1100
0100
1010
1101
1111
0111
1100
0001
0110
1110
1111
1011
1010
1000
1001
1011
1111
1101
1010
1000
0011
1011
1111
0111
1010
0010
0101
1101
1111
1011
1001
1000
0110
1101
1111
1011
1100
1000
0011
1110
1111
1101
1010
0010
1001
0111
1111
0111
0101
0010
0101
0111
1111
0111
0011
0010
1001
1011
1111
1110
1100
0100
0110
1110
1111
1110
1010
1000
1010
1011
1111
1101
0110
1000
1010
1110
1111
1011
1001
0100
1001
1110
1111
1011
0101
1000
1100
1110
1111
1101
1100
0001
1100
1101
1111
1110
1100
1000
0110
1011
1111
0111
0110
1000
0110
1011
1111
0111
0011
1000
1010
1101
1111
1110
1010
0001
1100
1101
1111
0111
0101
0010
1010
1011
1111
1101
0101
0100
1010
1110
1111
1101
1100
1000
1010
1011
1111
1101
0110
0010
0101
1110
1111
1101
1001
1000
1010
1110
1111
1110
0101
0100
1010
1101
1111
1101
0011
1000
0101
1110
1111
0111
1010
1000
1010
0111
1111
1110
0110
0100
1001
1011
1111
1011
0101
0100
0110
1110
1111
1110
0110
,  // measure 262
0100
1100
1011
1111
1101
0110
1000
1001
0111
1111
0111
0011
0100
0011
0111
1111
1110
0011
1000
0101
1101
1111
1110
1100
1000
0011
1110
1111
0111
0011
1000
1001
1110
1111
1110
0110
0100
0011
0111
1111
1101
1010
0100
0011
1011
1111
1101
1001
1000
0110
1101
1111
1011
1100
1000
1010
1110
1111
1110
0011
0100
1100
0111
1111
1011
0101
1000
1100
1110
1111
1110
1001
1000
0101
1101
1111
1110
0110
1000
1100
1011
1111
1101
1100
1000
1010
0111
1111
0111
0110
1000
1010
0111
1111
1011
1001
0100
1010
1101
1111
0111
0101
0010
1010
1011
1111
1110
1010
1000
1010
1110
1111
1101
1010
0001
1100
1101
1111
0111
0110
1000
1010
1011
1111
1011
0101
0010
0101
1011
1111
0111
1010
1000
0110
0111
1111
1011
0101
0010
1100
1011
1111
1011
0101
0100
1100
1110
1111
1101
0101
1000
1100
1110
1111
1110
1001
1000
1010
1101
1111
1101
0110
0100
1010
1110
1111
0111
1010
0100
1001
1101
1111
0111
0101
0100
1001
0111
1111
1110
1100
0010
1010
1011
1111
1110
1010
0001
0101
1011
1111
1110
1100
,  // measure 263
1000
0011
1110
1111
0111
1001
0010
0110
0111
1111
1110
1001
1000
1100
1101
1111
1110
1100
0010
1001
1101
1111
0111
1010
1000
1001
1011
1111
1011
0101
0100
0110
1110
1111
1110
1100
0010
1100
1011
1111
1011
1010
0010
1001
1110
1111
1110
1001
0100
0101
1110
1111
0111
1001
0100
0101
1110
1111
1011
0110
0010
1010
1110
1111
1110
1100
1000
1100
1110
1111
1011
1100
0010
0110
1110
1111
0111
1100
1000
1010
1011
1111
1110
1010
0010
0110
1101
1111
0111
1100
0001
0110
1101
1111
1101
1100
1000
1010
1011
1111
1110
0101
0100
0101
1110
1111
0111
1010
0100
1100
1110
1111
1101
1010
0100
1001
1011
1111
0111
1100
0100
1100
1101
1111
0111
0110
0010
0101
1011
1111
1110
1001
1000
1100
1110
1111
0111
0101
1000
1100
1101
1111
0111
0110
0001
1100
1011
1111
0111
1100
0001
0101
1101
1111
1101
1010
1000
1001
1011
1111
1110
1001
0010
0101
1110
1111
0111
1010
0100
1100
1110
1111
1101
1100
1000
1010
1110
1111
1101
1010
1000
1100
1011
1111
0111
0110
0010
1100
1011
1111
0111
1001
,  // measure 264
1000
0110
1110
1111
1011
1010
1000
1010
1110
1111
1110
0110
1000
0110
1011
1111
1101
0011
0100
1100
0111
1111
1011
1001
0100
1010
1101
1111
1110
0101
0100
1100
1101
1111
1011
0011
1000
0110
1110
1111
0111
1100
1000
1001
1110
1111
1101
0110
0100
0011
1110
1111
1110
0011
0001
0101
1110
1111
1011
1001
1000
1001
1110
1111
1101
1001
1000
1100
0111
1111
1011
1010
1000
1010
1011
1111
1101
1001
0100
1100
1101
1111
0111
0101
0001
1001
1011
1111
0111
0110
1000
1100
1101
1111
1011
1001
0001
1010
1101
1111
1110
1100
1000
0011
1101
1111
1101
1010
0100
1001
0111
1111
0111
1010
0001
1010
1011
1111
1110
1100
0100
1001
1110
1111
1011
0110
1000
0101
1101
1111
0111
1010
0100
0101
1110
1111
1011
1100
1000
1100
1110
1111
1110
0011
0010
1010
1110
1111
0111
1100
0010
1001
1011
1111
1011
1100
0010
1001
0111
1111
1101
0110
1000
0011
0111
1111
1110
1100
1000
0101
0111
1111
1101
1100
1000
0011
1110
1111
1110
1010
1000
0101
0111
1111
1110
0110
1000
1100
0111
1111
1101
1100
,  // measure 265
0100
1010
1101
1111
1110
1010
0100
1010
1110
1111
1110
0110
0010
1100
1011
1111
1101
1010
1000
1100
1110
1111
1101
0110
1000
0011
1011
1111
0111
1001
1000
1010
1110
1111
0111
1010
1000
1010
1110
1111
1011
0110
1000
1010
1011
1111
1110
1100
0001
0101
1011
1111
1110
1010
1000
1100
1011
1111
1101
1100
1000
1100
1101
1111
1011
1100
0010
0110
1110
1111
0111
1100
0010
0110
1110
1111
1101
0011
0100
1100
1110
1111
1011
0101
1000
0101
1110
1111
1011
0011
1000
0101
1011
1111
1101
1010
1000
1100
1110
1111
1101
1010
0010
1100
1110
1111
0111
1001
1000
1100
1101
1111
0111
1010
0100
0011
1101
1111
1011
1001
0100
1010
1110
1111
1101
1010
1000
0110
1110
1111
1110
0101
1000
0011
1011
1111
1110
1010
1000
1010
0111
1111
1101
1100
0001
1010
0111
1111
1101
0110
0100
1100
1101
1111
1110
1001
1000
1001
0111
1111
1011
1001
0010
1010
1011
1111
1101
1010
1000
1010
1011
1111
1101
1010
0010
1010
1101
1111
0111
1001
0100
1010
1110
1111
1011
1100
1000
1001
1011
1111
1110
0101
,  // measure 266
0010
1010
1011
1111
1011
1010
0010
1001
1110
1111
1110
0011
1000
1100
1110
1111
1011
1001
0001
1100
1011
1111
0111
1001
0010
0110
1110
1111
0111
1001
0010
1010
0111
1111
1011
1001
0100
1010
1101
1111
1110
0101
1000
1100
1101
1111
0111
1100
0010
1001
1011
1111
1011
1100
0010
0101
1011
1111
0111
0011
1000
0110
0111
1111
1011
0011
0100
0101
1110
1111
1101
1100
0100
0101
1101
1111
1101
1010
1000
1001
0111
1111
1011
1010
0100
1001
1110
1111
1110
1001
0001
0101
0111
1111
1011
0101
0010
1100
1110
1111
1101
1100
0100
1100
1110
1111
0111
1100
0100
1010
1110
1111
0111
0110
1000
1001
0111
1111
1110
0110
0100
0110
0111
1111
1011
1100
0100
1100
1011
1111
1110
1010
1000
0101
1011
1111
1110
0011
0010
0101
1101
1111
1110
1100
1000
1001
0111
1111
0111
1010
0100
0110
1101
1111
0111
0110
1000
1001
1110
1111
0111
1010
0001
1100
1101
1111
0111
1100
0100
1100
1110
1111
1110
0110
0010
0110
1110
1111
1011
1100
1000
0101
0111
1111
1011
1010
0010
1100
0111
1111
1110
1010
,  // measure 267
0010
0011
1101
1111
1101
1010
0010
1100
0111
1111
0111
1001
0100
1010
0111
1111
0111
1001
1000
1100
1011
1111
1110
0101
1000
0011
1110
1111
0111
1100
1000
1100
1110
1111
1011
1100
1000
0110
1011
1111
1011
1010
0010
1100
1110
1111
0111
1010
0100
1100
1110
1111
1101
0110
0010
1100
1110
1111
1011
1010
0010
0110
1101
1111
0111
0110
0010
1010
1110
1111
0111
1100
1000
0110
1110
1111
1101
0011
1000
1001
1110
1111
1110
0011
1000
0011
0111
1111
0111
0101
0010
0101
1011
1111
0111
1010
1000
1100
1101
1111
1011
1010
1000
1100
1101
1111
1110
1001
1000
0011
1110
1111
1101
0110
1000
1001
1110
1111
1011
1010
0010
1001
1110
1111
1011
1100
1000
1100
1011
1111
0111
1100
1000
1010
1110
1111
1101
0011
1000
0101
1011
1111
1101
0110
0100
1010
1110
1111
1011
1010
1000
1100
1101
1111
1110
1001
0100
0101
1011
1111
1011
1001
1000
0011
1011
1111
0111
1001
0010
1010
1110
1111
0111
1001
1000
1010
1101
1111
1101
1010
0010
0101
1110
1111
1011
1010
1000
1010
1110
1111
0111
1100
,  // measure 268
1000
0101
0111
1111
1101
0110
1000
1100
1011
1111
1101
1001
1000
0101
0111
1111
1110
0110
0010
1100
1101
1111
0111
1001
0100
1010
1101
1111
0111
0110
0100
1100
1110
1111
0111
1100
0100
1010
0111
1111
0111
1100
0010
1100
1011
1111
0111
1010
0010
1100
1110
1111
0111
1100
1000
1010
1101
1111
1110
0110
1000
1100
1110
1111
1110
1010
0100
0110
1110
1111
1110
1100
1000
1100
1110
1111
0111
1010
0001
1100
1110
1111
1011
1001
0100
1010
0111
1111
1110
0110
1000
1100
1011
1111
1011
1010
0100
1010
1011
1111
1101
1001
0100
1010
0111
1111
1101
0011
0001
1010
1101
1111
1110
0011
1000
0110
1110
1111
0111
1010
0100
1010
1110
1111
1101
1100
1000
0110
1110
1111
1101
1100
1000
1001
1101
1111
1110
1100
0010
1010
0111
1111
1011
0101
0100
0110
1110
1111
0111
1010
1000
1010
1101
1111
1101
1100
0001
1010
1011
1111
1110
0110
1000
1001
0111
1111
1110
1100
0010
1010
1101
1111
0111
1100
1000
1001
1110
1111
0111
1010
0010
1010
1110
1111
0111
1100
1000
1100
1101
1111
0111
0110
,  // measure 269
0010
1001
1011
1111
1101
1001
1000
1100
0111
1111
1101
1010
0010
1100
1011
1111
1110
1100
0010
1010
1101
1111
1101
0110
0010
0011
1101
1111
1110
1010
0100
1100
1110
1111
1110
1100
0100
0011
1110
1111
1110
1100
0010
1001
1011
1111
1110
1100
0100
1100
1011
1111
1110
0011
1000
0011
1110
1111
1110
1010
1000
1100
0111
1111
1110
0110
0100
1010
1110
1111
0111
1001
0100
1010
1101
1111
1110
1100
0001
1010
1110
1111
1101
1001
1000
0110
1011
1111
1011
1010
0100
1100
1101
1111
1011
0011
1000
1001
1110
1111
0111
1100
1000
1010
1110
1111
0111
0110
0010
1100
1011
1111
1110
0110
1000
1001
1110
1111
0111
1010
1000
1100
1101
1111
1110
0110
1000
0101
0111
1111
1110
0011
0100
0110
1011
1111
1110
0011
0100
1100
1110
1111
1110
1100
1000
1100
1011
1111
0111
1001
0100
1001
1110
1111
1011
1001
0100
0011
1011
1111
1110
1001
1000
1100
1110
1111
0111
1010
1000
1100
1110
1111
1101
1010
1000
1100
1110
1111
1110
0110
1000
1100
1101
1111
1011
0110
0001
0011
1101
1111
1011
1100
,  // measure 270
1000
1001
1110
1111
1110
0101
1000
1001
1011
1111
1101
1100
1000
0011
1110
1111
1011
1100
1000
1100
0111
1111
1101
1010
1000
0110
1011
1111
1011
0110
0100
0110
1110
1111
1110
1001
0001
1100
1101
1111
1110
1010
1000
1001
1110
1111
1101
0011
0100
0011
1110
1111
1110
1001
0010
1100
0111
1111
1110
1100
0001
0011
1110
1111
1011
1010
0100
0101
1101
1111
1101
1100
0010
1010
0111
1111
1101
0011
1000
1100
1110
1111
1101
1100
0001
1010
1110
1111
1110
0101
1000
0110
1110
1111
1110
1010
0001
1010
1110
1111
1011
1100
0010
1100
1110
1111
0111
1010
0010
1100
1011
1111
0111
1100
0010
1001
1110
1111
1011
1001
0100
1010
1110
1111
1110
1100
0100
1010
1110
1111
1011
1010
0100
0011
1110
1111
1011
0011
0001
0110
1101
1111
1110
1100
0010
0110
1110
1111
0111
1100
0100
1001
1101
1111
1110
0101
0010
1010
1110
1111
0111
1001
0010
1100
1110
1111
1110
0011
1000
1100
1110
1111
1101
0110
0001
0011
1101
1111
1101
1100
0010
1010
1110
1111
0111
1010
0010
0110
0111
1111
1011
1010
,  // measure 271
0100
1100
1110
1111
1011
1001
0010
1100
1011
1111
1011
0110
0100
1001
1101
1111
1110
0110
0001
0101
1101
1111
0111
1100
0100
0110
0111
1111
1011
0110
1000
0110
1110
1111
1011
0110
0001
1001
0111
1111
0111
1001
0010
1100
1011
1111
0111
1100
0010
1100
1011
1111
1110
1010
0001
1001
1101
1111
1101
0011
0001
0110
1110
1111
1011
0101
1000
1100
1110
1111
1101
1010
0100
1001
0111
1111
1011
1100
0010
0110
1101
1111
0111
0011
1000
0101
1110
1111
1011
0101
0100
1001
1110
1111
1011
0110
1000
0101
1101
1111
1110
1100
0010
1100
1011
1111
1110
0101
1000
1100
0111
1111
0111
0110
1000
0101
1101
1111
0111
1100
0010
1100
1110
1111
0111
0101
0001
1100
1011
1111
1101
0011
0100
0101
1110
1111
1110
0011
0001
1100
0111
1111
0111
0101
1000
1100
1110
1111
1101
1100
0100
0110
1011
1111
1011
0101
1000
1100
0111
1111
1110
1010
0010
1100
1101
1111
1101
0110
1000
1010
1110
1111
1110
0110
0100
1100
1011
1111
1110
1100
0100
1010
1011
1111
0111
1010
1000
1100
1110
1111
1011
1010
,  // measure 272
1000
1100
1101
1111
0111
0011
1000
1010
1110
1111
1101
0101
0001
1100
0111
1111
1101
0110
0001
1010
1011
1111
1101
0101
0100
1100
1011
1111
1101
1010
1000
1100
0111
1111
1110
1001
1000
1001
1110
1111
0111
1100
1000
1100
1101
1111
1110
1100
0010
0101
1101
1111
1101
0011
0010
1010
1110
1111
1110
0101
0100
1010
1110
1111
0111
1010
0100
1100
1110
1111
1110
1001
0010
1100
0111
1111
0111
1100
0010
1100
1101
1111
1110
0110
0001
1010
1110
1111
0111
1010
0100
0101
1011
1111
1101
1010
0010
0011
1011
1111
1110
1001
0100
1001
1110
1111
0111
0110
1000
0011
1011
1111
0111
0011
1000
1001
1101
1111
1101
0110
1000
1001
1011
1111
0111
1100
1000
1100
1110
1111
0111
1010
1000
0110
0111
1111
1110
1100
0001
0011
1101
1111
1011
0110
0100
1001
1101
1111
1011
0110
1000
1100
1110
1111
1011
1010
1000
0011
1110
1111
1101
0110
1000
1010
1101
1111
0111
1010
1000
0011
1011
1111
1011
1001
0001
1001
1011
1111
1011
1010
1000
0011
1110
1111
1101
1001
0100
0011
1110
1111
1101
0011
,  // measure 273
0010
1100
1110
1111
0111
1010
0100
0011
1101
1111
1110
0110
1000
1001
1110
1111
1101
1001
1000
1100
0111
1111
1101
1010
1000
1100
1110
1111
1110
1001
0100
1001
1101
1111
1110
0011
1000
0011
1110
1111
1011
1100
0010
0110
1011
1111
1011
0110
0100
1100
1101
1111
1110
1100
1000
1100
1101
1111
1011
1100
0100
1010
1110
1111
1101
1010
0100
1100
0111
1111
1110
0101
0100
0110
1110
1111
1011
1100
0100
1100
1110
1111
0111
1001
1000
1100
1110
1111
1101
1100
1000
1001
1110
1111
1101
1010
0100
1010
1110
1111
1011
0110
1000
0101
1101
1111
0111
0101
0100
1001
1110
1111
1101
1010
1000
1100
1110
1111
1110
1010
0100
1010
1011
1111
1011
1100
1000
1001
1110
1111
0111
1100
0100
1001
1101
1111
1101
1010
0001
1100
1011
1111
0111
1010
1000
0110
1110
1111
1110
0110
1000
1100
1011
1111
0111
0101
1000
0011
1110
1111
1011
1001
0010
0110
1011
1111
1011
1010
0010
1010
1011
1111
1110
0110
1000
1100
1011
1111
0111
1010
0100
0011
1101
1111
0111
0110
1000
1001
1101
1111
0111
1001
,  // measure 274
0100
1100
1101
1111
0111
1100
1000
1100
1110
1111
1011
0011
0010
1100
0111
1111
1110
1010
1000
1100
1101
1111
0111
1010
1000
1001
1011
1111
1101
0011
0100
1010
1110
1111
1101
0110
0100
0110
1110
1111
1011
0110
0100
1100
1110
1111
0111
1100
0100
1100
0111
1111
1110
1010
0100
1100
1110
1111
1110
1100
0100
0110
1101
1111
1110
0110
0010
0110
1110
1111
1101
1001
1000
0101
1110
1111
0111
1100
1000
1001
1011
1111
0111
1001
1000
0110
1110
1111
1011
1001
0001
0110
0111
1111
1110
1100
0010
1100
0111
1111
1110
1010
1000
1010
1101
1111
0111
1010
0100
1010
1110
1111
1101
0011
0010
0110
1011
1111
1110
1100
0001
0110
1110
1111
1101
1100
0100
1010
1101
1111
1011
1001
0100
1100
1101
1111
1110
1010
0010
1010
1110
1111
1110
0110
0010
1001
0111
1111
1101
1100
1000
1010
0111
1111
1011
0110
1000
1100
0111
1111
0111
0110
1000
1010
0111
1111
1110
1001
0001
1100
1110
1111
0111
1100
0100
0101
1110
1111
1011
1010
0100
1010
1011
1111
1011
0101
0010
1010
1011
1111
0111
1100
,  // measure 275
0010
0011
1101
1111
1011
1010
0100
0101
1110
1111
1101
0011
1000
1010
1101
1111
1101
0011
0100
1010
1101
1111
1110
1010
0100
0110
1110
1111
0111
1010
0001
1010
1101
1111
1101
1100
1000
0110
0111
1111
1011
1100
1000
1001
1101
1111
1011
0011
0100
0110
1110
1111
1011
1010
1000
1001
1101
1111
1101
1001
0010
1010
0111
1111
1110
1100
0010
0110
1011
1111
0111
1100
0010
1001
1110
1111
1110
1100
1000
1001
0111
1111
0111
1001
0100
1001
1011
1111
1101
1100
0001
0101
1110
1111
0111
0101
1000
1010
1110
1111
1110
0110
0100
1100
1011
1111
1011
0110
0100
0110
0111
1111
0111
1001
0100
1010
1011
1111
0111
1100
0010
0011
1110
1111
1110
1100
0010
1001
1011
1111
0111
1100
0100
1100
1101
1111
1110
0110
1000
0110
1110
1111
1110
0110
1000
1100
1011
1111
1101
0011
1000
1010
0111
1111
1011
1100
1000
1010
1110
1111
1110
1010
0100
1010
1110
1111
1101
1010
0001
1100
1110
1111
1011
0110
1000
1001
1101
1111
1110
1001
1000
1100
1011
1111
1110
1010
0100
1100
1110
1111
1101
0101
,  // measure 276
0100
1100
1011
1111
1101
1100
1000
1010
1101
1111
1110
1010
0100
0011
1011
1111
1110
0110
0010
1010
1110
1111
1011
1100
1000
1010
1110
1111
1110
0110
0100
1010
1011
1111
0111
1010
0001
0101
1011
1111
1011
0011
1000
0110
1101
1111
1101
1100
1000
1010
1110
1111
1101
0101
0001
1001
0111
1111
1101
1010
1000
0110
1110
1111
1101
0101
1000
1001
1110
1111
1110
0110
0100
1010
1110
1111
0111
1001
0100
1100
1011
1111
1101
1010
1000
1001
0111
1111
1110
1001
1000
0011
1110
1111
1101
1100
1000
0011
1011
1111
0111
1010
0010
0011
1110
1111
1110
1001
0100
0011
1110
1111
1011
1001
1000
1100
1110
1111
1011
1001
1000
1100
1011
1111
1110
1010
1000
1100
1011
1111
1101
1001
0010
1100
1011
1111
1101
1100
0100
1100
1101
1111
1011
1010
0010
1100
1011
1111
1101
1100
0010
1100
1110
1111
1011
1100
0100
1001
1101
1111
0111
1001
1000
1001
1110
1111
0111
1010
0100
0101
1110
1111
1101
0101
1000
1001
1110
1111
1101
0110
0010
1100
1110
1111
0111
1100
0001
1010
1101
1111
0111
0110
,  // measure 277
1000
1100
1110
1111
1011
1001
1000
1100
1101
1111
1011
0110
1000
1100
0111
1111
0111
0011
0010
0110
1110
1111
1110
1001
0100
1001
1101
1111
1011
1100
1000
1100
1011
1111
1110
1100
0100
0011
1110
1111
1110
1100
0010
0101
1011
1111
1110
1100
0100
0110
1110
1111
1110
0110
1000
1010
1101
1111
1011
1001
1000
1100
1110
1111
1101
0011
0100
1100
1101
1111
0111
1001
0010
1100
1011
1111
0111
0011
0001
0011
1101
1111
0111
1100
1000
0101
0111
1111
1110
0110
0001
0101
1110
1111
1101
0011
1000
0101
1011
1111
0111
0101
1000
0011
1011
1111
1101
1001
0001
1010
1110
1111
0111
1100
0100
0011
0111
1111
0111
0101
1000
1010
1110
1111
1110
0011
1000
0110
1110
1111
1110
0110
1000
1001
1011
1111
1110
1010
1000
1010
1101
1111
0111
0110
0010
0101
1011
1111
0111
1001
1000
0110
1011
1111
0111
0101
1000
0110
1110
1111
1011
1010
0001
1100
1011
1111
0111
0101
1000
0011
0111
1111
1011
0110
0010
1100
0111
1111
0111
1010
0100
1100
1110
1111
0111
0101
0010
1100
1101
1111
0111
1010
,  // measure 278
0100
1010
1110
1111
0111
1010
0010
1001
1101
1111
1101
0011
0001
1010
1011
1111
0111
0011
0100
0101
1110
1111
1011
1100
0100
0110
1110
1111
1011
0101
0010
0110
0111
1111
1011
1010
0100
1001
1101
1111
1101
1100
1000
0011
1011
1111
0111
1001
1000
1010
1110
1111
1110
1001
1000
1100
1011
1111
1011
1100
1000
1100
0111
1111
0111
0101
0010
1100
1011
1111
1110
1010
1000
1100
1110
1111
0111
1010
0001
0110
1101
1111
1101
1100
0010
1010
1101
1111
1101
0101
0010
1100
1110
1111
1101
1001
0010
1001
0111
1111
0111
0110
1000
1100
0111
1111
0111
1010
0100
0110
0111
1111
0111
0011
0100
1010
1101
1111
0111
1100
1000
1010
1101
1111
1110
1001
0100
0101
1011
1111
1110
0101
1000
1100
1011
1111
0111
0011
0100
1100
1110
1111
1110
1010
0010
1100
1110
1111
1110
1010
0001
0110
1101
1111
1110
1001
1000
0011
1101
1111
1110
1010
0010
1001
1011
1111
1101
1100
0100
0101
1101
1111
0111
1001
1000
0011
0111
1111
1011
0110
1000
1010
1011
1111
1011
1100
0010
1100
1110
1111
1110
1010
,  // measure 279
0010
1010
1110
1111
1110
1010
0010
0011
1101
1111
1011
0110
1000
0011
1101
1111
1101
0110
0010
1100
1110
1111
1011
1100
0001
1100
1011
1111
1110
1100
0100
1001
1101
1111
1110
1001
1000
0110
1011
1111
0111
0101
1000
0101
1110
1111
1011
1100
1000
0011
1110
1111
1110
1010
0010
0011
1110
1111
1110
1001
1000
0101
1101
1111
1110
0101
1000
1001
1110
1111
1101
1001
1000
1100
1101
1111
1110
1010
0010
1010
1110
1111
1101
0011
0001
0101
1110
1111
1101
1010
1000
1100
1101
1111
1011
1100
1000
1100
1110
1111
1101
0011
0010
1100
1011
1111
1101
0110
1000
0101
1101
1111
0111
1001
1000
0110
0111
1111
1011
0011
1000
0110
1110
1111
1110
0101
0100
1100
1101
1111
1011
0011
1000
0110
0111
1111
1101
1010
1000
0011
1110
1111
1110
1100
0100
0101
0111
1111
1110
1100
0010
0110
1110
1111
1110
1100
0100
1100
1101
1111
1110
1010
0100
1100
1011
1111
0111
0110
0001
1100
1110
1111
0111
0101
0100
1010
1101
1111
1110
0101
0100
0110
1011
1111
0111
0110
1000
0011
1011
1111
0111
1001
,  // measure 280
1000
1100
1101
1111
1011
1010
0100
0110
1011
1111
1101
1100
0010
0110
1110
1111
1110
0011
0100
1100
1101
1111
1011
1010
0100
1001
1110
1111
1110
1100
0010
0101
0111
1111
0111
1100
0001
1100
1101
1111
1110
1001
0001
0011
0111
1111
1011
0011
1000
1100
1110
1111
1011
0011
1000
1100
1011
1111
1110
1010
0100
1010
1101
1111
1110
1100
0100
1010
1110
1111
0111
1100
0100
0011
1110
1111
1110
1100
1000
1100
1101
1111
1110
1100
1000
1100
1011
1111
1101
1100
1000
0110
1101
1111
1011
0110
0100
0101
1011
1111
0111
1001
1000
1001
1110
1111
1110
0101
1000
1010
1110
1111
1011
1100
0100
1001
1011
1111
0111
0110
1000
0011
0111
1111
1110
0101
1000
0110
1011
1111
1101
1001
0001
1100
0111
1111
1101
1010
1000
0110
1011
1111
0111
1100
0001
1010
1011
1111
1011
1001
1000
1100
1110
1111
1110
1001
1000
1100
1110
1111
0111
0011
1000
1001
1011
1111
1101
1100
0010
1100
1101
1111
1110
0110
1000
1100
1101
1111
1011
1100
0001
0110
1110
1111
0111
1010
0100
1100
1110
1111
1011
1100
,  // measure 281
0100
0011
1101
1111
1101
0011
1000
0110
1101
1111
1110
0011
0010
0101
1110
1111
1110
1100
0010
1001
1110
1111
1101
1001
0001
1100
1110
1111
1011
1100
1000
0011
1110
1111
1101
1001
0010
1010
1011
1111
0111
0101
0001
1100
1110
1111
0111
1010
0100
0101
1011
1111
0111
0011
1000
0110
1101
1111
1110
0110
0100
0110
1011
1111
0111
0110
1000
0110
1101
1111
1110
0110
0001
1010
1110
1111
1011
1100
1000
1100
1110
1111
1101
1100
1000
1010
1011
1111
1101
1100
0100
0110
1110
1111
1101
1100
0100
1010
1011
1111
1101
1010
1000
1100
1101
1111
1011
1001
0010
1010
0111
1111
1110
0110
0010
0110
1110
1111
1110
1100
0010
0110
1110
1111
1011
1010
0100
0110
0111
1111
1101
0110
0010
1010
0111
1111
1011
0011
1000
1001
1011
1111
0111
0011
0010
1001
1101
1111
0111
1100
0100
1100
1110
1111
1110
1010
0001
0110
1011
1111
1110
0110
0001
1010
1011
1111
1110
1010
0100
0110
1101
1111
1110
1100
0010
0011
1110
1111
1110
0110
1000
1100
1110
1111
1011
1100
0100
1010
1110
1111
1101
1100
,  // measure 282
0010
1100
1101
1111
0111
0110
0010
1001
1011
1111
0111
1100
0001
0110
1110
1111
0111
0011
0010
0110
1101
1111
1101
0110
0100
1001
1011
1111
0111
1100
0100
1010
1011
1111
1110
1100
0001
0011
1110
1111
1110
0011
0010
0011
1110
1111
1101
0011
0010
1100
1011
1111
1101
1010
0100
0110
1011
1111
1011
1100
1000
1010
0111
1111
0111
1010
0001
0011
1110
1111
1110
1100
0001
1100
1110
1111
1110
1100
0100
1100
0111
1111
0111
1001
0100
1001
1110
1111
1011
0101
1000
0011
1110
1111
1110
1100
0100
1100
1110
1111
1011
1010
0010
1010
1011
1111
1110
1010
0001
1100
1011
1111
1101
1010
0010
1010
1110
1111
0111
1100
0100
0011
1011
1111
1101
1001
0010
0101
1110
1111
1011
0101
1000
1010
1110
1111
0111
0110
1000
1100
1110
1111
0111
1010
1000
1001
1110
1111
1011
1010
1000
1100
1101
1111
0111
0110
0100
1010
1110
1111
1101
1001
0010
0110
1101
1111
1101
0011
0001
1001
1110
1111
1110
0110
0010
1001
1110
1111
0111
1100
1000
1100
1110
1111
1110
1100
0100
0110
1101
1111
1110
1100
,  // measure 283
0100
0110
1101
1111
1011
1100
0010
1010
1101
1111
1101
0101
0001
0110
1110
1111
1011
1100
0100
1010
0111
1111
1110
1010
1000
0011
1011
1111
1110
1001
1000
0110
0111
1111
1101
1001
1000
0101
1101
1111
1011
1100
0001
1010
1110
1111
1011
0110
1000
1100
1110
1111
1101
1010
1000
0110
0111
1111
1110
1001
0100
0011
1011
1111
0111
1001
0001
1010
1011
1111
0111
1100
1000
1010
0111
1111
0111
1100
1000
1100
0111
1111
1011
0110
1000
1010
1101
1111
1110
1010
0100
1100
1110
1111
1101
0110
0010
1100
1011
1111
1110
1010
1000
0101
1101
1111
1101
1010
0010
1010
1110
1111
1101
1001
1000
1001
1011
1111
0111
0101
1000
1100
1011
1111
1110
1100
1000
0110
1110
1111
1011
1010
0100
0110
1110
1111
1011
1100
0100
1010
1110
1111
0111
0110
0001
1010
1011
1111
1011
1100
0100
1100
1011
1111
1011
0101
0100
1010
0111
1111
0111
0110
0010
1100
1011
1111
1110
0110
0100
1010
1110
1111
0111
0110
0001
0101
1011
1111
0111
1001
1000
0101
1110
1111
1011
0101
0001
1001
1110
1111
0111
1001
,  // measure 284
0010
1100
1110
1111
1011
0110
1000
1100
1101
1111
1101
0110
0010
1010
1011
1111
0111
1010
0010
1010
1011
1111
0111
1100
0010
0101
1011
1111
0111
1010
1000
0110
1011
1111
1101
1010
1000
0101
1110
1111
1110
0011
0010
0110
1101
1111
1011
0110
0010
1100
1110
1111
1101
1100
1000
1100
1110
1111
0111
1010
0100
1100
1101
1111
1110
1100
0010
0110
0111
1111
1011
0011
0001
1100
1110
1111
0111
1100
0010
1010
1011
1111
1101
1100
0001
1100
1110
1111
1110
1100
1000
1100
1011
1111
0111
0011
0010
1010
1011
1111
1101
0101
0010
1010
1101
1111
1101
1010
1000
1100
1110
1111
0111
0110
0100
1010
0111
1111
1110
0101
1000
0101
1110
1111
1101
1100
1000
0110
1101
1111
1101
0011
0100
1100
1101
1111
0111
1100
1000
0110
1101
1111
1101
1100
1000
1001
0111
1111
1011
1100
0010
1010
1101
1111
1110
0011
0010
1001
1110
1111
1110
1100
0100
1010
1101
1111
1110
1100
0100
0110
1101
1111
1101
0101
1000
0101
1110
1111
1110
0101
0010
1010
1110
1111
1101
1100
0100
0110
0111
1111
1110
1010
,  // measure 285
1000
1010
1011
1111
1101
1001
1000
0011
1011
1111
1110
1001
0010
0101
1101
1111
1110
1001
0100
0110
0111
1111
1101
1100
1000
1010
1101
1111
1101
0110
0001
0110
1110
1111
0111
1100
1000
1100
1110
1111
1101
0011
1000
0101
1110
1111
0111
0011
1000
1001
1101
1111
0111
1100
0010
1100
1011
1111
1110
0110
0100
0110
1011
1111
1101
0101
1000
1010
1101
1111
1011
1100
0100
1100
1101
1111
0111
1100
0001
1010
1110
1111
1110
1010
0100
0110
1011
1111
1011
0011
1000
1010
1101
1111
0111
1001
0010
1100
0111
1111
1110
1001
1000
1100
1101
1111
1110
0011
1000
0011
1110
1111
1101
0011
0010
0101
1101
1111
1011
1100
0100
1100
0111
1111
1011
1100
1000
0101
1110
1111
1101
0110
0010
0110
1110
1111
1101
0101
1000
1001
1110
1111
1011
0011
1000
1010
1101
1111
1110
1001
0010
0011
1011
1111
1101
0110
0001
1010
1011
1111
1110
1100
0010
0101
0111
1111
1101
1100
0001
1010
1011
1111
0111
1001
0100
1100
1101
1111
1101
0101
1000
0110
1101
1111
0111
1001
0100
0011
1110
1111
1110
1100
,  // measure 286
1000
1010
1011
1111
1011
1010
0010
1100
1110
1111
1110
1010
0100
1010
1101
1111
1110
0011
1000
1010
1101
1111
0111
1010
1000
1100
1110
1111
1011
1010
0001
1001
0111
1111
1110
1001
1000
1001
1110
1111
1101
1100
0010
1001
0111
1111
1110
1010
0010
1010
1101
1111
1110
1001
1000
1100
1110
1111
1101
1100
0010
1100
1110
1111
0111
1100
1000
0101
1101
1111
1101
0011
1000
0110
1011
1111
1101
0110
1000
1010
1110
1111
1101
1100
0100
1010
1110
1111
0111
0011
0100
0110
1101
1111
1110
1010
0010
0110
1110
1111
0111
0110
0001
0101
0111
1111
1110
1100
0100
1010
0111
1111
1011
0110
1000
0110
1011
1111
0111
1010
1000
0110
1110
1111
1101
1001
1000
1010
1110
1111
0111
1100
0010
1010
1101
1111
0111
1010
1000
0110
1101
1111
1011
0101
0001
0110
1110
1111
1110
1001
1000
0110
1011
1111
1101
1010
0100
1100
1110
1111
0111
0110
0010
0110
1011
1111
1110
1010
0010
1100
1011
1111
1101
1010
0100
1001
1101
1111
1011
1001
0100
0101
1101
1111
0111
1010
1000
1001
0111
1111
1011
1010
,  // measure 287
1000
1010
1011
1111
0111
1001
1000
1100
1110
1111
1101
0110
0010
1001
1110
1111
1110
0101
0001
1010
1011
1111
1110
1100
1000
0011
1011
1111
1110
1010
1000
1100
1011
1111
0111
0101
1000
1100
1110
1111
0111
1100
0010
1010
1101
1111
0111
1010
0010
1100
0111
1111
0111
0011
0100
0110
1101
1111
1110
1001
1000
1010
1101
1111
1110
1010
1000
1100
1110
1111
1011
0101
0010
1100
1110
1111
1011
1010
0100
1010
1110
1111
1101
1010
0001
1010
1110
1111
1011
0011
0100
0110
1011
1111
1011
1001
0100
1001
1101
1111
0111
1010
1000
1010
1011
1111
0111
0101
1000
1100
1101
1111
1101
0110
0100
0101
1110
1111
1110
1010
1000
0110
1110
1111
1110
0110
1000
0101
1101
1111
0111
1100
1000
1100
1011
1111
1110
1001
1000
1010
1110
1111
1101
1100
1000
0110
1101
1111
0111
1001
0010
1100
1101
1111
1110
0101
1000
0110
1101
1111
1101
1010
1000
0101
0111
1111
1110
0011
0100
0110
1110
1111
1110
0011
0001
1001
1110
1111
1101
0110
0100
1100
1101
1111
0111
1001
0100
1010
1011
1111
1011
1010
,  // measure 288
0100
0110
0111
1111
1101
1010
0001
1001
1110
1111
1101
1010
1000
0011
1110
1111
0111
1001
0100
0110
1011
1111
1101
1100
0010
0101
1110
1111
1110
1001
0010
1010
1110
1111
1110
0011
0001
1010
1011
1111
1011
1010
1000
1100
1101
1111
1110
1100
1000
0110
1110
1111
1101
1001
0100
1001
1011
1111
1011
0011
0100
1010
1011
1111
1011
0011
1000
0011
1110
1111
1011
1010
0100
1001
1011
1111
1110
1010
0100
1001
1110
1111
1011
1100
1000
0110
1101
1111
1011
1001
0100
0110
1110
1111
1011
1100
1000
0101
1110
1111
1110
0110
0001
1001
1101
1111
0111
1010
0001
1010
1101
1111
1101
0110
0010
1010
1110
1111
1110
1010
0100
1100
1110
1111
1101
1010
1000
0011
1101
1111
1110
1001
1000
1100
1011
1111
1110
0110
1000
0101
1110
1111
1101
1100
0100
1001
1011
1111
1110
1010
0001
1001
1101
1111
1011
1010
0100
1010
1110
1111
0111
0110
0010
1010
1110
1111
0111
0110
0100
1001
1101
1111
1110
0011
0100
1100
1011
1111
0111
1100
0100
0101
1110
1111
1110
1100
1000
1010
0111
1111
0111
1001
,  // measure 289
0001
0101
1101
1111
1110
1001
0010
0101
1110
1111
1101
0110
1000
1010
1110
1111
1011
1010
1000
1001
1101
1111
1110
1100
0001
1100
1110
1111
0111
0011
1000
0011
1011
1111
0111
0011
1000
0011
0111
1111
1101
1001
1000
1100
1110
1111
1101
0110
1000
1001
1110
1111
1011
0011
0010
0101
1011
1111
1011
1001
1000
0110
0111
1111
1011
1100
1000
1010
0111
1111
1011
1100
1000
1100
1110
1111
1101
0011
0100
1010
1101
1111
0111
1010
0001
1001
1110
1111
1110
0110
0100
0110
1110
1111
0111
0011
1000
1100
1011
1111
1110
1100
1000
1001
1011
1111
1101
1001
0100
1100
1110
1111
0111
1100
0010
1100
1011
1111
0111
1001
0100
1010
1110
1111
0111
0101
1000
1010
1110
1111
1110
1001
0100
1010
1101
1111
1101
0110
0100
1001
1110
1111
0111
1100
1000
1100
0111
1111
1110
1100
0001
0110
1110
1111
0111
0011
0100
0011
0111
1111
0111
1001
1000
1001
0111
1111
0111
1001
0100
0011
1011
1111
1101
1100
1000
1010
1110
1111
1011
0011
0100
0101
1110
1111
1101
0011
0100
1010
1011
1111
1110
1100
,  // measure 290
1000
1010
1110
1111
0111
1010
1000
1010
1101
1111
1101
1010
1000
0011
1110
1111
1101
0110
0010
1001
1101
1111
0111
0110
1000
1100
0111
1111
1011
1100
0001
1001
1101
1111
1110
0011
1000
1100
1110
1111
1101
1010
1000
1100
1101
1111
1101
1010
1000
1100
1101
1111
1101
0101
0010
0110
1110
1111
1011
0110
0100
1100
1101
1111
1101
0011
1000
1001
1011
1111
0111
1100
0010
1010
1110
1111
1101
0110
0010
0101
1110
1111
1101
1001
0100
1100
1011
1111
1110
0011
1000
0101
1110
1111
0111
0101
1000
0011
1101
1111
1011
1100
0100
0110
1011
1111
1101
0011
1000
1001
1101
1111
1101
1001
0001
0101
1110
1111
1110
1010
0010
0110
0111
1111
1110
1100
0010
0011
1011
1111
1011
0110
1000
1010
1011
1111
1101
1001
1000
1010
0111
1111
1011
0110
0100
1100
1101
1111
0111
1010
0100
1001
0111
1111
1011
1010
0001
0011
1110
1111
1101
1001
1000
1010
1110
1111
1110
1010
0010
1010
1101
1111
1101
1100
0001
1010
1110
1111
1110
1010
0010
1100
0111
1111
1110
0110
0100
1010
1110
1111
0111
0101
,  // measure 291
0100
0110
1110
1111
1011
1001
0100
1100
1101
1111
1101
1100
1000
1010
1011
1111
1110
0101
1000
1100
1101
1111
1011
1010
0001
1100
1011
1111
1110
1100
0001
1100
1101
1111
1011
0011
1000
1001
0111
1111
0111
1100
1000
1010
1110
1111
1101
1001
0100
0101
0111
1111
1011
1001
1000
0101
1110
1111
0111
1010
1000
1100
1110
1111
1110
0110
1000
1001
1110
1111
1101
1100
1000
1100
1011
1111
1011
1100
1000
1001
0111
1111
1101
1010
0100
1100
1101
1111
0111
1100
1000
1010
1110
1111
1101
1010
0100
1100
1011
1111
0111
0110
0100
1010
1011
1111
1110
1001
1000
0110
1101
1111
1110
0110
1000
1100
1101
1111
1110
1010
0100
0101
1110
1111
1101
0110
1000
1010
1101
1111
0111
1100
0010
1100
1101
1111
0111
1001
0010
0110
1110
1111
1101
1100
0010
1100
1101
1111
1101
0101
1000
0110
1101
1111
1101
0101
1000
1010
1101
1111
1011
1001
0100
1100
1110
1111
1110
1100
0100
1010
1110
1111
0111
1010
0100
1100
1101
1111
1011
0101
0010
0110
1110
1111
1101
1001
1000
1100
1110
1111
1101
1001
,  // measure 292
0001
1100
1101
1111
0111
1100
1000
1010
1110
1111
1110
1010
0010
1010
1101
1111
1101
1001
0001
1100
1011
1111
0111
1100
1000
0101
1110
1111
1110
1010
0100
1010
0111
1111
1110
0101
0100
1100
1101
1111
1110
1010
0100
1001
1110
1111
0111
1010
0001
1001
1011
1111
1110
1001
0100
1001
1011
1111
1110
1010
1000
0110
1011
1111
1101
0110
1000
1100
1011
1111
1101
1100
0100
1010
0111
1111
1110
1100
1000
1010
0111
1111
1110
1001
1000
0110
1011
1111
1110
1010
0100
1001
1110
1111
1101
0110
0100
1100
1011
1111
1011
1001
0010
1010
1101
1111
1110
0110
0001
0101
1011
1111
1011
0011
1000
0110
1110
1111
1110
0011
0010
1001
1011
1111
1011
0011
1000
1001
1101
1111
1110
0110
1000
1100
1110
1111
0111
0011
1000
1001
1011
1111
1110
1010
0001
1100
1110
1111
0111
1010
0100
1100
1110
1111
0111
1100
1000
1100
1011
1111
1101
0101
0100
1100
1110
1111
1110
0101
1000
0110
0111
1111
1110
0011
0100
1010
0111
1111
1011
1100
0010
1010
1011
1111
1011
1100
0100
1001
1011
1111
1011
0101
,  // measure 293
0100
1010
1101
1111
1101
1010
0100
1001
1101
1111
1101
1100
0010
1010
1110
1111
1110
1010
0001
1010
0111
1111
1101
1010
1000
1001
0111
1111
1011
1010
1000
0110
1110
1111
1110
1010
0010
1010
1011
1111
1110
1001
1000
0101
0111
1111
0111
1100
0010
1001
0111
1111
0111
1100
1000
1001
1011
1111
1011
0110
1000
1100
1110
1111
1101
1010
1000
0101
1011
1111
1110
1001
0100
0110
1110
1111
1101
1001
1000
0110
0111
1111
0111
1001
0001
0110
1101
1111
1110
0101
1000
1100
1110
1111
0111
0110
1000
1100
1110
1111
1011
0110
0001
1010
1110
1111
1011
1010
0001
1100
1011
1111
1011
1100
1000
0101
1101
1111
1110
0011
1000
1100
1011
1111
1110
0110
0010
1001
1110
1111
1101
0110
0010
1100
1011
1111
0111
1100
1000
1100
0111
1111
1011
1100
0001
0101
1110
1111
0111
0110
1000
1010
1110
1111
1101
1010
1000
1010
0111
1111
1101
1100
0010
1010
1110
1111
1101
1001
1000
1001
1011
1111
0111
1010
1000
1100
1110
1111
1110
1100
0100
1001
1101
1111
1110
1100
0010
0110
1101
1111
1110
1010
,  // measure 294
0100
0110
1011
1111
1011
1001
1000
1010
1110
1111
1101
1100
0001
1100
0111
1111
1011
1010
1000
0011
1101
1111
1110
0101
0010
1100
1101
1111
0111
1001
0010
1001
1101
1111
0111
0101
1000
1010
0111
1111
1110
1010
1000
1001
1110
1111
0111
1010
0001
1100
1101
1111
1011
0110
0010
0011
1110
1111
1101
1100
1000
0011
1101
1111
1011
1010
0001
1100
1110
1111
0111
1001
1000
1001
1110
1111
1101
1010
1000
0101
1101
1111
0111
1100
0100
0110
0111
1111
1110
1100
0100
1001
1110
1111
1011
0110
0100
1001
1011
1111
1011
1010
1000
1001
1110
1111
1110
1001
1000
1100
1110
1111
0111
1100
0100
0011
1101
1111
1101
1010
0010
1010
1101
1111
1011
1001
0100
1010
1110
1111
0111
1010
1000
1001
1110
1111
0111
1010
0010
0101
1110
1111
1011
1001
0100
1100
1101
1111
1101
1100
1000
1100
1101
1111
1101
1001
0001
1010
1011
1111
1110
1010
0100
1100
1110
1111
1110
1010
0010
0110
1110
1111
1011
0011
0010
1010
1110
1111
1110
1001
0001
0110
0111
1111
1110
0011
1000
0101
1101
1111
1110
1100
,  // measure 295
1000
1010
1011
1111
1110
1001
0010
0110
1110
1111
1110
0101
0010
0101
1110
1111
1110
0011
1000
0011
0111
1111
1011
1100
0100
1010
1101
1111
1110
1010
1000
0011
1011
1111
1101
1010
1000
1010
1011
1111
1011
1010
1000
1100
1110
1111
1011
0110
0100
0110
1110
1111
1011
0110
0010
1100
1110
1111
0111
0101
1000
1100
1101
1111
1011
0110
0100
0110
1101
1111
0111
0101
1000
0101
1110
1111
1011
1010
1000
0101
1110
1111
1101
0011
1000
0110
1101
1111
1101
1100
1000
0110
1011
1111
0111
1100
0100
1100
0111
1111
1011
1010
0100
1010
1101
1111
1101
1010
0100
0101
1011
1111
1011
0101
0100
1010
0111
1111
1011
1001
0100
1100
1101
1111
1110
0110
0010
0110
1110
1111
1101
1100
0010
1010
1110
1111
1101
0110
0100
0101
1101
1111
1101
0011
0100
0110
1011
1111
1110
1100
0100
0110
1110
1111
1110
0101
1000
1100
0111
1111
1011
1010
0100
1010
1110
1111
0111
0011
0010
1001
0111
1111
1011
1100
0100
1010
1011
1111
1011
1010
0100
1100
1011
1111
1011
1100
0100
1010
1110
1111
0111
1010
,  // measure 296
0100
1100
1110
1111
0111
0011
0010
0101
0111
1111
1101
1001
1000
1010
1101
1111
0111
1010
0010
1100
1011
1111
1101
1001
0100
1100
0111
1111
1110
1001
0100
1010
1110
1111
1101
1010
1000
1001
1011
1111
1110
1010
0010
0101
1110
1111
1110
0101
1000
0110
1011
1111
0111
0110
0100
1010
0111
1111
0111
0110
1000
0101
0111
1111
1110
0110
1000
1100
1011
1111
1011
1001
1000
1001
1011
1111
1110
1001
1000
1010
1110
1111
1101
1010
0001
1100
1011
1111
0111
1010
1000
1100
1110
1111
1011
0011
1000
0011
1110
1111
1110
1100
1000
1010
1011
1111
1110
0110
0100
1010
1101
1111
1101
1100
1000
1001
1101
1111
0111
1001
0100
1100
1101
1111
1110
1010
0001
0110
1101
1111
1101
1010
0001
0110
1110
1111
1110
1010
1000
1001
1110
1111
1011
0101
0100
1100
1110
1111
1101
0011
0010
0011
1110
1111
1110
1100
1000
1010
1011
1111
1011
0101
0100
0110
1101
1111
1011
1010
0010
1010
0111
1111
1011
0101
0001
0101
1011
1111
1110
1010
1000
0110
1110
1111
0111
1001
0100
1001
1110
1111
1110
1001
,  // measure 297
1000
1100
0111
1111
1110
1001
1000
1010
1110
1111
1011
0101
0100
1010
1011
1111
1110
1100
0100
1001
1101
1111
1011
0011
1000
1010
1110
1111
0111
0110
0100
1010
1110
1111
1110
1001
1000
1010
1101
1111
1101
1100
0001
1100
0111
1111
1101
0110
0100
1010
1011
1111
0111
0101
1000
1100
0111
1111
1101
0110
0100
0110
1101
1111
0111
1001
0001
1001
0111
1111
1110
1010
1000
1100
1110
1111
0111
1100
1000
0101
1110
1111
1011
1001
1000
1001
0111
1111
1011
1010
0010
1010
1110
1111
1011
1100
0100
0101
0111
1111
1101
0011
1000
0110
1101
1111
1101
1100
0001
1010
1101
1111
1101
1001
1000
1100
1101
1111
1110
1010
0100
1100
1110
1111
1011
0110
0010
0110
1101
1111
0111
1010
1000
0101
1011
1111
1110
1010
0100
0101
1101
1111
0111
1010
1000
1001
0111
1111
1011
0110
0100
0110
1011
1111
1110
1010
1000
0011
1110
1111
0111
0101
0010
1100
1110
1111
1110
0011
1000
0110
1110
1111
1110
0011
0001
1100
1110
1111
1011
1100
1000
0110
1110
1111
1110
1001
0100
1100
1110
1111
1011
1100
,  // measure 298
1000
0011
1110
1111
1110
1010
1000
1010
1101
1111
1011
1010
0100
0101
1011
1111
1011
0011
1000
0110
1110
1111
1110
1100
1000
0110
1011
1111
1011
0101
1000
1001
1110
1111
1101
1001
0100
1100
1101
1111
1011
1001
0001
1100
1110
1111
0111
1100
0100
0101
0111
1111
1101
1100
1000
0101
1011
1111
1011
0110
1000
1001
1101
1111
1110
1010
1000
1001
1011
1111
1110
1010
1000
1001
1110
1111
0111
1010
0001
1001
1101
1111
1011
0011
0100
0110
1110
1111
1101
0101
1000
1100
1101
1111
0111
0011
0100
1010
1101
1111
1110
1001
0001
0110
1110
1111
1011
0011
0100
0110
1011
1111
0111
1001
1000
0110
1110
1111
0111
1001
1000
0101
1101
1111
1110
1010
1000
1010
0111
1111
1011
0110
0100
1100
1011
1111
1101
1100
1000
1100
1110
1111
1110
1010
0100
0101
1011
1111
1011
1001
0010
1001
1101
1111
1101
0110
0100
1010
1011
1111
0111
0110
0100
1100
1110
1111
1110
1010
1000
1100
1011
1111
1110
1001
0100
0110
1110
1111
1011
1001
1000
1100
1110
1111
1101
0011
0100
0110
1110
1111
1110
1100
,  // measure 299
0010
1100
1110
1111
0111
0011
0001
0110
1011
1111
0111
0101
1000
1001
1011
1111
0111
1001
0010
0110
1101
1111
1110
0110
0010
0110
1110
1111
1101
0110
1000
1100
1110
1111
1101
0011
1000
1010
1101
1111
1110
1100
1000
0011
1011
1111
1110
1100
1000
0011
0111
1111
1011
1010
0100
1001
0111
1111
1011
1100
0100
1010
1101
1111
1110
1100
0100
1001
1011
1111
1101
0110
1000
1001
1011
1111
0111
1100
0100
1100
1110
1111
0111
1010
0100
0110
1110
1111
0111
0110
0001
0011
1110
1111
1110
1001
0100
1001
0111
1111
0111
1010
0100
0110
1011
1111
1101
1100
0010
1100
1110
1111
0111
1100
1000
0110
1011
1111
1110
1010
1000
0101
1101
1111
1101
0110
0010
1100
1101
1111
1011
1100
0001
0110
0111
1111
1101
1001
1000
1100
1110
1111
0111
1100
0010
0110
0111
1111
1101
1001
0001
1001
1101
1111
0111
0101
1000
1100
1110
1111
1011
1010
0100
1100
1011
1111
1011
1010
1000
1010
1110
1111
1011
0011
0100
1100
1101
1111
1110
1010
1000
0011
1011
1111
1101
0011
1000
1100
1101
1111
1011
1010
,  // measure 300
0010
1010
1110
1111
1110
1001
0100
1100
1101
1111
1110
1001
0100
0110
1110
1111
1011
0101
0010
1100
1011
1111
1101
1010
0001
1100
1011
1111
1011
1001
0100
1100
0111
1111
0111
1010
1000
1001
1110
1111
1110
1010
0001
1010
1110
1111
1101
1100
0100
0101
1110
1111
1110
0110
0100
0110
1101
1111
1101
0101
1000
1100
1110
1111
0111
0110
0100
0110
1110
1111
1011
0110
1000
1100
0111
1111
0111
1100
0100
1010
1110
1111
1101
0011
1000
1100
1101
1111
0111
1010
0100
1001
1101
1111
1011
1010
0001
1001
0111
1111
1011
0110
1000
1100
1110
1111
0111
1010
1000
1100
1110
1111
1110
0011
0100
1010
1110
1111
0111
0110
0001
1100
0111
1111
1101
1001
0010
0110
1101
1111
1101
1001
1000
1001
1011
1111
0111
1100
1000
1001
1110
1111
1011
1001
0001
0011
1110
1111
0111
1100
0100
1010
1011
1111
1011
0110
0010
0110
1110
1111
1011
0101
0010
0011
0111
1111
1101
0101
1000
1100
1101
1111
1101
1010
0001
0011
1011
1111
1011
0011
0001
0110
0111
1111
0111
0110
1000
1100
1011
1111
1110
0110
,  // measure 301
0100
1100
0111
1111
1011
1100
0010
1010
1011
1111
1110
1010
0100
0101
0111
1111
1110
0110
1000
0110
1011
1111
1110
1010
0010
0101
1101
1111
1101
0011
0100
1100
1110
1111
1110
1100
0010
0101
1110
1111
1011
1100
1000
0101
1101
1111
1110
0101
0010
1100
1110
1111
0111
0011
1000
1010
0111
1111
1011
1100
0001
0011
1110
1111
0111
0110
0010
1100
1110
1111
0111
1001
0100
0110
0111
1111
1101
1100
1000
1010
1110
1111
0111
1010
1000
0101
0111
1111
0111
1001
1000
0110
1110
1111
1101
1010
1000
1100
1101
1111
0111
1100
0001
1100
1110
1111
0111
0011
0100
1100
1011
1111
0111
1100
0100
1100
1011
1111
1110
0011
0001
1001
1110
1111
1011
1001
0100
1100
1011
1111
1101
0101
0100
0110
1110
1111
0111
1001
1000
1001
1110
1111
1101
0110
1000
1100
1011
1111
1011
1100
1000
0101
1110
1111
1101
1010
0010
1100
1110
1111
1101
0110
1000
0110
1011
1111
1110
1010
0010
1001
1110
1111
0111
0110
0100
0110
1101
1111
1110
1100
0010
0101
1011
1111
0111
1001
0001
1010
0111
1111
1101
1100
,  // measure 302
1000
0110
1101
1111
1011
1010
1000
1100
1110
1111
1110
0011
1000
0110
1110
1111
1101
0110
0001
1100
1011
1111
1011
0110
0010
0110
1110
1111
1101
0101
0010
0101
1110
1111
1110
1010
0100
0110
1101
1111
1110
1100
1000
1001
1101
1111
1101
0110
0100
1100
0111
1111
1110
1010
0010
0110
1110
1111
1110
1010
0100
1001
0111
1111
0111
1010
1000
1100
1110
1111
1101
1001
0010
1100
1110
1111
1011
0110
0010
0101
1110
1111
1101
1010
1000
1100
1101
1111
1011
0101
1000
1001
1110
1111
1110
1100
1000
1010
1110
1111
0111
0011
1000
0110
1110
1111
1110
1100
0010
0110
1011
1111
1101
0101
1000
1100
1011
1111
0111
1010
0100
0101
1110
1111
1110
0110
1000
0011
0111
1111
1101
1010
0010
0101
0111
1111
0111
1100
0100
1100
1110
1111
1110
1010
0100
0110
1110
1111
1101
0110
1000
1010
1110
1111
1101
1010
1000
1100
1011
1111
1011
1010
0100
1001
1011
1111
1011
0011
0100
1001
1011
1111
1101
0011
1000
1100
1110
1111
0111
1010
1000
1100
1011
1111
1110
0110
1000
1100
1110
1111
1110
1100
,  // measure 303
0100
1010
1110
1111
0111
0011
1000
1100
1110
1111
1101
1100
1000
1010
0111
1111
1101
0101
0010
1010
1101
1111
1101
1010
0100
1010
1101
1111
1101
1010
1000
0110
0111
1111
1110
1100
0100
1100
1110
1111
1110
1100
0100
1001
1011
1111
1011
0101
1000
1100
1101
1111
1110
1100
1000
1010
1011
1111
1110
1001
1000
1010
1011
1111
0111
1100
1000
0101
0111
1111
1011
0110
0010
0011
1110
1111
1110
1100
0100
1010
0111
1111
1101
0110
1000
0110
1110
1111
1011
1010
0100
1010
1101
1111
1011
1100
1000
0110
1011
1111
1101
0110
1000
0110
1101
1111
1101
0101
1000
1100
1101
1111
1110
1001
1000
0110
1101
1111
1101
0101
0010
1010
0111
1111
0111
1100
0100
1010
1101
1111
0111
1010
0100
1010
1110
1111
0111
1100
0010
1010
1101
1111
1011
0101
0010
1100
1011
1111
0111
1001
0001
1010
1110
1111
0111
1001
0010
0110
1101
1111
0111
1010
1000
0101
1110
1111
0111
1100
1000
1100
1110
1111
1101
1010
0100
1100
1011
1111
1011
1100
1000
1010
0111
1111
1110
0011
1000
1100
1011
1111
1101
1100
,  // measure 304
0001
1001
1110
1111
1011
1100
0001
0110
1110
1111
1011
0011
1000
0110
1110
1111
0111
0011
1000
0110
1110
1111
1011
0110
0010
0101
1110
1111
1110
0110
0010
1001
1110
1111
1110
0110
0010
1100
1011
1111
1101
1001
1000
0011
1110
1111
0111
1001
1000
0110
0111
1111
0111
1100
0100
1100
1110
1111
0111
0110
1000
1010
1110
1111
1101
1010
1000
1100
1011
1111
0111
1010
0100
1001
0111
1111
1101
0011
0001
1100
1011
1111
0111
1010
0100
0101
1011
1111
0111
0110
0010
1010
1101
1111
1101
1010
0010
0110
1110
1111
1101
1010
1000
0101
1101
1111
1101
1010
1000
1100
0111
1111
1101
0101
0100
1010
1101
1111
0111
1100
1000
1010
1110
1111
1101
0011
1000
1100
0111
1111
1011
1100
0010
0101
1110
1111
1101
1010
0100
1100
1110
1111
0111
1010
0100
1100
1110
1111
1110
0110
1000
1100
1110
1111
1110
0110
1000
0101
1101
1111
1011
0011
0100
1100
1110
1111
1011
1010
1000
0011
1011
1111
1101
0110
1000
1010
1110
1111
1110
0110
1000
1001
1101
1111
1110
0101
1000
0101
1101
1111
1110
1010
,  // measure 305
0100
1010
1110
1111
1011
1010
1000
0101
1110
1111
1011
0011
0100
1001
1011
1111
1011
1010
0010
0110
1110
1111
0111
1010
0100
1100
1011
1111
1110
1010
0100
1010
1110
1111
0111
1001
1000
1001
1110
1111
1110
1010
0010
0110
1110
1111
1011
0110
0100
1100
1101
1111
1011
1010
1000
0110
1101
1111
1110
1010
1000
1010
1110
1111
1101
1100
1000
1010
1101
1111
0111
1001
0100
0110
1101
1111
0111
1100
1000
1010
1110
1111
1101
1010
0001
0110
1011
1111
1101
1010
0010
1100
1101
1111
0111
1100
0001
0011
0111
1111
1110
1100
1000
1010
1110
1111
1101
1010
0100
1001
1101
1111
0111
1010
1000
1100
1110
1111
1011
1001
0100
1100
1110
1111
0111
1100
0100
1100
1110
1111
1110
0011
0100
1010
1110
1111
1101
0011
0100
1100
1101
1111
1110
1010
1000
1100
1011
1111
1011
0011
1000
1001
1101
1111
1011
1100
1000
1100
1101
1111
1011
0101
0100
1100
1101
1111
1101
1100
0010
1010
0111
1111
1110
1100
0100
0101
1110
1111
1101
1100
0010
1010
1110
1111
0111
0110
1000
1010
1110
1111
0111
1001
,  // measure 306
0010
1100
1110
1111
1110
1100
0100
0101
1110
1111
1101
1001
0100
1010
0111
1111
0111
1100
0100
1010
1110
1111
1110
0101
0100
1001
1110
1111
0111
1001
0010
1001
1110
1111
1110
1100
0010
1100
1101
1111
0111
1100
1000
1100
1110
1111
1110
1100
1000
0011
1011
1111
1101
1010
0010
1100
1011
1111
1101
1001
0010
0101
1110
1111
1110
1100
0100
0011
0111
1111
1011
0011
0100
1010
1101
1111
0111
1100
1000
0110
1101
1111
1110
1100
0100
1100
1110
1111
0111
1010
0010
1001
0111
1111
1110
0011
1000
1100
0111
1111
0111
0110
0100
1100
1101
1111
1110
1010
1000
0110
0111
1111
0111
0110
1000
0101
1110
1111
0111
1100
0010
0101
1110
1111
1011
0101
0001
0011
0111
1111
0111
1001
0100
1010
1110
1111
1101
1100
1000
1010
1110
1111
0111
1010
0010
1100
1110
1111
1110
0011
0100
1100
1101
1111
0111
0101
1000
1100
0111
1111
0111
1100
0001
0101
1110
1111
0111
1100
1000
1001
0111
1111
0111
1100
1000
0011
1011
1111
1101
1100
1000
1100
1011
1111
1110
1010
0100
1100
0111
1111
0111
1010
,  // measure 307
0100
1010
1101
1111
1101
0011
0100
0011
1101
1111
1110
1010
0010
1010
1110
1111
1110
1010
1000
1100
1101
1111
0111
1001
0100
0101
1110
1111
1101
0101
0100
0101
1101
1111
1101
1010
1000
0110
1101
1111
0111
0110
0100
1100
1011
1111
1101
1010
0001
0011
1011
1111
1110
1100
0100
1001
0111
1111
1011
1001
0100
1010
1110
1111
1101
1100
1000
1010
1101
1111
0111
1010
1000
1100
1110
1111
1011
1100
0010
1010
1101
1111
0111
1100
0010
0110
1110
1111
1110
0011
1000
1010
1110
1111
0111
0011
0001
1001
0111
1111
1101
0101
1000
1100
0111
1111
0111
1100
1000
0110
1101
1111
0111
1010
0100
0110
1110
1111
1011
0011
0010
1100
1101
1111
1011
1010
0001
0011
1110
1111
1011
0101
1000
0110
1011
1111
1101
0011
0010
0011
1011
1111
1011
1010
0100
1100
1011
1111
0111
0011
1000
1010
1110
1111
1101
0110
1000
1010
1110
1111
1110
0101
0010
1010
1101
1111
1011
1001
0010
1001
1110
1111
0111
0101
0010
1001
1110
1111
1101
0011
0010
1100
1101
1111
1110
1100
0100
1001
1101
1111
1011
1010
,  // measure 308
0001
0110
1110
1111
1101
0110
0100
0110
1110
1111
1011
0110
0001
1010
1101
1111
0111
0011
1000
0011
1110
1111
0111
1010
0100
1001
1011
1111
1101
1010
1000
0101
1110
1111
1110
1010
0010
0011
1110
1111
1101
1100
1000
0101
1110
1111
0111
1001
0100
0110
1110
1111
0111
1100
0010
0110
1110
1111
1011
1100
1000
0110
1011
1111
1011
0110
0100
1100
1110
1111
0111
0101
0100
1100
1011
1111
0111
1010
1000
1100
0111
1111
1110
1001
1000
1010
1101
1111
0111
1001
0010
1100
0111
1111
1011
0011
0010
1100
1101
1111
1101
1010
1000
1100
1101
1111
1101
1001
0010
1010
1110
1111
1011
1010
1000
1001
1110
1111
1011
1100
1000
1010
1110
1111
1101
1010
0001
1001
1110
1111
1011
0110
0100
1100
1110
1111
0111
1010
0010
0011
1110
1111
0111
1001
0010
0011
1110
1111
1011
1100
1000
1100
1110
1111
1011
1010
0010
0011
1011
1111
1110
1010
1000
0110
1101
1111
1011
0110
0010
0101
1110
1111
1101
1100
0010
1001
1101
1111
1101
1100
0010
1001
0111
1111
1101
0101
0100
1001
1101
1111
0111
0011
,  // measure 309
0010
1010
0111
1111
0111
0110
1000
1010
1101
1111
0111
1001
1000
1100
1101
1111
1101
0011
1000
1100
0111
1111
1110
1100
1000
1010
1110
1111
1011
1010
1000
0110
1011
1111
1011
0101
0010
1100
1101
1111
1101
0011
0100
1100
1011
1111
1110
1100
0010
0101
1101
1111
1110
1100
1000
1010
1011
1111
1101
1010
0100
1100
1011
1111
1101
1100
1000
1100
1110
1111
1101
1001
0010
0011
1110
1111
1101
0110
1000
1100
1011
1111
1110
1010
0100
1100
1101
1111
0111
1010
0100
0101
1011
1111
0111
1010
0100
0110
1011
1111
1011
1010
0100
1001
1011
1111
1110
1010
1000
0011
0111
1111
1101
1100
1000
1010
1011
1111
1011
0011
0010
0101
0111
1111
1101
1100
0001
1100
1110
1111
1011
1100
0100
1010
1110
1111
1101
1100
0010
0110
1011
1111
1101
0011
1000
1010
0111
1111
1011
0011
1000
0110
1101
1111
1011
1100
0100
1001
1110
1111
1110
1100
1000
0101
1110
1111
0111
0011
0010
1001
1110
1111
0111
0011
0100
1010
1011
1111
0111
0101
1000
1100
1110
1111
1101
1100
1000
1100
1110
1111
1101
0110
,  // measure 310
1000
0101
0111
1111
0111
0011
0001
0110
1101
1111
1110
0110
0100
0110
1011
1111
0111
1010
0010
1010
1110
1111
1110
1010
1000
0011
0111
1111
1110
1010
0001
0011
1101
1111
1011
1010
0010
0110
1011
1111
1011
0110
1000
1010
1101
1111
1011
1010
1000
1100
1110
1111
1110
0110
1000
1010
1110
1111
0111
1001
0010
1100
1110
1111
0111
1100
1000
0110
1011
1111
1011
0110
1000
1100
1011
1111
1101
0101
0010
0101
1101
1111
1011
1100
0010
1100
1110
1111
1101
1010
0010
0110
1011
1111
1101
0101
1000
1100
1110
1111
1011
1010
0010
0011
1011
1111
1101
0110
0010
1010
1101
1111
1101
0110
0001
1100
1011
1111
0111
1010
1000
0101
1101
1111
0111
1100
1000
1010
1110
1111
1110
1001
0100
1100
1011
1111
1101
1100
1000
0101
1110
1111
0111
1010
0010
1100
1110
1111
1101
1001
0001
1010
1011
1111
0111
1010
1000
1100
1011
1111
0111
1001
1000
0110
1110
1111
1101
0110
1000
1100
0111
1111
1101
0110
1000
0101
0111
1111
1011
1100
0001
1001
0111
1111
1101
1001
1000
1100
0111
1111
0111
1100
,  // measure 311
1000
1100
1101
1111
1110
1010
1000
1010
1011
1111
1110
1001
0100
1100
1101
1111
0111
1010
1000
0110
1011
1111
1110
0101
1000
0101
0111
1111
1101
1001
1000
0101
0111
1111
1101
1100
1000
1001
1110
1111
0111
1010
1000
1100
1101
1111
0111
0101
0001
1100
1110
1111
1110
0101
1000
1001
1110
1111
1110
0101
0100
1100
1110
1111
1110
1100
1000
0101
0111
1111
1011
0011
0010
0110
1011
1111
0111
0110
0010
1010
1110
1111
0111
1010
0010
0110
1101
1111
1110
1010
0100
0101
1011
1111
0111
1100
0001
0101
1011
1111
1110
0101
0010
1001
1101
1111
1110
0110
0100
0011
0111
1111
1101
1100
0010
1100
1011
1111
1110
1100
0010
1010
0111
1111
1101
1010
1000
0101
1101
1111
1110
0011
1000
0101
1110
1111
1110
1010
0100
1100
0111
1111
1110
1010
1000
1010
1110
1111
1110
0011
1000
1010
1011
1111
1110
0110
0100
1100
1101
1111
1110
1010
0100
0101
1110
1111
1110
0011
1000
0101
1110
1111
1011
1010
0100
0101
0111
1111
1101
1100
0010
1100
1110
1111
1101
1010
1000
1010
1011
1111
1101
1010
,  // measure 312
1000
1001
1110
1111
1011
0011
0100
1001
0111
1111
0111
0110
1000
1010
1110
1111
1101
0110
0100
0011
1101
1111
0111
1010
0001
0110
1011
1111
1110
0101
0001
1010
0111
1111
1011
1001
0001
0110
1110
1111
1011
1010
0010
1010
1110
1111
0111
1001
0010
1010
1101
1111
1110
1001
1000
1010
1101
1111
0111
1100
1000
1001
0111
1111
0111
0011
0001
1001
1101
1111
1011
1010
0010
0101
1110
1111
0111
1010
0010
1010
1101
1111
1011
1100
1000
1100
0111
1111
1110
1100
0100
0110
1110
1111
1101
0101
0100
1100
0111
1111
0111
0101
0010
1010
1110
1111
1110
0101
0010
0110
1110
1111
1110
1010
0100
1010
0111
1111
1110
1100
1000
1010
1110
1111
1101
0110
1000
1001
1110
1111
1110
1001
1000
1001
1110
1111
1110
0011
0100
1010
1101
1111
1110
1001
1000
0101
1011
1111
1110
1100
0100
1100
0111
1111
1101
1100
0100
1010
1011
1111
1011
1100
1000
1010
1011
1111
1101
1100
0001
1010
1011
1111
1110
1010
0001
0011
1011
1111
1110
1001
0010
1001
1101
1111
0111
0110
1000
0110
1110
1111
1110
0110
,  // measure 313
1000
0101
1110
1111
1101
0110
0100
0110
0111
1111
1110
1010
1000
1100
1110
1111
1101
1001
1000
1001
0111
1111
0111
0110
1000
0011
1011
1111
1101
0011
1000
1001
0111
1111
0111
0011
1000
1100
1011
1111
1101
1001
1000
1010
1011
1111
1110
0101
1000
1100
1011
1111
1110
0011
0010
1010
1011
1111
1101
1001
0001
1100
1101
1111
0111
1100
1000
1100
1011
1111
1101
1100
0100
1100
1101
1111
1011
1100
1000
1100
1110
1111
1011
1100
0100
1001
1110
1111
1101
1100
0010
1100
1011
1111
1110
1100
0010
0110
0111
1111
1101
1100
1000
0110
1011
1111
1101
1001
1000
1100
1110
1111
1011
0011
1000
0110
1110
1111
1011
0110
1000
1010
1011
1111
0111
1010
0100
1100
1110
1111
1110
0110
0010
1100
1110
1111
0111
1001
0100
1010
1101
1111
1011
0011
1000
1010
1110
1111
1011
1001
1000
1001
1110
1111
1110
1010
0010
0011
1110
1111
1011
0110
1000
1100
1011
1111
1110
1010
0100
0011
1101
1111
1011
0011
0100
1001
0111
1111
0111
1010
1000
1100
1101
1111
1101
0011
0001
1001
1110
1111
1101
1100
,  // measure 314
1000
1100
1110
1111
0111
0101
1000
1100
1101
1111
1110
0110
0100
1100
0111
1111
1011
1010
0100
1001
1011
1111
1110
0101
0010
0110
1011
1111
1101
1001
0100
1100
1101
1111
1110
0110
0010
1100
1110
1111
1011
1010
1000
0101
1101
1111
1110
1100
0001
1010
1011
1111
1110
0110
1000
1100
1011
1111
1101
0110
0100
1010
1101
1111
1110
0110
0010
1001
1110
1111
1110
0110
1000
0110
1110
1111
1011
1010
0010
0110
1011
1111
1101
1001
0100
1001
1110
1111
1011
1001
1000
0011
1011
1111
1101
1001
0001
1100
1011
1111
1110
0110
0100
1100
1101
1111
1101
1001
0100
1100
1110
1111
1011
1010
0010
1010
1110
1111
0111
1001
1000
0101
1110
1111
1011
1001
0100
1100
0111
1111
1101
0011
1000
0101
1101
1111
0111
1001
1000
0110
1110
1111
1110
0011
1000
1100
1110
1111
1101
0110
0010
1010
1110
1111
1101
1100
0100
1001
1101
1111
0111
0101
0001
1010
1110
1111
1011
1010
0100
1100
1101
1111
1011
0101
0010
0011
0111
1111
0111
1100
1000
0110
1110
1111
1110
0101
1000
1100
1110
1111
1101
0101
,  // measure 315
0001
1100
1101
1111
0111
1001
0100
1100
0111
1111
0111
0011
0001
0011
1101
1111
1011
0101
1000
1010
1110
1111
0111
0101
1000
1100
1101
1111
1110
1100
1000
1010
1110
1111
1101
0011
1000
1001
1101
1111
1011
1001
1000
1100
0111
1111
0111
1010
1000
0110
1110
1111
0111
1100
0001
1100
1011
1111
1110
1100
1000
1010
1110
1111
1011
0110
1000
1001
1110
1111
0111
1100
0010
1100
1011
1111
1101
1010
0100
1001
1101
1111
1101
1001
1000
1001
1110
1111
0111
1100
0010
1010
1110
1111
1011
1010
0100
0011
1011
1111
1101
1001
1000
1100
1011
1111
1101
1010
0100
0110
1101
1111
1011
1100
0100
1100
1011
1111
1101
1001
0100
1010
1101
1111
1110
1100
1000
1001
0111
1111
1110
1100
0001
1100
0111
1111
1110
1010
1000
0101
1110
1111
0111
1010
0100
1010
1110
1111
1110
0101
0100
1100
1101
1111
0111
1100
1000
0011
1110
1111
1110
1010
1000
0011
0111
1111
1011
1100
0100
1100
1011
1111
1011
0011
0100
0011
1011
1111
0111
1010
0001
1001
1110
1111
1110
0011
0100
1100
0111
1111
1110
0011
,  // measure 316
0100
1010
0111
1111
1110
1010
0010
1100
1110
1111
1101
0110
0100
0011
1110
1111
0111
1100
0100
1100
1101
1111
1110
0101
1000
0101
1011
1111
1011
0101
0010
0110
1011
1111
0111
0101
0001
1100
1110
1111
0111
0101
0010
1001
1011
1111
1101
1010
0001
1100
1110
1111
0111
1100
1000
0101
1110
1111
1101
0101
0100
1010
1101
1111
0111
1010
1000
1100
1011
1111
1110
1100
1000
1100
1101
1111
1110
1001
1000
0110
1110
1111
1011
0011
1000
1100
0111
1111
1011
0110
1000
1010
1110
1111
1101
0110
0010
0011
1110
1111
1101
0011
0100
1010
1110
1111
1101
0101
0100
1100
1110
1111
1011
1100
1000
0110
1110
1111
1110
1100
0100
1001
1110
1111
1011
1001
0001
1010
1011
1111
1110
0011
0100
1001
1110
1111
0111
1010
0010
1010
1110
1111
1101
0110
1000
1010
1011
1111
1110
1100
0010
0101
1110
1111
1101
1010
0100
1010
1110
1111
1110
1001
0001
1100
1011
1111
1110
1100
0001
1010
1011
1111
1101
1010
1000
0110
1101
1111
1011
1001
0010
1010
1101
1111
1110
1001
0010
1001
1101
1111
1011
1100
,  // measure 317
0001
1100
1101
1111
1110
1100
0010
1100
1011
1111
1011
0101
1000
0110
1011
1111
1101
1001
0010
0011
0111
1111
0111
1010
1000
1100
1101
1111
1101
1010
0100
0110
1110
1111
1011
1100
0100
0110
1110
1111
0111
0011
0100
0101
1110
1111
1011
1001
1000
1010
1101
1111
1101
0110
1000
1010
1011
1111
1110
0101
0010
1001
1110
1111
1110
1001
1000
1010
0111
1111
1011
0101
0100
1001
1011
1111
0111
1100
1000
1100
1101
1111
0111
1100
1000
0110
1110
1111
1110
1001
0001
1001
1110
1111
1101
1010
1000
1001
1110
1111
1110
1100
1000
1001
1101
1111
1011
0110
0010
1010
1011
1111
1110
1100
0100
1010
1011
1111
0111
0011
0010
1001
1101
1111
1101
1010
0010
1100
0111
1111
1110
1100
0100
1010
0111
1111
1101
0101
0010
1001
1110
1111
1011
0101
1000
1100
1110
1111
1110
0011
1000
1100
1110
1111
0111
0110
0100
0110
1101
1111
1101
0110
0100
1001
1101
1111
1011
1001
0010
0011
1110
1111
1011
1001
0001
0110
1101
1111
0111
1001
0100
1100
1101
1111
1101
1010
0010
1100
1110
1111
1110
0011
,  // measure 318
1000
1010
1110
1111
1101
1010
1000
1100
1110
1111
1110
0011
1000
1010
1011
1111
1101
0110
0100
0110
1110
1111
1110
0110
0001
0011
0111
1111
1011
1100
0100
1001
1110
1111
0111
0101
0001
1001
1110
1111
1110
1100
1000
0110
1101
1111
1101
1010
0100
1100
0111
1111
0111
0110
1000
1100
1110
1111
1110
1100
1000
0110
0111
1111
1101
0101
1000
1100
0111
1111
0111
1010
0010
1100
1110
1111
1101
0110
1000
1100
1011
1111
1110
1001
0100
1010
1101
1111
1101
0110
0100
1010
1101
1111
1110
0011
1000
0110
1011
1111
0111
0101
0010
1100
0111
1111
1101
1001
0010
0110
1110
1111
0111
1001
1000
0101
0111
1111
0111
0101
0001
0110
1110
1111
1011
1100
0010
0110
1101
1111
1101
1100
1000
1010
0111
1111
0111
1010
0100
0101
0111
1111
1110
1001
0100
1010
1011
1111
1110
0011
0001
1010
1101
1111
1110
1100
1000
1010
1101
1111
1110
0011
0010
0011
1110
1111
0111
0110
0010
1001
1011
1111
1110
1100
0010
0011
1110
1111
0111
0110
0001
1100
1110
1111
1101
1001
1000
1010
1110
1111
0111
1100
,  // measure 319
1000
1100
1110
1111
1110
1010
0100
0110
0111
1111
1110
0011
0100
0110
1011
1111
1011
0101
0100
0101
1101
1111
0111
0011
1000
1001
1011
1111
1101
1010
1000
1001
1110
1111
1110
0011
0100
0110
0111
1111
0111
0011
0010
1001
1110
1111
1110
1001
1000
1001
0111
1111
1110
1010
0010
1100
1110
1111
0111
0011
0001
1100
1011
1111
1011
0011
1000
1001
1101
1111
1110
1010
1000
0101
1101
1111
1101
0110
0100
1010
1011
1111
1011
0110
0100
1100
0111
1111
0111
0101
0001
1100
1101
1111
1101
1010
1000
1100
1110
1111
0111
1100
1000
1010
1011
1111
1110
1010
0100
1010
1011
1111
1011
0011
0100
1010
1011
1111
1110
1100
0100
0110
1110
1111
0111
1001
0010
0110
1101
1111
1110
0110
1000
1001
1110
1111
1110
0110
0100
1001
1110
1111
0111
1100
0010
0101
1110
1111
1110
0101
1000
0011
1110
1111
1101
1100
0001
0011
0111
1111
1101
0101
1000
0011
1110
1111
0111
1001
1000
0011
0111
1111
1110
1001
0100
0011
1011
1111
0111
1001
1000
1010
1011
1111
1101
1100
0010
1100
1101
1111
1101
0011
,  // measure 320
0100
1010
1110
1111
1101
1100
0100
1100
1011
1111
1110
1010
1000
1010
0111
1111
1110
1010
0100
0101
1101
1111
0111
0011
0010
1100
1011
1111
1110
0110
1000
0110
1101
1111
1110
1001
1000
0011
1110
1111
1110
1001
0001
0110
1110
1111
1110
1010
0100
0101
1110
1111
1110
1010
1000
1010
1110
1111
1101
0110
0010
1010
1011
1111
1011
0110
1000
0101
1011
1111
1110
1010
0010
1001
1110
1111
1101
0011
0100
1100
1011
1111
1101
1010
1000
1010
1110
1111
0111
1010
1000
1010
1011
1111
1110
1010
1000
0101
1101
1111
1101
1100
0001
0011
0111
1111
0111
0110
1000
1001
1110
1111
1011
1100
1000
0110
1110
1111
0111
1001
1000
1100
1011
1111
1110
1100
0010
0101
1101
1111
1110
0101
1000
0110
1110
1111
1011
1010
0010
1001
1110
1111
1110
0110
0001
1010
1011
1111
1101
0011
0100
1010
1110
1111
1110
0011
1000
1100
1110
1111
1110
0101
0001
0110
0111
1111
1110
0011
0100
1001
1101
1111
1011
0110
0100
0011
0111
1111
0111
1010
1000
1100
1011
1111
1101
0101
0010
0101
1101
1111
0111
0101
,  // measure 321
0010
0110
0111
1111
0111
0101
0010
1100
1110
1111
0111
1010
0100
1100
1011
1111
1011
0110
0010
1100
1110
1111
0111
1100
0100
1001
0111
1111
1101
0011
1000
0011
1011
1111
0111
1100
1000
0011
1101
1111
1110
0011
1000
1010
1011
1111
0111
1100
0010
1010
1110
1111
0111
1100
0001
1010
0111
1111
1101
1010
0010
0110
1101
1111
1011
0101
1000
1010
1110
1111
1110
1010
0001
1010
1101
1111
0111
0101
0010
0011
1110
1111
1011
1100
1000
1010
1011
1111
0111
0101
0100
1100
1110
1111
1011
0011
0010
1010
1110
1111
0111
0011
1000
0011
1110
1111
1110
0011
0100
1100
0111
1111
1110
0101
1000
0101
1011
1111
1101
0110
1000
1010
1110
1111
1101
1100
0100
1001
1110
1111
0111
1010
1000
1100
1110
1111
1110
0110
1000
1001
0111
1111
1110
1001
0001
1010
1011
1111
0111
1001
0100
1010
1011
1111
0111
0011
0100
1001
1110
1111
1110
0110
1000
0011
1110
1111
1011
0110
0001
1010
1110
1111
1101
1100
1000
1100
1011
1111
1110
1010
1000
1100
1101
1111
1101
1010
0010
1100
1110
1111
0111
0011
,  // measure 322
0010
0110
1011
1111
1101
0101
1000
0011
1110
1111
1110
0101
0100
1001
1110
1111
1011
1010
0100
1100
0111
1111
1101
0110
0100
0101
1011
1111
1101
1100
1000
0101
1110
1111
1011
1001
1000
0011
1110
1111
1011
1100
0010
0101
1110
1111
1101
1100
1000
1001
1110
1111
0111
0110
0100
1100
1011
1111
1110
1001
1000
1010
1101
1111
0111
1100
1000
0110
1110
1111
1110
1010
0001
0101
0111
1111
1101
1010
0100
1010
0111
1111
1110
1100
1000
1001
1101
1111
1110
1100
1000
1100
1011
1111
1101
1010
1000
1100
1101
1111
0111
1010
0100
1010
0111
1111
1110
1010
0001
1100
1011
1111
1101
1100
1000
1100
1110
1111
1011
0110
1000
0110
1011
1111
1101
1010
0010
1001
1011
1111
1011
1010
1000
1001
1101
1111
1101
1010
0100
0101
1101
1111
1110
0101
1000
0110
1110
1111
1101
1100
1000
1010
1011
1111
1101
0011
0100
1100
1011
1111
1110
1001
0010
1010
1011
1111
1101
1010
1000
1100
0111
1111
1110
0110
1000
1100
1110
1111
1110
0011
1000
1100
1011
1111
1110
0011
0001
0110
1101
1111
0111
1010
,  // measure 323
1000
0110
1101
1111
1101
0110
0100
0110
0111
1111
0111
1010
0010
1010
1110
1111
1101
1001
1000
1010
1011
1111
1110
0110
0001
0110
1011
1111
1011
1001
1000
1010
1101
1111
0111
1010
0010
1100
1011
1111
1101
0110
0100
0011
0111
1111
0111
1001
1000
1100
1011
1111
0111
0011
1000
0110
1101
1111
1110
0011
1000
1010
1101
1111
1110
0101
0001
1010
1011
1111
1101
1001
1000
1100
1110
1111
1110
1010
0001
1010
1101
1111
1011
0110
0100
0011
1110
1111
1011
1100
0100
0101
1101
1111
1011
1001
1000
0011
1110
1111
1101
1100
0010
1100
0111
1111
1101
1001
1000
1100
1110
1111
1011
1100
0001
1010
1011
1111
0111
0011
0010
0101
1101
1111
0111
1010
0001
1100
1110
1111
1101
0011
0100
1010
0111
1111
1110
1001
0010
0110
1110
1111
1011
0110
0010
1100
1101
1111
0111
1100
1000
1100
1110
1111
0111
1100
1000
1001
1110
1111
1011
1001
0010
0101
1110
1111
0111
1001
0100
1001
1101
1111
1110
1010
1000
1100
0111
1111
1110
1010
0100
1001
1101
1111
1110
1100
1000
1001
1110
1111
0111
1010
,  // measure 324
0001
1100
1101
1111
1011
0011
0100
1001
1110
1111
0111
0011
0100
1010
1110
1111
1011
1100
1000
1100
1011
1111
1101
0110
1000
1100
1101
1111
1110
1100
0001
1100
1110
1111
1101
0110
0100
1100
1011
1111
1101
0110
1000
0110
1110
1111
1101
0110
0010
1001
1011
1111
1110
1001
1000
1001
1110
1111
1011
0011
0100
0101
1011
1111
1011
1010
0010
1001
0111
1111
0111
0110
1000
0110
0111
1111
1101
1010
0100
0110
1110
1111
1101
0101
1000
1100
0111
1111
1011
0011
0100
0110
1011
1111
1011
1100
0001
1001
1110
1111
1011
0110
1000
1100
0111
1111
1110
1100
0100
0110
1110
1111
1101
1100
0001
1100
1110
1111
1011
0101
0100
1100
1110
1111
1101
0011
0100
1100
1110
1111
0111
0101
1000
1100
1101
1111
0111
1100
0010
0110
0111
1111
1101
0101
1000
0110
1011
1111
0111
1010
0100
1100
1110
1111
1101
0011
0100
1100
1110
1111
1110
0101
0010
0011
0111
1111
0111
0011
0010
1010
1110
1111
0111
1100
1000
1001
1110
1111
1110
0110
0010
1010
1101
1111
0111
1001
1000
0011
1110
1111
0111
1100
,  // measure 325
1000
0101
1011
1111
1110
1010
0001
0101
1011
1111
1101
0110
1000
1001
1011
1111
1110
1010
0001
1001
1101
1111
1101
1010
1000
1100
1110
1111
0111
0101
0100
1100
0111
1111
1011
0011
0010
1010
1110
1111
1101
1010
0010
1100
1011
1111
1110
1100
1000
1001
1101
1111
1011
1010
0100
1100
1110
1111
1110
1100
0001
1010
1110
1111
1101
1001
0010
0110
1110
1111
1110
1010
1000
0110
1110
1111
1110
1010
0010
1001
1110
1111
1101
1010
0010
1010
1011
1111
1110
1010
0001
0110
1011
1111
1101
0110
1000
1100
1011
1111
0111
1010
0010
1100
1011
1111
1101
0101
1000
1100
1101
1111
1101
1010
1000
1100
1011
1111
1011
0011
1000
1001
1101
1111
0111
1100
1000
1001
1101
1111
0111
1100
1000
0110
0111
1111
1011
0101
0010
1100
1101
1111
1101
0110
1000
0110
1110
1111
1101
0101
0100
1010
1110
1111
1101
1100
1000
1010
1110
1111
1110
1010
0001
1010
1011
1111
1110
1001
1000
1100
1101
1111
0111
0101
0100
1100
0111
1111
1110
1001
0010
0101
1101
1111
0111
0110
0100
0101
1101
1111
1110
0110
,  // measure 326
1000
0011
1101
1111
1101
1100
0100
0110
1110
1111
1011
1100
1000
1100
1101
1111
1101
1001
0010
0101
1101
1111
0111
1100
0010
0101
1011
1111
1011
0011
0100
0101
1011
1111
0111
1100
0100
0011
1110
1111
1011
0110
0100
1001
0111
1111
1101
1100
0001
1100
0111
1111
1110
0110
0100
0011
1101
1111
1101
1001
0100
1100
1011
1111
1110
1010
0100
0011
1110
1111
1011
0110
0010
1100
1110
1111
1101
1100
0100
1100
1011
1111
0111
1010
1000
1100
1110
1111
1110
1001
0010
0101
1101
1111
1110
1001
0010
0011
1110
1111
1101
1010
1000
1100
1011
1111
1110
1001
1000
0101
1011
1111
1101
1100
0010
1001
1110
1111
1101
1001
0001
1100
1110
1111
1101
1010
1000
1100
1101
1111
1110
0011
0001
0011
1101
1111
1101
0110
0010
1001
1110
1111
1110
1001
1000
1010
1101
1111
1110
0110
0010
1001
0111
1111
1011
1100
1000
0011
0111
1111
1110
1010
0001
1100
0111
1111
0111
1010
1000
1010
1101
1111
0111
1100
0100
1001
1110
1111
1110
1100
0100
1010
1110
1111
1011
0011
1000
1100
1011
1111
1011
0011
,  // measure 327
1000
1010
1101
1111
1101
1100
1000
0101
1110
1111
1101
1010
0001
1100
1101
1111
1110
1010
0001
0011
1101
1111
1011
0011
0100
0101
1110
1111
1101
1001
1000
1001
1101
1111
1101
0110
1000
0011
1110
1111
1101
0110
1000
1010
1110
1111
0111
1100
0010
1100
1101
1111
1101
1010
0001
1010
1110
1111
1110
0011
0010
1010
1011
1111
0111
0101
0100
1100
1101
1111
1110
0011
0010
0110
1101
1111
1110
1010
0010
1001
1110
1111
1110
0011
0001
1100
1110
1111
0111
0011
0100
0011
1101
1111
1110
1010
0010
0110
1011
1111
1110
0101
0001
1010
1011
1111
1110
0101
0100
1100
1101
1111
0111
1100
0100
1100
1101
1111
1101
1100
0010
1001
1011
1111
1011
1010
1000
1100
1101
1111
1110
0101
1000
1001
0111
1111
1110
0110
1000
1001
0111
1111
0111
0011
0100
0110
1101
1111
1101
1010
1000
1100
1101
1111
1110
1100
1000
1100
1110
1111
1110
1100
0010
1100
0111
1111
1101
1100
1000
0101
1101
1111
1011
0101
1000
0011
1110
1111
1110
0110
0100
0110
1110
1111
1110
0110
1000
0110
0111
1111
1101
0101
,  // measure 328
0010
1010
1110
1111
1110
1001
0001
0110
1110
1111
0111
0110
1000
1001
1101
1111
0111
0011
0001
1100
1110
1111
1101
1001
0100
0110
1110
1111
0111
1010
1000
1010
1101
1111
1110
0110
0010
0011
1110
1111
1110
0110
1000
1001
0111
1111
1101
1100
0100
1001
1101
1111
1011
1010
1000
0110
1110
1111
1110
1010
0010
0110
1011
1111
1110
0011
1000
1010
1110
1111
1110
1100
0001
1010
1110
1111
0111
0110
0100
1100
1110
1111
1101
0101
1000
0110
1110
1111
1110
1010
0001
1010
1011
1111
1101
1100
0010
1010
1101
1111
1110
1001
0100
1001
1110
1111
1110
0110
0010
1100
0111
1111
1011
1010
1000
1001
1011
1111
1110
1010
0100
1100
1110
1111
0111
0110
1000
0101
1011
1111
1101
0101
0010
1001
1110
1111
1110
0110
0100
1001
1110
1111
1011
1100
0100
1100
1110
1111
0111
0110
0100
1010
1110
1111
1011
1001
0100
0101
1101
1111
1101
1100
0100
1010
1101
1111
1101
1100
0010
0110
1011
1111
1110
0101
0010
1100
1110
1111
1101
1001
0001
1100
1011
1111
1101
1010
1000
1001
1110
1111
0111
1010
,  // measure 329
0010
1010
1101
1111
1101
0011
0100
0110
1011
1111
1110
0011
0010
0110
1101
1111
1011
1001
0001
1001
1011
1111
1110
0011
1000
1001
1110
1111
1101
1001
1000
0101
1110
1111
1110
1010
1000
1010
1110
1111
1110
1001
1000
0110
0111
1111
1101
1001
0100
1010
0111
1111
0111
0011
0100
1100
1101
1111
1011
1010
0100
1010
1110
1111
0111
0110
0100
0101
1011
1111
1011
1100
0010
1001
1110
1111
0111
1001
0010
1001
1110
1111
1110
0011
0010
1010
0111
1111
1110
1001
0100
0011
1110
1111
0111
0011
1000
0110
1011
1111
1110
1001
1000
1100
0111
1111
1110
1100
1000
1010
1110
1111
1101
1010
0010
1100
1110
1111
1101
1001
0100
0011
1110
1111
0111
1001
1000
1100
1011
1111
1101
1100
0010
0110
1101
1111
0111
0011
1000
0101
1011
1111
0111
1010
0100
1010
0111
1111
0111
1010
0010
0101
1011
1111
1110
1001
0100
1100
1110
1111
1011
1100
1000
1001
1110
1111
1011
1010
1000
1100
1101
1111
1110
1001
0010
1010
1011
1111
1101
1010
0100
1100
1101
1111
1011
1100
0100
1010
1101
1111
1110
0101
,  // measure 330
1000
0110
1101
1111
1011
1100
1000
1010
1101
1111
1110
1010
1000
0110
1110
1111
1011
1010
0010
1010
1110
1111
1110
1100
1000
1001
1110
1111
1011
0110
0100
1100
1011
1111
1110
0011
1000
1010
1110
1111
1110
1001
0001
0011
1110
1111
1101
1100
0100
1010
1110
1111
1101
1100
0001
1001
1101
1111
1110
0011
0100
0101
1101
1111
1011
1010
0001
1100
1011
1111
1011
1010
0100
1001
1110
1111
1011
0011
0010
1001
1011
1111
1110
1010
0100
1100
1011
1111
1011
1010
0001
1010
1101
1111
1101
0110
1000
1001
1011
1111
1011
1001
0100
0110
1110
1111
0111
1010
0010
1100
1110
1111
1110
1100
1000
1100
1011
1111
1101
0110
0010
0011
1101
1111
1101
1001
1000
1001
1110
1111
1110
1100
1000
0101
1110
1111
1011
0101
1000
1010
1110
1111
1011
1001
0001
1100
0111
1111
1011
0101
1000
0101
1110
1111
1101
1010
0010
1010
1110
1111
1011
0101
0010
0110
1110
1111
1011
1010
1000
1100
1101
1111
0111
0110
0010
1001
1011
1111
1101
1100
0010
1001
1110
1111
1110
0011
1000
1001
1110
1111
1101
0011
,  // measure 331
1000
0101
1011
1111
1011
1010
0100
0110
1110
1111
0111
1100
0010
0110
1110
1111
1101
1010
0100
0011
1110
1111
1110
0011
0100
0011
1110
1111
1110
1001
0010
1100
1110
1111
1110
1100
1000
1010
1101
1111
1110
0011
0010
0101
1101
1111
0111
1010
0100
0110
1110
1111
0111
1100
0010
1010
1101
1111
1110
1001
0001
0110
0111
1111
1101
0110
1000
1010
1101
1111
1011
0011
0100
1010
1101
1111
1110
1010
1000
1010
1011
1111
1110
0110
0100
1010
0111
1111
1011
1001
1000
1100
0111
1111
1011
0110
1000
1010
1110
1111
1101
1100
0100
1001
1101
1111
0111
1100
0001
0101
1011
1111
1110
1100
0010
1010
1110
1111
1101
1001
0100
1010
1110
1111
1110
1010
0100
1100
1101
1111
1011
1001
0010
1001
1110
1111
0111
1100
0100
1010
1110
1111
1011
0110
1000
1010
1110
1111
0111
1010
1000
1100
1110
1111
1101
1001
1000
0101
1110
1111
0111
1100
0100
1100
0111
1111
1101
1001
1000
1010
1110
1111
1110
0011
0001
1010
1011
1111
1011
1001
0010
1100
1110
1111
1110
0110
1000
0101
1110
1111
1101
0101
,  // measure 332
1000
0110
1101
1111
0111
1010
0010
1010
1110
1111
0111
0110
1000
0110
0111
1111
0111
0011
1000
0101
1110
1111
1101
1100
0010
1001
1011
1111
0111
1010
1000
1010
1011
1111
1101
1010
1000
1100
1101
1111
0111
1001
0100
0011
1101
1111
1011
1010
1000
1100
1110
1111
1110
0110
0100
1100
1101
1111
0111
1010
1000
1100
1011
1111
1101
1100
1000
1100
1011
1111
1101
1100
0001
1010
1110
1111
1110
0011
1000
1010
1011
1111
1110
1100
1000
0011
1101
1111
1110
0011
0100
1001
1101
1111
1110
1010
0100
0110
1110
1111
1110
0011
0100
0101
1110
1111
1110
0011
0100
1010
1110
1111
1011
0011
1000
0110
0111
1111
1110
1100
0010
0110
1101
1111
1101
0110
0010
1100
1110
1111
1011
1001
0001
0101
1011
1111
1011
1001
0001
1100
0111
1111
1110
1010
0100
1100
1110
1111
1011
1100
1000
0110
0111
1111
1110
0110
0100
0101
1110
1111
1110
1100
0010
1100
1110
1111
1101
1010
0010
0101
1110
1111
1101
0101
0100
1100
1101
1111
1110
0110
1000
0101
1110
1111
1110
0110
0001
1001
0111
1111
1101
0110
,  // measure 333
0100
0101
1101
1111
0111
1010
0100
1100
1101
1111
1110
1010
1000
0011
1011
1111
1101
1100
1000
1100
1101
1111
1101
1001
0010
1100
1011
1111
1011
0101
1000
1100
1011
1111
0111
1010
1000
1100
1101
1111
0111
0110
0100
1001
1011
1111
0111
1001
1000
1010
1011
1111
1101
0110
1000
0110
1110
1111
1110
1010
0100
0110
1110
1111
1110
1010
1000
1100
0111
1111
0111
1010
1000
1001
1110
1111
1101
0011
0100
1010
1011
1111
1101
0101
0100
1010
1011
1111
1110
0101
1000
1100
1011
1111
1110
1010
1000
0101
1110
1111
0111
1100
0001
0101
1110
1111
0111
1001
0010
1001
1101
1111
1101
1001
0010
1010
0111
1111
1110
0110
0100
1010
1101
1111
1110
1001
1000
0110
0111
1111
0111
0011
0100
1100
0111
1111
1101
1010
0100
1001
0111
1111
0111
0011
0001
1100
1101
1111
1110
0110
1000
1100
0111
1111
1101
0110
1000
1100
1110
1111
0111
0110
0100
1001
1011
1111
1110
0101
0100
1010
0111
1111
1011
1100
0100
0110
1011
1111
1011
0110
0100
0110
1011
1111
1101
0011
1000
0110
0111
1111
1011
0110
,  // measure 334
0010
1100
1110
1111
1101
1010
1000
1100
1011
1111
1011
0101
0100
0110
1110
1111
1101
0011
1000
1100
1110
1111
0111
0101
0100
1010
1110
1111
0111
0101
0010
1100
1110
1111
1110
1100
0010
1001
0111
1111
1101
0110
0001
1001
1110
1111
0111
1010
0001
1010
1110
1111
1011
0101
1000
1100
1110
1111
1101
0011
0010
1100
1101
1111
1110
1100
0001
0110
1110
1111
0111
1100
0010
0110
0111
1111
0111
1010
1000
1010
1011
1111
1011
1100
0001
0110
1110
1111
1110
1010
0001
1100
0111
1111
1110
1100
1000
1010
1011
1111
1101
1010
1000
0011
1101
1111
0111
0101
1000
1100
1110
1111
1110
0110
1000
1100
1110
1111
1101
1100
0001
1010
1011
1111
1011
0011
1000
1010
1110
1111
1011
1100
1000
1010
1110
1111
0111
1100
1000
1100
1101
1111
1011
0101
1000
1100
1110
1111
1011
0011
0100
1010
1101
1111
1101
1100
0010
0011
1110
1111
0111
0101
0010
1100
1101
1111
1101
0011
0010
1001
1110
1111
0111
1100
1000
0110
1110
1111
1101
1100
1000
1001
0111
1111
1101
1010
0010
0110
0111
1111
1110
1100
,  // measure 335
0010
1001
1110
1111
1101
0101
0010
1100
1011
1111
1101
0011
0100
1100
1110
1111
1101
0110
1000
1010
1101
1111
1101
1001
0100
1100
1110
1111
0111
0011
0001
1001
0111
1111
1011
1100
0010
1010
1110
1111
0111
0011
1000
1100
1011
1111
1011
1001
0100
1010
0111
1111
0111
1001
0001
1001
1011
1111
1101
0011
1000
1100
1011
1111
1101
0101
1000
1001
1110
1111
1011
1010
0100
1100
1110
1111
0111
0110
0100
1010
1101
1111
1011
0101
1000
0101
1101
1111
1011
1100
1000
0110
1101
1111
1011
1001
1000
1010
0111
1111
1011
1001
1000
0101
1011
1111
1110
1010
1000
1010
0111
1111
1110
0110
0100
1010
1101
1111
1101
0101
1000
1001
1101
1111
1110
1100
0010
1100
0111
1111
1101
0110
1000
1001
1110
1111
1110
1100
1000
0110
1101
1111
0111
1010
0100
1010
0111
1111
1011
1010
0010
0110
1110
1111
1110
1100
0001
1010
1101
1111
1011
0110
0010
1100
1110
1111
1101
0110
0010
1100
1110
1111
0111
1010
0100
1010
1101
1111
0111
1100
0100
1100
1101
1111
1011
1100
0010
0110
1101
1111
1011
0011
;
